Subcategories

John Frusciante - Niandra LaDes And Usually Just A T-Shirt (1994) [Re-Up]

Posted By: Designol
John Frusciante - Niandra LaDes And Usually Just A T-Shirt (1994) [Re-Up]

John Frusciante - Niandra LaDes And Usually Just A T-Shirt (1994)
EAC | FLAC | Tracks (Cue&Log) ~ 433 Mb (incl 5%) | Mp3 (CBR320) ~ 196 Mb (incl 5%) | Scans included
Genre: Alternative Rock, Experimental | Label: American Recordings | # 50-51011-6084-2-1 | Time: 01:10:12

A solo debut album by John Frusciante. This album was recorded between two time periods; the first half, Niandra Lades, was recorded before Frusciante left the Red Hot Chili Peppers in 1992; during the recording of Blood Sugar Sex Magik. The second half, Usually Just a T-Shirt, was recorded while the band was on tour in the months leading up to Frusciante's departure.

Upon leaving the Red Hot Chili Peppers in 1992, guitarist John Frusciante delved into home recording, eventually completing a 12-track album titled Niandra Lades that bore the influence of '60s oddballs like Syd Barrett and Captain Beefheart. Niandra Lades languished on the shelf for a while until it was paired with another 12-track collection of Frusciante's home-taping efforts; this one, titled Usually Just a T-Shirt, concentrated on pleasant psychedelic instrumentals with plenty of backward-guitar effects. While some might find the jump from bizarre vocal numbers to atmospheric instrumentals (and the resultant shift in mood) a bit jarring, the two halves do share certain characteristics. Frusciante's singing voice has a fragile, wispy quality that sits well next to the often delicate second half, and the sparse arrangements of the first half help set the stage for the gossamer guitar work later on. Because the whole project has a definite stream-of-consciousness feel, it does fall prey to underdeveloped ideas at times, but overall, Niandra Lades and Usually Just a T-Shirt is an intriguing and unexpected departure from Frusciante's work with the Chili Peppers.

Review by Steve Huey, Allmusic.com

John Frusciante - Niandra LaDes And Usually Just A T-Shirt (1994) [Re-Up]



Tracklist:

Album #1 - Niandra LaDes:

01. As Can Be (02:57)
02. My Smile Is a Rifle (03:48)
03. Head (Beach Arab) (02:05)
04. Big Takeover (03:18)
05. Curtains (02:30)
06. Running Away into You (02:12)
07. Mascara (03:40)
08. Been Insane (01:41)
09. Skin Blues (01:46)
10. Your Pussy's Glued to a Building on Fire (03:17)
11. Blood on My Neck From Success (03:09)
12. Ten to Butter Blood Voodoo (01:59)

Album #2 - Usually Just A T-Shirt:

13. Untitled #1 (00:34)
14. Untitled #2 (04:21)
15. Untitled #3 (01:49)
16. Untitled #4 (01:39)
17. Untitled #5 (01:29)
18. Untitled #6 (01:27)
19. Untitled #7 (01:37)
20. Untitled #8 (08:00)
21. Untitled #9 (07:06)
22. Untitled #10 (00:25)
23. Untitled #11 (01:51)
24. Untitled #12 (05:27)
25. Untitled #13 (01:53)


Exact Audio Copy V0.99 prebeta 4 from 23. January 2008

EAC extraction logfile from 18. May 2009, 19:37

John Frusciante / Niandra LaDes and Usually Just a T-Shirt

Used drive : Optiarc DVD RW AD-7191S Adapter: 0 ID: 0

Read mode : Secure
Utilize accurate stream : Yes
Defeat audio cache : Yes
Make use of C2 pointers : No

Read offset correction : 6
Overread into Lead-In and Lead-Out : No
Fill up missing offset samples with silence : Yes
Delete leading and trailing silent blocks : No
Null samples used in CRC calculations : Yes
Used interface : Installed external ASPI interface
Gap handling : Appended to previous track

Used output format : User Defined Encoder
Selected bitrate : 128 kBit/s
Quality : High
Add ID3 tag : No
Command line compressor : D:\Program Files\FLAC\flac.exe
Additional command line options : -8 -V -T "ARTIST=%a" -T "TITLE=%t" -T "ALBUM=%g" -T "DATE=%y" -T "TRACKNUMBER=%n" -T "GENRE=%m" -T "COMMENT=EAC FLAC -8" %s


TOC of the extracted CD

Track | Start | Length | Start sector | End sector
––––––––––––––––––––––––––––-
1 | 0:00.00 | 2:57.73 | 0 | 13347
2 | 2:57.73 | 3:48.62 | 13348 | 30509
3 | 6:46.60 | 2:05.15 | 30510 | 39899
4 | 8:52.00 | 3:18.28 | 39900 | 54777
5 | 12:10.28 | 2:30.15 | 54778 | 66042
6 | 14:40.43 | 2:12.70 | 66043 | 76012
7 | 16:53.38 | 3:40.52 | 76013 | 92564
8 | 20:34.15 | 1:41.06 | 92565 | 100145
9 | 22:15.21 | 1:46.11 | 100146 | 108106
10 | 24:01.32 | 3:17.35 | 108107 | 122916
11 | 27:18.67 | 3:09.11 | 122917 | 137102
12 | 30:28.03 | 1:59.53 | 137103 | 146080
13 | 32:27.56 | 0:34.72 | 146081 | 148702
14 | 33:02.53 | 4:21.25 | 148703 | 168302
15 | 37:24.03 | 1:49.12 | 168303 | 176489
16 | 39:13.15 | 1:39.41 | 176490 | 183955
17 | 40:52.56 | 1:29.72 | 183956 | 190702
18 | 42:22.53 | 1:27.50 | 190703 | 197277
19 | 43:50.28 | 1:37.50 | 197278 | 204602
20 | 45:28.03 | 8:00.25 | 204603 | 240627
21 | 53:28.28 | 7:06.35 | 240628 | 272612
22 | 60:34.63 | 0:25.00 | 272613 | 274487
23 | 60:59.63 | 1:51.58 | 274488 | 282870
24 | 62:51.46 | 5:27.35 | 282871 | 307430
25 | 68:19.06 | 1:53.30 | 307431 | 315935


Track 1

Filename E:\Music\Pedro's\John Frusciante\John Frusciante - Niandra LaDes and Usually Just A T-shirt (1994) [FLAC]\01 - As Can Be.wav

Pre-gap length 0:00:02.00

Peak level 75.1 %
Track quality 99.9 %
Test CRC 5056FF7D
Copy CRC 5056FF7D
Accurately ripped (confidence 5) [37D61818]
Copy OK

Track 2

Filename E:\Music\Pedro's\John Frusciante\John Frusciante - Niandra LaDes and Usually Just A T-shirt (1994) [FLAC]\02 - My Smile Is a Rifle.wav

Pre-gap length 0:00:01.05

Peak level 70.9 %
Track quality 100.0 %
Test CRC 2A359F09
Copy CRC 2A359F09
Accurately ripped (confidence 5) [65C0C900]
Copy OK

Track 3

Filename E:\Music\Pedro's\John Frusciante\John Frusciante - Niandra LaDes and Usually Just A T-shirt (1994) [FLAC]\03 - Head (Beach Arab).wav

Pre-gap length 0:00:00.18

Peak level 62.4 %
Track quality 99.9 %
Test CRC 892FB7A2
Copy CRC 892FB7A2
Accurately ripped (confidence 5) [649C6CF3]
Copy OK

Track 4

Filename E:\Music\Pedro's\John Frusciante\John Frusciante - Niandra LaDes and Usually Just A T-shirt (1994) [FLAC]\04 - Big Takeover.wav

Pre-gap length 0:00:00.26

Peak level 72.5 %
Track quality 100.0 %
Test CRC C8DD9276
Copy CRC C8DD9276
Accurately ripped (confidence 5) [B6993654]
Copy OK

Track 5

Filename E:\Music\Pedro's\John Frusciante\John Frusciante - Niandra LaDes and Usually Just A T-shirt (1994) [FLAC]\05 - Curtains.wav

Peak level 54.4 %
Track quality 100.0 %
Test CRC A00B27CE
Copy CRC A00B27CE
Accurately ripped (confidence 5) [5A6A10CB]
Copy OK

Track 6

Filename E:\Music\Pedro's\John Frusciante\John Frusciante - Niandra LaDes and Usually Just A T-shirt (1994) [FLAC]\06 - Running Away into You.wav

Pre-gap length 0:00:01.43

Peak level 50.3 %
Track quality 100.0 %
Test CRC 99DA1084
Copy CRC 99DA1084
Accurately ripped (confidence 5) [266205EA]
Copy OK

Track 7

Filename E:\Music\Pedro's\John Frusciante\John Frusciante - Niandra LaDes and Usually Just A T-shirt (1994) [FLAC]\07 - Mascara.wav

Pre-gap length 0:00:00.31

Peak level 42.1 %
Track quality 100.0 %
Test CRC 069FF723
Copy CRC 069FF723
Accurately ripped (confidence 5) [3E4585EB]
Copy OK

Track 8

Filename E:\Music\Pedro's\John Frusciante\John Frusciante - Niandra LaDes and Usually Just A T-shirt (1994) [FLAC]\08 - Been Insane.wav

Pre-gap length 0:00:01.20

Peak level 41.5 %
Track quality 100.0 %
Test CRC 26A07B20
Copy CRC 26A07B20
Accurately ripped (confidence 5) [79D5C3A2]
Copy OK

Track 9

Filename E:\Music\Pedro's\John Frusciante\John Frusciante - Niandra LaDes and Usually Just A T-shirt (1994) [FLAC]\09 - Skin Blues.wav

Peak level 51.2 %
Track quality 100.0 %
Test CRC 6A191D26
Copy CRC 6A191D26
Accurately ripped (confidence 5) [C01CF596]
Copy OK

Track 10

Filename E:\Music\Pedro's\John Frusciante\John Frusciante - Niandra LaDes and Usually Just A T-shirt (1994) [FLAC]\10 - Your Pussy's Glued to a Building on Fire.wav

Pre-gap length 0:00:00.37

Peak level 53.2 %
Track quality 100.0 %
Test CRC F8A643D4
Copy CRC F8A643D4
Accurately ripped (confidence 5) [0DE7C02B]
Copy OK

Track 11

Filename E:\Music\Pedro's\John Frusciante\John Frusciante - Niandra LaDes and Usually Just A T-shirt (1994) [FLAC]\11 - Blood on My Neck From Success.wav

Pre-gap length 0:00:00.70

Peak level 52.9 %
Track quality 100.0 %
Test CRC 84060B35
Copy CRC 84060B35
Accurately ripped (confidence 5) [1DB45CB7]
Copy OK

Track 12

Filename E:\Music\Pedro's\John Frusciante\John Frusciante - Niandra LaDes and Usually Just A T-shirt (1994) [FLAC]\12 - Ten to Butter Blood Voodoo.wav

Pre-gap length 0:00:01.21

Peak level 47.0 %
Track quality 100.0 %
Test CRC 07D1EF0E
Copy CRC 07D1EF0E
Accurately ripped (confidence 5) [52756D5B]
Copy OK

Track 13

Filename E:\Music\Pedro's\John Frusciante\John Frusciante - Niandra LaDes and Usually Just A T-shirt (1994) [FLAC]\13 - Untitled #1.wav

Pre-gap length 0:00:00.06

Peak level 72.4 %
Track quality 100.0 %
Test CRC AA027F49
Copy CRC AA027F49
Accurately ripped (confidence 5) [A3C9EC38]
Copy OK

Track 14

Filename E:\Music\Pedro's\John Frusciante\John Frusciante - Niandra LaDes and Usually Just A T-shirt (1994) [FLAC]\14 - Untitled #2.wav

Peak level 70.0 %
Track quality 99.9 %
Test CRC FABFB90D
Copy CRC FABFB90D
Accurately ripped (confidence 5) [F35EACC1]
Copy OK

Track 15

Filename E:\Music\Pedro's\John Frusciante\John Frusciante - Niandra LaDes and Usually Just A T-shirt (1994) [FLAC]\15 - Untitled #3.wav

Peak level 61.1 %
Track quality 100.0 %
Test CRC C75EF76E
Copy CRC C75EF76E
Accurately ripped (confidence 5) [42FBB0EC]
Copy OK

Track 16

Filename E:\Music\Pedro's\John Frusciante\John Frusciante - Niandra LaDes and Usually Just A T-shirt (1994) [FLAC]\16 - Untitled #4.wav

Peak level 74.7 %
Track quality 100.0 %
Test CRC FC0C2BDB
Copy CRC FC0C2BDB
Accurately ripped (confidence 5) [255D9812]
Copy OK

Track 17

Filename E:\Music\Pedro's\John Frusciante\John Frusciante - Niandra LaDes and Usually Just A T-shirt (1994) [FLAC]\17 - Untitled #5.wav

Peak level 28.9 %
Track quality 100.0 %
Test CRC 2C50AA27
Copy CRC 2C50AA27
Accurately ripped (confidence 4) [946EF308]
Copy OK

Track 18

Filename E:\Music\Pedro's\John Frusciante\John Frusciante - Niandra LaDes and Usually Just A T-shirt (1994) [FLAC]\18 - Untitled #6.wav

Peak level 79.2 %
Track quality 99.8 %
Test CRC F03E880F
Copy CRC F03E880F
Accurately ripped (confidence 5) [B34A7AE2]
Copy OK

Track 19

Filename E:\Music\Pedro's\John Frusciante\John Frusciante - Niandra LaDes and Usually Just A T-shirt (1994) [FLAC]\19 - Untitled #7.wav

Peak level 73.0 %
Track quality 100.0 %
Test CRC 1E3FB3CF
Copy CRC 1E3FB3CF
Accurately ripped (confidence 5) [F2C2A558]
Copy OK

Track 20

Filename E:\Music\Pedro's\John Frusciante\John Frusciante - Niandra LaDes and Usually Just A T-shirt (1994) [FLAC]\20 - Untitled #8.wav

Peak level 87.2 %
Track quality 100.0 %
Test CRC 7446801D
Copy CRC 7446801D
Accurately ripped (confidence 5) [0E130A9D]
Copy OK

Track 21

Filename E:\Music\Pedro's\John Frusciante\John Frusciante - Niandra LaDes and Usually Just A T-shirt (1994) [FLAC]\21 - Untitled #9.wav

Peak level 68.3 %
Track quality 100.0 %
Test CRC A95F844A
Copy CRC A95F844A
Accurately ripped (confidence 5) [EAD971C1]
Copy OK

Track 22

Filename E:\Music\Pedro's\John Frusciante\John Frusciante - Niandra LaDes and Usually Just A T-shirt (1994) [FLAC]\22 - Untitled #10.wav

Peak level 54.1 %
Track quality 100.0 %
Test CRC 0BA72BAF
Copy CRC 0BA72BAF
Accurately ripped (confidence 5) [91EB8234]
Copy OK

Track 23

Filename E:\Music\Pedro's\John Frusciante\John Frusciante - Niandra LaDes and Usually Just A T-shirt (1994) [FLAC]\23 - Untitled #11.wav

Peak level 90.7 %
Track quality 100.0 %
Test CRC 22E575BD
Copy CRC 22E575BD
Accurately ripped (confidence 5) [8EFBBBF7]
Copy OK

Track 24

Filename E:\Music\Pedro's\John Frusciante\John Frusciante - Niandra LaDes and Usually Just A T-shirt (1994) [FLAC]\24 - Untitled #12.wav

Peak level 68.7 %
Track quality 100.0 %
Test CRC AA385FDE
Copy CRC AA385FDE
Accurately ripped (confidence 5) [EAFAD3BA]
Copy OK

Track 25

Filename E:\Music\Pedro's\John Frusciante\John Frusciante - Niandra LaDes and Usually Just A T-shirt (1994) [FLAC]\25 - Untitled #13.wav

Peak level 74.1 %
Track quality 100.0 %
Test CRC EAE1F859
Copy CRC EAE1F859
Accurately ripped (confidence 5) [A894A4C2]
Copy OK


All tracks accurately ripped

No errors occurred

End of status report

foobar2000 1.2 / Dynamic Range Meter 1.1.1
log date: 2013-11-06 13:54:53

––––––––––––––––––––––––––––––––––––––––
Analyzed: John Frusciante / Niandra LaDes and Usually Just a T-Shirt
––––––––––––––––––––––––––––––––––––––––

DR Peak RMS Duration Track
––––––––––––––––––––––––––––––––––––––––
DR8 -2.48 dB -13.36 dB 2:58 01-As Can Be
DR9 -2.98 dB -14.23 dB 3:49 02-My Smile Is a Rifle
DR8 -4.08 dB -16.08 dB 2:05 03-Head (Beach Arab)
DR10 -2.79 dB -14.51 dB 3:18 04-Big Takeover
DR9 -5.29 dB -17.51 dB 2:30 05-Curtains
DR6 -5.96 dB -15.51 dB 2:13 06-Running Away into You
DR8 -7.50 dB -19.24 dB 3:41 07-Mascara
DR8 -7.62 dB -17.63 dB 1:41 08-Been Insane
DR8 -5.81 dB -17.12 dB 1:46 09-Skin Blues
DR8 -5.48 dB -16.94 dB 3:17 10-Your Pussy's Glued to a Building on Fire
DR9 -5.52 dB -18.40 dB 3:09 11-Blood on My Neck From Success
DR9 -6.56 dB -18.13 dB 2:00 12-Ten to Butter Blood Voodoo
DR13 -2.80 dB -23.02 dB 0:35 13-Untitled #1
DR9 -3.09 dB -15.80 dB 4:21 14-Untitled #2
DR10 -4.27 dB -18.09 dB 1:49 15-Untitled #3
DR8 -2.53 dB -15.67 dB 1:40 16-Untitled #4
DR8 -10.77 dB -22.31 dB 1:30 17-Untitled #5
DR10 -2.02 dB -14.63 dB 1:28 18-Untitled #6
DR10 -2.73 dB -14.73 dB 1:38 19-Untitled #7
DR12 -1.18 dB -17.26 dB 8:00 20-Untitled #8
DR11 -3.31 dB -16.61 dB 7:06 21-Untitled #9
DR9 -5.33 dB -18.24 dB 0:25 22-Untitled #10
DR10 -0.84 dB -13.90 dB 1:52 23-Untitled #11
DR12 -3.26 dB -17.53 dB 5:27 24-Untitled #12
DR10 -2.59 dB -16.03 dB 1:53 25-Untitled #13
––––––––––––––––––––––––––––––––––––––––

Number of tracks: 25
Official DR value: DR9

Samplerate: 44100 Hz
Channels: 2
Bits per sample: 16
Bitrate: 832 kbps
Codec: FLAC
================================================================================

John Frusciante - Niandra LaDes And Usually Just A T-Shirt (1994) [Re-Up]

John Frusciante - Niandra LaDes And Usually Just A T-Shirt (1994) [Re-Up]

All thanks to original releaser - Elizir

More interesting music in My Blog


Password: designol