Subcategories
Tags
Language
Tags

John Lee Hooker - I'm John Lee Hooker (1959) Remastered Reissue 2000 [Re-Up]

Posted By: Designol
John Lee Hooker - I'm John Lee Hooker (1959) Remastered Reissue 2000 [Re-Up]

John Lee Hooker - I'm John Lee Hooker (1959) Remastered Reissue 2000
EAC | FLAC | Image (Cue&Log) ~ 132 Mb | Mp3 (CBR320) ~ 95 Mb | Scans included
Genre: Blues | Label: Vee-Jay/Collectables | # COL-CD-7100 | Time: 00:32:13

Winding through the literally hundreds of titles in John Lee Hooker's catalog is a daunting task for even the most seasoned and learned blues connoisseur. This is especially true when considering Hooker recorded under more than a dozen aliases for as many labels during the late '40s, '50s, and early '60s. I'm John Lee Hooker was first issued in 1959 during his tenure with Vee Jay and is "the Hook" in his element as well as prime. Although many of these titles were initially cut for Los Angeles-based Modern Records in the early '50s, the recordings heard here are said to best reflect Hooker's often-emulated straight-ahead primitive Detroit and Chicago blues styles. The sessions comprising the original 12-track album – as well as the four bonus tracks on the 1998 Charly CD reissue – are taken from six sessions spread over the course of four years (1955-1959). Hooker works both solo – accompanied only by his own percussive guitar and the solid backbeat of his foot rhythmically pulsating against plywood – as well as in several different small-combo settings. Unlike the diluted, pop-oriented blues that first came to prominence in the wake of the British Invasion of the early to mid-'60s, the music on this album is infinitely more authentic in presentation. As the track list indicates, I'm John Lee Hooker includes many of his best-known and loved works. From right out of the gate comes the guttural ramble-tamble of "Dimples" in its best-known form. Indeed it can be directly traced to – and is likewise acknowledged by – notable purveyors of Brit rock such as Eric Burdon – who incorporated it into the earliest incarnation of the Animals, the Spencer Davis Group, as well as the decidedly more roots-influenced Duane Allman. Another of Hooker's widely covered signature tunes featured on this volume is "Boogie Chillun." This rendering is arguably the most recognizable in the plethora of versions that have seemingly appeared on every Hooker-related compilation available. Additionally, this version was prominently featured in The Blues Brothers movie as well as countless other films and adverts. Likewise, a seminal solo "Crawlin' King Snake" is included here. The tune became not only a staple of Hooker's, it was also prominently included on the Doors' L.A. Woman album and covered by notable bluesmen Albert King, B.B. King, and Big Joe Williams, whose version predates this one by several decades. I'm John Lee Hooker is one of the great blues collections of the post-World War II era. Time has, if anything, only reinforced the significance of the album. It belongs in every blues enthusiast's collection without reservation.

Review by Lindsay Planer, Allmusic.com

John Lee Hooker - I'm John Lee Hooker (1959) Remastered Reissue 2000 [Re-Up]



Tracklist:

01. Dimples (02:12)
02. Hobo Blues (02:46)
03. I'm So Excited (02:51)
04. I Love You Honey (02:31)
05. Boogie Chillun (02:33)
06. Little Wheel (02:32)
07. I'm In The Mood (02:40)
08. Maudie (02:16)
09. Crawlin' King Snake (02:39)
10. Everynight (02:57)
11. Time Is Marching (02:59)
12. Baby Lee (02:48)


Exact Audio Copy V1.0 beta 3 from 29. August 2011

Отчёт EAC об извлечении, выполненном 25. июля 2014, 1:40

John Lee Hooker / I'm John Lee Hooker

Дисковод: ATAPI iHES108 2 Adapter: 3 ID: 1

Режим чтения : Достоверность
Использование точного потока : Да
Отключение кэша аудио : Да
Использование указателей C2 : Нет

Коррекция смещения при чтении : 6
Способность читать области Lead-in и Lead-out : Нет
Заполнение пропущенных сэмплов тишиной : Да
Удаление блоков с тишиной в начале и конце : Нет
При вычислениях CRC использовались нулевые сэмплы : Да
Интерфейс : Встроенный Win32-интерфейс для Win NT/2000

Выходной формат : Пользовательский кодировщик
Выбранный битрейт : 1024 kBit/s
Качество : Высокий
Добавление ID3-тега : Нет
Утилита сжатия : C:\Program Files\Exact Audio Copy\Flac\flac.exe
Дополнительные параметры : -V -8 -T "Date=%year%" -T "Genre=%genre%" %source%


TOC извлечённого CD

Трек | Старт | Длительность | Начальный сектор | Конечный сектор
––––––––––––––––––––––––––––––––––-
1 | 0:00.00 | 2:14.18 | 0 | 10067
2 | 2:14.18 | 2:48.19 | 10068 | 22686
3 | 5:02.37 | 2:53.41 | 22687 | 35702
4 | 7:56.03 | 2:33.67 | 35703 | 47244
5 | 10:29.70 | 2:35.10 | 47245 | 58879
6 | 13:05.05 | 2:34.26 | 58880 | 70455
7 | 15:39.31 | 2:43.00 | 70456 | 82680
8 | 18:22.31 | 2:18.26 | 82681 | 93056
9 | 20:40.57 | 2:41.35 | 93057 | 105166
10 | 23:22.17 | 2:59.21 | 105167 | 118612
11 | 26:21.38 | 3:01.59 | 118613 | 132246
12 | 29:23.22 | 2:48.72 | 132247 | 144918


Характеристики диапазона извлечения и сообщения об ошибках

Выбранный диапазон

Имя файла D:\EAC-FOLDER\John Lee Hooker - I'm John Lee Hooker\John Lee Hooker - I'm John Lee Hooker.wav

Пиковый уровень 100.0 %
Скорость извлечения 7.5 X
Качество диапазона 99.9 %
CRC теста 79C26332
CRC копии 79C26332
Копирование… OK

Ошибок не произошло


AccurateRip: сводка

Трек 1 : извлечено точно (доверие 2) [3EFAD762] (AR v2)
Трек 2 : извлечено точно (доверие 2) [7B4013AE] (AR v2)
Трек 3 : извлечено точно (доверие 2) [0149071E] (AR v2)
Трек 4 : извлечено точно (доверие 2) [81315FF0] (AR v2)
Трек 5 : извлечено точно (доверие 2) [30A585AA] (AR v2)
Трек 6 : извлечено точно (доверие 2) [C3344DF5] (AR v2)
Трек 7 : извлечено точно (доверие 2) [ADE7E40D] (AR v2)
Трек 8 : извлечено точно (доверие 2) [1F6F418C] (AR v2)
Трек 9 : извлечено точно (доверие 2) [886D9000] (AR v2)
Трек 10 : извлечено точно (доверие 2) [E5A5FAE7] (AR v2)
Трек 11 : извлечено точно (доверие 2) [7423E163] (AR v2)
Трек 12 : извлечено точно (доверие 2) [9EC3C3E8] (AR v2)

Все треки извлечены точно

Конец отчёта

==== Контрольная сумма отчёта 3C90704195663EF16ECDD71BD5CBEB7EE881A921803D01DD4A8D03FC8B377917 ====

foobar2000 1.2 / Dynamic Range Meter 1.1.1
log date: 2014-09-13 14:15:13

––––––––––––––––––––––––––––––––––––––––
Analyzed: John Lee Hooker / I'm John Lee Hooker
––––––––––––––––––––––––––––––––––––––––

DR Peak RMS Duration Track
––––––––––––––––––––––––––––––––––––––––
DR10 0.00 dB -11.93 dB 2:14 01-Dimples
DR11 0.00 dB -14.41 dB 2:48 02-Hobo Blues
DR10 0.00 dB -12.35 dB 2:54 03-I'm So Excited
DR11 0.00 dB -12.11 dB 2:34 04-I Love You Honey
DR12 -0.05 dB -14.48 dB 2:35 05-Boogie Chillun
DR9 -0.06 dB -11.21 dB 2:34 06-Little Wheel
DR11 -0.06 dB -13.67 dB 2:43 07-I'm In The Mood
DR10 -0.07 dB -13.64 dB 2:18 08-Maudie
DR12 0.00 dB -15.41 dB 2:41 09-Crawlin' King Snake
DR12 -0.05 dB -13.39 dB 2:59 10-Everynight
DR9 -0.03 dB -11.29 dB 3:02 11-Time Is Marching
DR10 -0.13 dB -11.45 dB 2:49 12-Baby Lee
––––––––––––––––––––––––––––––––––––––––

Number of tracks: 12
Official DR value: DR11

Samplerate: 44100 Hz
Channels: 2
Bits per sample: 16
Bitrate: 475 kbps
Codec: FLAC
================================================================================

John Lee Hooker - I'm John Lee Hooker (1959) Remastered Reissue 2000 [Re-Up]

John Lee Hooker - I'm John Lee Hooker (1959) Remastered Reissue 2000 [Re-Up]

All thanks to original releaser - jlhjlh

More interesting music in My Blog