Subcategories
Tags
Language
Tags

John Lennon - Anthology (1998) [4CD Box Set] Re-up

Posted By: v3122
John Lennon - Anthology (1998) [4CD Box Set] Re-up

John Lennon - Anthology (1998)
EAC | Flac(Image) + Cue + Log & MP3 CBR 320Kbps
4CD | Capitol, C2 7243 8 30614 2 6 | ~ 1538 or 631 Mb | Scans(600dpi, jpg) -> 68 Mb
Classic Rock / Pop Rock

During the great John Lennon revival of the late '80s, Yoko Ono licensed to have the Westwood One Radio Network air scores of unreleased home recordings and demos as the Lost Lennon Tapes radio show. At the time, there was endless speculation about when highlights would be released, likely as a box set. The proposed set never materialized, yet most of the material was heavily bootlegged, as the producers and Ono must have suspected. Despite the bootlegs, Ono didn't agree to an official collection of unreleased Lennon material until 1998, after the Beatles' Anthology series proved a critical and commercial success. Hence, the birth of Lennon's Anthology – a four-disc box set, comprised entirely of unreleased home recordings, demos, and outtakes, many of which have never been previously bootlegged. As it's constructed, it's more of an aural biography than a music album. All the dialogue snippets, half-finished songs, throwaways, and parodies ensure that it's never casual listening, yet that very approach creates an intriguing portrait of Lennon – a portrait of the man, not the artist. As such, there aren't really any forgotten treasures buried on the collection, even if many of these songs and takes are either completely unheard of or legendary among collecting circles. For every small pleasure, such as the Cheap Trick-backed version of "I'm Losing You," there is a small disappointment, such as how the Dylan diatribe, "Serve Yourself," doesn't quite live up to its legend. Ultimately, it doesn't matter if there are no major works or revelations, just a few good alternate tracks, because Anthology goes a long way toward capturing Lennon with all of his strengths and weaknesses.

by Stephen Thomas Erlewine, AMG

John Lennon - Anthology (1998):

John Lennon - Anthology (1998) [4CD Box Set] Re-up

Tracklist CD1 - Ascot:

01. Working Class Hero (04:21)
02. God (03:32)
03. I Found Out (03:48)
04. Hold On (00:44)
05. Isolation (03:47)
06. Love (02:43)
07. Mother (03:49)
08. Remember (02:44)
09. Imagine (take 1) (03:22)
10. 'Fortunately' (00:18)
11. Baby Please Don't Go (04:03)
12. Oh My Love (02:54)
13. Jealous Guy (04:10)
14. Maggie Mae (00:52)
15. How Do You Sleep (05:22)
16. God Save Oz (03:27)
17. Do The Oz (03:08)
18. I Don't Want To Be A Soldier (05:20)
19. Give Peace A Chance (01:53)
20. Look At Me (02:52)
21. Long Lost John (02:15)

Exact Audio Copy V1.0 beta 3 from 29. August 2011

EAC extraction logfile from 18. November 2012, 13:18

John Lennon / Anthology 1 - Ascot

Used drive : ATAPI DVD A DH16ABSH Adapter: 3 ID: 1

Read mode : Secure
Utilize accurate stream : Yes
Defeat audio cache : Yes
Make use of C2 pointers : No

Read offset correction : 6
Overread into Lead-In and Lead-Out : No
Fill up missing offset samples with silence : Yes
Delete leading and trailing silent blocks : No
Null samples used in CRC calculations : Yes
Used interface : Native Win32 interface for Win NT & 2000
Gap handling : Appended to previous track

Used output format : User Defined Encoder
Selected bitrate : 320 kBit/s
Quality : High
Add ID3 tag : No
Command line compressor : C:\Program Files (x86)\FLAC\flac.exe
Additional command line options : -8 -V -T "ARTIST=%artist%" -T "TITLE=%title%" -T "ALBUM=%albumtitle%" -T "DATE=%year%" -T "TRACKNUMBER=%tracknr%" -T "GENRE=%genre%" -T "PERFORMER=%albuminterpret%" -T "COMPOSER=%composer%" %haslyrics%–tag-from-file=LYRICS="%lyricsfile%"%haslyrics% -T "ALBUMARTIST=%albumartist%" -T "DISCNUMBER=%cdnumber%" -T "TOTALDISCS=%totalcds%" -T "TOTALTRACKS=%numtracks%" -T "COMMENT=%comment%" %source% -o %dest%


TOC of the extracted CD

Track | Start | Length | Start sector | End sector
––––––––––––––––––––––––––––-
1 | 0:00.00 | 4:21.35 | 0 | 19609
2 | 4:21.35 | 3:33.15 | 19610 | 35599
3 | 7:54.50 | 3:48.50 | 35600 | 52749
4 | 11:43.25 | 0:44.02 | 52750 | 56051
5 | 12:27.27 | 3:47.23 | 56052 | 73099
6 | 16:14.50 | 2:45.52 | 73100 | 85526
7 | 19:00.27 | 3:49.60 | 85527 | 102761
8 | 22:50.12 | 2:46.38 | 102762 | 115249
9 | 25:36.50 | 3:23.45 | 115250 | 130519
10 | 29:00.20 | 0:19.57 | 130520 | 132001
11 | 29:20.02 | 4:05.45 | 132002 | 150421
12 | 33:25.47 | 2:56.03 | 150422 | 163624
13 | 36:21.50 | 4:11.62 | 163625 | 182511
14 | 40:33.37 | 0:53.65 | 182512 | 186551
15 | 41:27.27 | 5:22.43 | 186552 | 210744
16 | 46:49.70 | 3:28.37 | 210745 | 226381
17 | 50:18.32 | 3:11.28 | 226382 | 240734
18 | 53:29.60 | 5:20.47 | 240735 | 264781
19 | 58:50.32 | 1:53.58 | 264782 | 273314
20 | 60:44.15 | 2:52.50 | 273315 | 286264
21 | 63:36.65 | 2:15.02 | 286265 | 296391


Track 1

Filename C:\Users\drizzt\Desktop\Anthology\01 - Working Class Hero.wav

Pre-gap length 0:00:02.00

Peak level 53.9 %
Extraction speed 3.6 X
Track quality 100.0 %
Test CRC 3E7DE492
Copy CRC 3E7DE492
Accurately ripped (confidence 4) [2F804DC0] (AR v2)
Copy OK

Track 2

Filename C:\Users\drizzt\Desktop\Anthology\02 - God.wav

Peak level 100.0 %
Extraction speed 3.9 X
Track quality 100.0 %
Test CRC 7D1C0878
Copy CRC 7D1C0878
Accurately ripped (confidence 4) [2D614DE4] (AR v2)
Copy OK

Track 3

Filename C:\Users\drizzt\Desktop\Anthology\03 - I Found Out.wav

Pre-gap length 0:00:01.17

Peak level 100.0 %
Extraction speed 4.2 X
Track quality 100.0 %
Test CRC B427BC6D
Copy CRC B427BC6D
Accurately ripped (confidence 4) [A2E17F06] (AR v2)
Copy OK

Track 4

Filename C:\Users\drizzt\Desktop\Anthology\04 - Hold On.wav

Peak level 100.0 %
Extraction speed 2.8 X
Track quality 100.0 %
Test CRC DAF12590
Copy CRC DAF12590
Accurately ripped (confidence 4) [9848A88A] (AR v2)
Copy OK

Track 5

Filename C:\Users\drizzt\Desktop\Anthology\05 - Isolation.wav

Peak level 100.0 %
Extraction speed 4.6 X
Track quality 100.0 %
Test CRC C24B7C7F
Copy CRC C24B7C7F
Accurately ripped (confidence 4) [E9475D59] (AR v2)
Copy OK

Track 6

Filename C:\Users\drizzt\Desktop\Anthology\06 - Love.wav

Peak level 100.0 %
Extraction speed 3.5 X
Track quality 99.9 %
Test CRC 80CAD087
Copy CRC 80CAD087
Accurately ripped (confidence 4) [509AF1CB] (AR v2)
Copy OK

Track 7

Filename C:\Users\drizzt\Desktop\Anthology\07 - Mother.wav

Pre-gap length 0:00:02.06

Peak level 100.0 %
Extraction speed 5.1 X
Track quality 100.0 %
Test CRC BE651840
Copy CRC BE651840
Accurately ripped (confidence 4) [5E88BE25] (AR v2)
Copy OK

Track 8

Filename C:\Users\drizzt\Desktop\Anthology\08 - Remember.wav

Peak level 100.0 %
Extraction speed 3.8 X
Track quality 99.9 %
Test CRC 7A74E8DC
Copy CRC 7A74E8DC
Accurately ripped (confidence 4) [1CAEAEF4] (AR v2)
Copy OK

Track 9

Filename C:\Users\drizzt\Desktop\Anthology\09 - Imagine (Take 1).wav

Pre-gap length 0:00:02.26

Peak level 100.0 %
Extraction speed 5.5 X
Track quality 100.0 %
Test CRC FA9B0B16
Copy CRC FA9B0B16
Accurately ripped (confidence 4) [6B797B4C] (AR v2)
Copy OK

Track 10

Filename C:\Users\drizzt\Desktop\Anthology\10 - ''Fortunately'' - Vignette From Bed-In.wav

Pre-gap length 0:00:01.57

Peak level 38.2 %
Extraction speed 2.2 X
Track quality 100.0 %
Test CRC B465A14F
Copy CRC B465A14F
Accurately ripped (confidence 4) [2A9314C9] (AR v2)
Copy OK

Track 11

Filename C:\Users\drizzt\Desktop\Anthology\11 - Baby Please Don't Go.wav

Pre-gap length 0:00:00.82

Peak level 100.0 %
Extraction speed 5.9 X
Track quality 100.0 %
Test CRC E8CD5E90
Copy CRC E8CD5E90
Accurately ripped (confidence 4) [10F8D165] (AR v2)
Copy OK

Track 12

Filename C:\Users\drizzt\Desktop\Anthology\12 - Oh My Love.wav

Pre-gap length 0:00:01.69

Peak level 100.0 %
Extraction speed 5.7 X
Track quality 100.0 %
Test CRC 8D389BAB
Copy CRC 8D389BAB
Accurately ripped (confidence 4) [4A0BB850] (AR v2)
Copy OK

Track 13

Filename C:\Users\drizzt\Desktop\Anthology\13 - Jealous Guy.wav

Pre-gap length 0:00:01.33

Peak level 100.0 %
Extraction speed 6.3 X
Track quality 100.0 %
Test CRC 869F6E76
Copy CRC 869F6E76
Accurately ripped (confidence 4) [AC3CEE2E] (AR v2)
Copy OK

Track 14

Filename C:\Users\drizzt\Desktop\Anthology\14 - Maggie Mae.wav

Pre-gap length 0:00:01.02

Peak level 76.2 %
Extraction speed 4.2 X
Track quality 100.0 %
Test CRC AE712D7C
Copy CRC AE712D7C
Accurately ripped (confidence 4) [71D232A4] (AR v2)
Copy OK

Track 15

Filename C:\Users\drizzt\Desktop\Anthology\15 - How Do You Sleep.wav

Pre-gap length 0:00:01.40

Peak level 100.0 %
Extraction speed 6.8 X
Track quality 100.0 %
Test CRC 40C53F6E
Copy CRC 40C53F6E
Accurately ripped (confidence 4) [6213EC09] (AR v2)
Copy OK

Track 16

Filename C:\Users\drizzt\Desktop\Anthology\16 - God Save Oz.wav

Peak level 100.0 %
Extraction speed 5.0 X
Track quality 99.9 %
Test CRC 27F04DDC
Copy CRC 27F04DDC
Accurately ripped (confidence 4) [9B665816] (AR v2)
Copy OK

Track 17

Filename C:\Users\drizzt\Desktop\Anthology\17 - Do The Oz.wav

Pre-gap length 0:00:01.46

Peak level 100.0 %
Extraction speed 6.7 X
Track quality 100.0 %
Test CRC 6976632B
Copy CRC 6976632B
Accurately ripped (confidence 4) [07CC6489] (AR v2)
Copy OK

Track 18

Filename C:\Users\drizzt\Desktop\Anthology\18 - I Don't Want To Be A Soldier.wav

Pre-gap length 0:00:02.70

Peak level 100.0 %
Extraction speed 7.3 X
Track quality 100.0 %
Test CRC ADEDEEC3
Copy CRC ADEDEEC3
Accurately ripped (confidence 4) [E893F0C4] (AR v2)
Copy OK

Track 19

Filename C:\Users\drizzt\Desktop\Anthology\19 - Give Peace A Chance.wav

Peak level 100.0 %
Extraction speed 6.2 X
Track quality 100.0 %
Test CRC C3F73E90
Copy CRC C3F73E90
Accurately ripped (confidence 4) [19AC333E] (AR v2)
Copy OK

Track 20

Filename C:\Users\drizzt\Desktop\Anthology\20 - Look At Me.wav

Peak level 100.0 %
Extraction speed 7.0 X
Track quality 100.0 %
Test CRC 0CE1127F
Copy CRC 0CE1127F
Accurately ripped (confidence 4) [62F0057E] (AR v2)
Copy OK

Track 21

Filename C:\Users\drizzt\Desktop\Anthology\21 - Long Lost John.wav

Peak level 100.0 %
Extraction speed 6.7 X
Track quality 100.0 %
Test CRC EE391162
Copy CRC EE391162
Accurately ripped (confidence 4) [E0731AEC] (AR v2)
Copy OK


All tracks accurately ripped

No errors occurred

End of status report

–– CUETools DB Plugin V2.1.3

[CTDB TOCID: 6neqDgO1zDCWA4M84iTCcHawGDI-] found, Submit result: 6neqDgO1zDCWA4M84iTCcHawGDI- has been confirmed
[43894b4d] (79/80) Accurately ripped
[3ee596b9] (01/80) No match


==== Log checksum 9771BCD48C64483EEDB69D292E981CBB90FEEB8883166877E328F0675F2080FB ====

foobar2000 1.2.9 / Dynamic Range Meter 1.1.1
log date: 2015-04-21 00:07:15

––––––––––––––––––––––––––––––––––––––––
Analyzed: John Lennon / Anthology 1 - Ascot
––––––––––––––––––––––––––––––––––––––––

DR Peak RMS Duration Track
––––––––––––––––––––––––––––––––––––––––
DR9 -5.36 dB -17.89 dB 4:21 01-Working Class Hero
DR12 0.00 dB -13.92 dB 3:33 02-God
DR10 0.00 dB -11.90 dB 3:49 03-I Found Out
DR16 0.00 dB -18.69 dB 0:44 04-Hold On
DR11 0.00 dB -14.98 dB 3:47 05-Isolation
DR13 0.00 dB -17.91 dB 2:46 06-Love
DR10 0.00 dB -11.50 dB 3:50 07-Mother
DR11 0.00 dB -12.50 dB 2:47 08-Remember
DR10 0.00 dB -12.32 dB 3:24 09-Imagine (Take 1)
DR10 -8.35 dB -25.84 dB 0:20 10-'Fortunately' - Vignette From Bed-In
DR9 0.00 dB -10.08 dB 4:06 11-Baby Please Don't Go
DR13 0.00 dB -15.57 dB 2:56 12-Oh My Love
DR9 0.00 dB -10.95 dB 4:12 13-Jealous Guy
DR9 -2.35 dB -16.44 dB 0:54 14-Maggie Mae
DR9 0.00 dB -10.47 dB 5:23 15-How Do You Sleep
DR10 0.00 dB -11.10 dB 3:28 16-God Save Oz
DR9 0.00 dB -9.94 dB 3:11 17-Do The Oz
DR10 0.00 dB -11.77 dB 5:21 18-I Don't Want To Be A Soldier
DR14 0.00 dB -17.36 dB 1:54 19-Give Peace A Chance
DR13 0.00 dB -15.12 dB 2:53 20-Look At Me
DR11 0.00 dB -12.69 dB 2:15 21-Long Lost John
––––––––––––––––––––––––––––––––––––––––

Number of tracks: 21
Official DR value: DR11

Samplerate: 44100 Hz
Channels: 2
Bits per sample: 16
Bitrate: 766 kbps
Codec: FLAC

[CUETools log; Date: 21.04.2015 0:07:18; Version: 2.1.4]
[CTDB TOCID: 6neqDgO1zDCWA4M84iTCcHawGDI-] found.
Track | CTDB Status
1 | (69/71) Accurately ripped
2 | (69/71) Accurately ripped
3 | (69/71) Accurately ripped
4 | (69/71) Accurately ripped
5 | (69/71) Accurately ripped
6 | (69/71) Accurately ripped
7 | (68/71) Accurately ripped
8 | (69/71) Accurately ripped
9 | (69/71) Accurately ripped
10 | (69/71) Accurately ripped
11 | (69/71) Accurately ripped
12 | (69/71) Accurately ripped
13 | (69/71) Accurately ripped
14 | (69/71) Accurately ripped
15 | (69/71) Accurately ripped
16 | (69/71) Accurately ripped
17 | (67/71) Accurately ripped
18 | (69/71) Accurately ripped
19 | (68/71) Accurately ripped
20 | (69/71) Accurately ripped
21 | (69/71) Accurately ripped
[AccurateRip ID: 00321fa4-02fd6096-210f6f15] found.
Track [ CRC | V2 ] Status
01 [3017db12|2f804dc0] (038+042/187) Accurately ripped
02 [5099c2bc|2d614de4] (039+042/187) Accurately ripped
03 [aa07d8db|a2e17f06] (039+042/188) Accurately ripped
04 [e9b2056c|9848a88a] (040+044/191) Accurately ripped
05 [eac30d00|e9475d59] (040+042/188) Accurately ripped
06 [4867fb1d|509af1cb] (039+042/189) Accurately ripped
07 [5e65ae33|5e88be25] (040+042/190) Accurately ripped
08 [cdfa0156|1caeaef4] (040+042/190) Accurately ripped
09 [7413378d|6b797b4c] (039+041/188) Accurately ripped
10 [3e7b5cbd|2a9314c9] (041+043/194) Accurately ripped
11 [ffc250a1|10f8d165] (040+044/193) Accurately ripped
12 [272e6bf9|4a0bb850] (040+042/192) Accurately ripped
13 [cb4a995e|ac3cee2e] (040+042/192) Accurately ripped
14 [1491af1a|71d232a4] (040+043/193) Accurately ripped
15 [b859e3e5|6213ec09] (039+042/191) Accurately ripped
16 [dcf735d6|9b665816] (041+044/195) Accurately ripped
17 [8d479465|07cc6489] (041+044/193) Accurately ripped
18 [1f2b38fa|e893f0c4] (039+041/189) Accurately ripped
19 [1bc3d8cb|19ac333e] (040+041/191) Accurately ripped
20 [d5b00bac|62f0057e] (040+042/189) Accurately ripped
21 [7c8401fc|e0731aec] (040+044/191) Accurately ripped
Offsetted by -664:
01 [23ffed18] (004/187) Accurately ripped
02 [b209184e] (004/187) Accurately ripped
03 [44bb10d6] (004/188) Accurately ripped
04 [61b8cc21] (004/191) Accurately ripped
05 [04c63f73] (004/188) Accurately ripped
06 [5bae396a] (004/189) Accurately ripped
07 [d895f895] (004/190) Accurately ripped
08 [9e746270] (004/190) Accurately ripped
09 [7026e2fd] (004/188) Accurately ripped
10 [b165c9cd] (004/194) Accurately ripped
11 [88498ba1] (004/193) Accurately ripped
12 [bf46a495] (004/192) Accurately ripped
13 [1dc918ac] (004/192) Accurately ripped
14 [a5d7725c] (004/193) Accurately ripped
15 [560a6dae] (004/191) Accurately ripped
16 [4e97d147] (004/195) Accurately ripped
17 [704161ef] (004/193) Accurately ripped
18 [b079e0f2] (004/189) Accurately ripped
19 [f7f53d53] (004/191) Accurately ripped
20 [17bbd7eb] (003/189) Accurately ripped
21 [b45f74cd] (003/191) Accurately ripped
Offsetted by 987:
01 [108678df] (041/187) Accurately ripped
02 [ce6806a2] (041/187) Accurately ripped
03 [2fad0614] (041/188) Accurately ripped
04 [a42d0aff] (040/191) Accurately ripped
05 [7f49824f] (039/188) Accurately ripped
06 [734f91e2] (041/189) Accurately ripped
07 [685483a5] (041/190) Accurately ripped
08 [0b8191be] (040/190) Accurately ripped
09 [8b2c3e5b] (040/188) Accurately ripped
10 [84049bbe] (042/194) Accurately ripped
11 [565c0041] (041/193) Accurately ripped
12 [de2f9f89] (041/192) Accurately ripped
13 [c2f3b34f] (041/192) Accurately ripped
14 [5a025dbf] (041/193) Accurately ripped
15 [9d2d674f] (040/191) Accurately ripped
16 [cf294aee] (040/195) Accurately ripped
17 [3030a552] (040/193) Accurately ripped
18 [575ec953] (041/189) Accurately ripped
19 [ebfa6d62] (041/191) Accurately ripped
20 [83ee8ba0] (039/189) Accurately ripped
21 [9bcf0479] (040/191) Accurately ripped
Offsetted by 1451:
01 [9bcef1fd] (008/187) Accurately ripped
02 [ea49116c] (008/187) Accurately ripped
03 [ca8df677] (008/188) Accurately ripped
04 [b894304c] (008/191) Accurately ripped
05 [417658bc] (008/188) Accurately ripped
06 [cec867f5] (008/189) Accurately ripped
07 [6cf110fc] (008/190) Accurately ripped
08 [3b2ddb4f] (008/190) Accurately ripped
09 [db12afad] (008/188) Accurately ripped
10 [ea8d15cc] (008/194) Accurately ripped
11 [8b009641] (008/193) Accurately ripped
12 [dab4c424] (008/192) Accurately ripped
13 [6c0c6368] (008/192) Accurately ripped
14 [bf9e639f] (008/193) Accurately ripped
15 [e029f3e7] (008/191) Accurately ripped
16 [cf514436] (008/195) Accurately ripped
17 [f1393dc2] (008/193) Accurately ripped
18 [04561643] (007/189) Accurately ripped
19 [23d7e972] (007/191) Accurately ripped
20 [df8dd6b6] (007/189) Accurately ripped
21 [71eeeeb3] (007/191) Accurately ripped
Offsetted by -658:
01 [f4afc588] (000/187) No match (V2 was not tested)
02 [3db3a9d4] (000/187) No match (V2 was not tested)
03 [090a8594] (000/188) No match (V2 was not tested)
04 [a6425e6b] (000/191) No match (V2 was not tested)
05 [a75bddcc] (000/188) No match (V2 was not tested)
06 [6337ac99] (000/189) No match (V2 was not tested)
07 [834f6f24] (000/190) No match (V2 was not tested)
08 [d47021f9] (000/190) No match (V2 was not tested)
09 [8d661c0b] (000/188) No match (V2 was not tested)
10 [882f042d] (000/194) No match (V2 was not tested)
11 [70b130e1] (000/193) No match (V2 was not tested)
12 [0282e9e3] (000/192) No match (V2 was not tested)
13 [8c882be2] (000/192) No match (V2 was not tested)
14 [a6bbcf8c] (000/193) No match (V2 was not tested)
15 [d03e7701] (000/191) No match (V2 was not tested)
16 [ed65143a] (000/195) No match (V2 was not tested)
17 [48540c1f] (000/193) No match (V2 was not tested)
18 [a45e2e14] (000/189) No match (V2 was not tested)
19 [90f4cb11] (000/191) No match (V2 was not tested)
20 [9d47d3dd] (000/189) No match (V2 was not tested)
21 [0bd788ad] (000/191) No match (V2 was not tested)
Offsetted by 951:
01 [69a02b16] (000/187) No match (V2 was not tested)
02 [7817adcf] (000/187) No match (V2 was not tested)
03 [f35ef3dd] (000/188) No match (V2 was not tested)
04 [ab3ea026] (000/191) No match (V2 was not tested)
05 [2b89732d] (000/188) No match (V2 was not tested)
06 [0205e5d4] (000/189) No match (V2 was not tested)
07 [2f96a832] (000/190) No match (V2 was not tested)
08 [c87f2b95] (000/190) No match (V2 was not tested)
09 [d823eafb] (000/188) No match (V2 was not tested)
10 [77de3a8a] (000/194) No match (V2 was not tested)
11 [e3ee20c1] (000/193) No match (V2 was not tested)
12 [4ac6011d] (000/192) No match (V2 was not tested)
13 [2d013c1b] (000/192) No match (V2 was not tested)
14 [52203127] (000/193) No match (V2 was not tested)
15 [afee4151] (000/191) No match (V2 was not tested)
16 [d4cac4ec] (000/195) No match (V2 was not tested)
17 [1cccab26] (000/193) No match (V2 was not tested)
18 [a004fa87] (000/189) No match (V2 was not tested)
19 [55fd1aee] (000/191) No match (V2 was not tested)
20 [a5b419f8] (000/189) No match (V2 was not tested)
21 [2e492ac5] (000/191) No match (V2 was not tested)

Track Peak [ CRC32 ] [W/O NULL] [ LOG ]
– 99,9 [DDA8BFD3] [A6F1D641]
01 53,9 [3E7DE492] [EF1A7DB1] CRC32
02 99,9 [7D1C0878] [2C8E05E3] CRC32
03 99,9 [B427BC6D] [7858A7FA] CRC32
04 99,9 [DAF12590] [69DA7FB6] CRC32
05 99,9 [C24B7C7F] [F4D51C09] CRC32
06 99,9 [80CAD087] [98726C7C] CRC32
07 99,9 [BE651840] [74E69147] CRC32
08 99,9 [7A74E8DC] [139B8DDB] CRC32
09 99,9 [FA9B0B16] [882CDB06] CRC32
10 38,2 [B465A14F] [7BB8D62D] CRC32
11 99,9 [E8CD5E90] [3120E61C] CRC32
12 99,9 [8D389BAB] [6827C34B] CRC32
13 99,9 [869F6E76] [5ABE8559] CRC32
14 76,2 [AE712D7C] [3B2E1A6A] CRC32
15 99,9 [40C53F6E] [CFE9BE7D] CRC32
16 99,9 [27F04DDC] [8E1FD3A1] CRC32
17 99,9 [6976632B] [E8680CE1] CRC32
18 99,9 [ADEDEEC3] [46A1A321] CRC32
19 99,9 [C3F73E90] [5D65E1E4] CRC32
20 99,9 [0CE1127F] [2D9B5A45] CRC32
21 99,9 [EE391162] [7F608C83] CRC32

John Lennon - Anthology (1998) [4CD Box Set] Re-up

Tracklist CD2 - New York City:

01. New York City (00:56)
02. Attica State (live) (04:28)
03. Imagine (live) (03:09)
04. Bring On The Lucie (04:08)
05. Woman Is The Nigger Of The World (00:39)
06. Geraldo Rivera - One To One Concert (00:40)
07. Woman Is The Nigger Of The World (live) (05:15)
08. It's So Hard (live) (03:09)
09. Come Together (live) (04:20)
10. Happy Xmas (03:32)
11. Luck Of The Irish (live) (03:41)
12. John Sinclair (live) (03:43)
13. The David Frost Show (00:54)
14. Mind Games (I Promise) (01:02)
15. Mind Games (Make Love, Not War) (01:15)
16. One Day At A Time (03:14)
17. I Know (03:13)
18. I'm The Greatest (03:37)
19. Goodnight Vienna (02:43)
20. Jerry Lewis Telethon (02:00)
21. 'A Kiss Is Just A Kiss' (00:11)
22. Real Love (04:14)
23. You Are Here (04:55)

Exact Audio Copy V1.0 beta 3 from 29. August 2011

EAC extraction logfile from 18. November 2012, 14:23

John Lennon / Anthology 2 - New York City

Used drive : ATAPI DVD A DH16ABSH Adapter: 3 ID: 1

Read mode : Secure
Utilize accurate stream : Yes
Defeat audio cache : Yes
Make use of C2 pointers : No

Read offset correction : 6
Overread into Lead-In and Lead-Out : No
Fill up missing offset samples with silence : Yes
Delete leading and trailing silent blocks : No
Null samples used in CRC calculations : Yes
Used interface : Native Win32 interface for Win NT & 2000
Gap handling : Appended to previous track

Used output format : User Defined Encoder
Selected bitrate : 320 kBit/s
Quality : High
Add ID3 tag : No
Command line compressor : C:\Program Files (x86)\FLAC\flac.exe
Additional command line options : -8 -V -T "ARTIST=%artist%" -T "TITLE=%title%" -T "ALBUM=%albumtitle%" -T "DATE=%year%" -T "TRACKNUMBER=%tracknr%" -T "GENRE=%genre%" -T "PERFORMER=%albuminterpret%" -T "COMPOSER=%composer%" %haslyrics%–tag-from-file=LYRICS="%lyricsfile%"%haslyrics% -T "ALBUMARTIST=%albumartist%" -T "DISCNUMBER=%cdnumber%" -T "TOTALDISCS=%totalcds%" -T "TOTALTRACKS=%numtracks%" -T "COMMENT=%comment%" %source% -o %dest%


TOC of the extracted CD

Track | Start | Length | Start sector | End sector
––––––––––––––––––––––––––––-
1 | 0:00.00 | 0:56.32 | 0 | 4231
2 | 0:56.32 | 4:28.38 | 4232 | 24369
3 | 5:24.70 | 3:09.05 | 24370 | 38549
4 | 8:34.00 | 4:08.20 | 38550 | 57169
5 | 12:42.20 | 0:39.17 | 57170 | 60111
6 | 13:21.37 | 0:40.30 | 60112 | 63141
7 | 14:01.67 | 5:15.05 | 63142 | 86771
8 | 19:16.72 | 3:09.70 | 86772 | 101016
9 | 22:26.67 | 4:20.63 | 101017 | 120579
10 | 26:47.55 | 3:32.50 | 120580 | 136529
11 | 30:20.30 | 3:41.45 | 136530 | 153149
12 | 34:02.00 | 3:43.17 | 153150 | 169891
13 | 37:45.17 | 0:54.10 | 169892 | 173951
14 | 38:39.27 | 1:02.65 | 173952 | 178666
15 | 39:42.17 | 1:15.30 | 178667 | 184321
16 | 40:57.47 | 3:14.43 | 184322 | 198914
17 | 44:12.15 | 3:13.45 | 198915 | 213434
18 | 47:25.60 | 3:37.55 | 213435 | 229764
19 | 51:03.40 | 2:45.00 | 229765 | 242139
20 | 53:48.40 | 2:00.67 | 242140 | 251206
21 | 55:49.32 | 0:12.05 | 251207 | 252111
22 | 56:01.37 | 4:14.48 | 252112 | 271209
23 | 60:16.10 | 4:56.00 | 271210 | 293409


Track 1

Filename C:\Users\drizzt\Desktop\Anthology\cd 2\01 - New York City.wav

Pre-gap length 0:00:02.00

Peak level 97.1 %
Extraction speed 0.6 X
Track quality 99.8 %
Test CRC DD990E2B
Copy CRC DD990E2B
Accurately ripped (confidence 4) [93746AEE] (AR v2)
Copy OK

Track 2

Filename C:\Users\drizzt\Desktop\Anthology\cd 2\02 - Attica State (Live).wav

Peak level 100.0 %
Extraction speed 2.0 X
Track quality 100.0 %
Test CRC F932EB68
Copy CRC F932EB68
Accurately ripped (confidence 4) [DA64EAE3] (AR v2)
Copy OK

Track 3

Filename C:\Users\drizzt\Desktop\Anthology\cd 2\03 - Imagine (Live).wav

Peak level 100.0 %
Extraction speed 2.1 X
Track quality 100.0 %
Test CRC 948D86A2
Copy CRC 948D86A2
Accurately ripped (confidence 4) [053A8C7C] (AR v2)
Copy OK

Track 4

Filename C:\Users\drizzt\Desktop\Anthology\cd 2\04 - Bring On The Lucie.wav

Peak level 100.0 %
Extraction speed 2.3 X
Track quality 100.0 %
Test CRC 8D6FE597
Copy CRC 8D6FE597
Accurately ripped (confidence 4) [BE4141EF] (AR v2)
Copy OK

Track 5

Filename C:\Users\drizzt\Desktop\Anthology\cd 2\05 - Woman Is The Nigger Of The World.wav

Peak level 64.5 %
Extraction speed 1.4 X
Track quality 100.0 %
Test CRC 15B2A9D1
Copy CRC 15B2A9D1
Accurately ripped (confidence 4) [C6FC73E7] (AR v2)
Copy OK

Track 6

Filename C:\Users\drizzt\Desktop\Anthology\cd 2\06 - Geraldo Rivera (One To One Concert).wav

Peak level 100.0 %
Extraction speed 1.4 X
Track quality 100.0 %
Test CRC A73888A0
Copy CRC A73888A0
Accurately ripped (confidence 4) [0F499E61] (AR v2)
Copy OK

Track 7

Filename C:\Users\drizzt\Desktop\Anthology\cd 2\07 - Woman Is The Nigger Of The World (Live).wav

Peak level 100.0 %
Extraction speed 2.1 X
Track quality 99.9 %
Test CRC 32E1D9BE
Copy CRC 32E1D9BE
Accurately ripped (confidence 4) [198CF6A1] (AR v2)
Copy OK

Track 8

Filename C:\Users\drizzt\Desktop\Anthology\cd 2\08 - It's So Hard (Live).wav

Peak level 100.0 %
Extraction speed 2.6 X
Track quality 100.0 %
Test CRC 76C742D6
Copy CRC 76C742D6
Accurately ripped (confidence 4) [10832D94] (AR v2)
Copy OK

Track 9

Filename C:\Users\drizzt\Desktop\Anthology\cd 2\09 - Come Together (Live).wav

Peak level 100.0 %
Extraction speed 2.9 X
Track quality 100.0 %
Test CRC 7845095C
Copy CRC 7845095C
Accurately ripped (confidence 4) [27E5D177] (AR v2)
Copy OK

Track 10

Filename C:\Users\drizzt\Desktop\Anthology\cd 2\10 - Happy Xmas.wav

Peak level 100.0 %
Extraction speed 3.0 X
Track quality 100.0 %
Test CRC 8C91A674
Copy CRC 8C91A674
Accurately ripped (confidence 4) [E62939BA] (AR v2)
Copy OK

Track 11

Filename C:\Users\drizzt\Desktop\Anthology\cd 2\11 - Luck Of The Irish [Live).wav

Peak level 100.0 %
Extraction speed 3.1 X
Track quality 100.0 %
Test CRC 65A8E9CB
Copy CRC 65A8E9CB
Accurately ripped (confidence 4) [0566E35A] (AR v2)
Copy OK

Track 12

Filename C:\Users\drizzt\Desktop\Anthology\cd 2\12 - John Sinclair (Live).wav

Peak level 98.7 %
Extraction speed 3.2 X
Track quality 100.0 %
Test CRC 82F2FF0A
Copy CRC 82F2FF0A
Accurately ripped (confidence 4) [C956DA57] (AR v2)
Copy OK

Track 13

Filename C:\Users\drizzt\Desktop\Anthology\cd 2\13 - The David Frost Show.wav

Peak level 42.9 %
Extraction speed 2.1 X
Track quality 100.0 %
Test CRC 08A664F7
Copy CRC 08A664F7
Accurately ripped (confidence 4) [2EEDE330] (AR v2)
Copy OK

Track 14

Filename C:\Users\drizzt\Desktop\Anthology\cd 2\14 - Mind Games (I Promise).wav

Peak level 60.2 %
Extraction speed 2.4 X
Track quality 100.0 %
Test CRC 10EF0595
Copy CRC 10EF0595
Accurately ripped (confidence 4) [9454CB5F] (AR v2)
Copy OK

Track 15

Filename C:\Users\drizzt\Desktop\Anthology\cd 2\15 - Mind Games (Make Love, Not War).wav

Peak level 49.3 %
Extraction speed 2.6 X
Track quality 100.0 %
Test CRC 0336D03D
Copy CRC 0336D03D
Accurately ripped (confidence 4) [EB6B2DD3] (AR v2)
Copy OK

Track 16

Filename C:\Users\drizzt\Desktop\Anthology\cd 2\16 - One Day At A Time.wav

Peak level 100.0 %
Extraction speed 3.3 X
Track quality 100.0 %
Test CRC 1461DC4D
Copy CRC 1461DC4D
Accurately ripped (confidence 4) [DFFB5BDE] (AR v2)
Copy OK

Track 17

Filename C:\Users\drizzt\Desktop\Anthology\cd 2\17 - I Know.wav

Peak level 73.0 %
Extraction speed 3.4 X
Track quality 100.0 %
Test CRC 5F10D4E4
Copy CRC 5F10D4E4
Accurately ripped (confidence 4) [C850DBD8] (AR v2)
Copy OK

Track 18

Filename C:\Users\drizzt\Desktop\Anthology\cd 2\18 - I'm The Greatest.wav

Peak level 100.0 %
Extraction speed 3.6 X
Track quality 100.0 %
Test CRC F44795EE
Copy CRC F44795EE
Accurately ripped (confidence 4) [562E726C] (AR v2)
Copy OK

Track 19

Filename C:\Users\drizzt\Desktop\Anthology\cd 2\19 - Goodnight Vienna.wav

Peak level 100.0 %
Extraction speed 2.3 X
Track quality 99.9 %
Test CRC 152CB4E6
Copy CRC 152CB4E6
Accurately ripped (confidence 4) [FFBF84F0] (AR v2)
Copy OK

Track 20

Filename C:\Users\drizzt\Desktop\Anthology\cd 2\20 - Jerry Lewis Telethon.wav

Pre-gap length 0:00:01.50

Peak level 67.6 %
Extraction speed 3.3 X
Track quality 100.0 %
Test CRC 09FF2991
Copy CRC 09FF2991
Accurately ripped (confidence 4) [0B4EC248] (AR v2)
Copy OK

Track 21

Filename C:\Users\drizzt\Desktop\Anthology\cd 2\21 - ''A Kiss is Just A Kiss'' (Vignette).wav

Peak level 23.7 %
Extraction speed 1.0 X
Track quality 100.0 %
Test CRC 45F8E2CE
Copy CRC 45F8E2CE
Accurately ripped (confidence 4) [509D7185] (AR v2)
Copy OK

Track 22

Filename C:\Users\drizzt\Desktop\Anthology\cd 2\22 - Real Love.wav

Pre-gap length 0:00:00.96

Peak level 62.8 %
Extraction speed 2.8 X
Track quality 99.9 %
Test CRC 5C58ED9E
Copy CRC 5C58ED9E
Accurately ripped (confidence 4) [39E14458] (AR v2)
Copy OK

Track 23

Filename C:\Users\drizzt\Desktop\Anthology\cd 2\23 - You Are Here.wav

Peak level 100.0 %
Extraction speed 4.1 X
Track quality 100.0 %
Test CRC 07879E77
Copy CRC 07879E77
Accurately ripped (confidence 4) [95BEB4D3] (AR v2)
Copy OK


All tracks accurately ripped

No errors occurred

End of status report

–– CUETools DB Plugin V2.1.3

[CTDB TOCID: xW7U50NT_xS4kNVMigqzxqDhMeA-] found, Submit result: xW7U50NT_xS4kNVMigqzxqDhMeA- has been confirmed
[594937c2] (71/72) Accurately ripped
[88e5ec45] (01/72) No match


==== Log checksum E0542037402F318A3D4673B0EBABCEBDB54E579CC074447D57CC2DF970C6D060 ====

foobar2000 1.2.9 / Dynamic Range Meter 1.1.1
log date: 2015-04-21 00:07:39

––––––––––––––––––––––––––––––––––––––––
Analyzed: John Lennon / Anthology 2 - New York City
––––––––––––––––––––––––––––––––––––––––

DR Peak RMS Duration Track
––––––––––––––––––––––––––––––––––––––––
DR13 -0.25 dB -15.78 dB 0:56 01-New York City
DR10 0.00 dB -12.05 dB 4:29 02-Attica State (Live)
DR12 0.00 dB -14.85 dB 3:09 03-Imagine (Live)
DR9 0.00 dB -10.72 dB 4:08 04-Bring On The Lucie
DR14 -3.80 dB -21.46 dB 0:39 05-Woman Is The Nigger Of The World
DR10 0.00 dB -13.77 dB 0:40 06-Geraldo Rivera (One To One Concert)
DR9 0.00 dB -10.37 dB 5:15 07-Woman Is The Nigger Of The World (Live)
DR9 0.00 dB -9.69 dB 3:10 08-It's So Hard (Live)
DR9 0.00 dB -10.11 dB 4:21 09-Come Together (Live)
DR10 0.00 dB -12.62 dB 3:33 10-Happy Xmas
DR11 0.00 dB -14.76 dB 3:42 11-Luck Of The Irish [Live)
DR10 -0.11 dB -13.75 dB 3:43 12-John Sinclair (Live)
DR11 -7.35 dB -21.08 dB 0:54 13-The David Frost Show
DR8 -4.40 dB -17.41 dB 1:03 14-Mind Games (I Promise)
DR7 -6.14 dB -16.62 dB 1:15 15-Mind Games (Make Love, Not War)
DR13 0.00 dB -14.10 dB 3:15 16-One Day At A Time
DR11 -2.73 dB -16.34 dB 3:14 17-I Know
DR10 0.00 dB -11.81 dB 3:38 18-I'm The Greatest
DR12 0.00 dB -14.12 dB 2:45 19-Goodnight Vienna
DR10 -3.39 dB -16.59 dB 2:01 20-Jerry Lewis Telethon
DR9 -12.49 dB -23.75 dB 0:12 21-'A Kiss is Just A Kiss' (Vignette)
DR13 -4.04 dB -18.66 dB 4:15 22-Real Love
DR15 0.00 dB -16.50 dB 4:56 23-You Are Here
––––––––––––––––––––––––––––––––––––––––

Number of tracks: 23
Official DR value: DR11

Samplerate: 44100 Hz
Channels: 2
Bits per sample: 16
Bitrate: 815 kbps
Codec: FLAC

[CUETools log; Date: 21.04.2015 0:07:43; Version: 2.1.4]
[CTDB TOCID: xW7U50NT_xS4kNVMigqzxqDhMeA-] found.
Track | CTDB Status
1 | (67/69) Accurately ripped
2 | (67/69) Accurately ripped
3 | (67/69) Accurately ripped
4 | (67/69) Accurately ripped
5 | (67/69) Accurately ripped
6 | (67/69) Accurately ripped
7 | (67/69) Accurately ripped
8 | (67/69) Accurately ripped
9 | (67/69) Accurately ripped
10 | (66/69) Accurately ripped
11 | (67/69) Accurately ripped
12 | (67/69) Accurately ripped
13 | (67/69) Accurately ripped
14 | (67/69) Accurately ripped
15 | (67/69) Accurately ripped
16 | (67/69) Accurately ripped
17 | (67/69) Accurately ripped
18 | (67/69) Accurately ripped
19 | (65/69) Accurately ripped
20 | (67/69) Accurately ripped
21 | (67/69) Accurately ripped
22 | (66/69) Accurately ripped
23 | (67/69) Accurately ripped
[AccurateRip ID: 00357a0c-037945a4-3f0f4817] found.
Track [ CRC | V2 ] Status
01 [daf15893|93746aee] (039+043/184) Accurately ripped
02 [b129c89f|da64eae3] (039+043/184) Accurately ripped
03 [99f3c056|053a8c7c] (039+043/184) Accurately ripped
04 [1b310fc0|be4141ef] (039+043/184) Accurately ripped
05 [7567f54e|c6fc73e7] (039+043/184) Accurately ripped
06 [98b08734|0f499e61] (040+043/185) Accurately ripped
07 [fc30b1c4|198cf6a1] (038+043/183) Accurately ripped
08 [559c44f0|10832d94] (039+045/186) Accurately ripped
09 [a733f5c2|27e5d177] (040+045/187) Accurately ripped
10 [c61c6e51|e62939ba] (040+045/187) Accurately ripped
11 [961da6c8|0566e35a] (039+044/185) Accurately ripped
12 [678bed3d|c956da57] (039+043/185) Accurately ripped
13 [32d17f60|2eede330] (040+043/186) Accurately ripped
14 [695c782c|9454cb5f] (039+043/185) Accurately ripped
15 [a9ed600b|eb6b2dd3] (039+043/184) Accurately ripped
16 [13872472|dffb5bde] (039+043/185) Accurately ripped
17 [49b4ac80|c850dbd8] (039+043/186) Accurately ripped
18 [c873a1fb|562e726c] (039+046/189) Accurately ripped
19 [7bfb7631|ffbf84f0] (040+045/186) Accurately ripped
20 [4f8d3871|0b4ec248] (040+045/187) Accurately ripped
21 [dcb3b78b|509d7185] (040+044/187) Accurately ripped
22 [581cffe8|39e14458] (039+044/184) Accurately ripped
23 [4a7c68cc|95beb4d3] (037+043/179) Accurately ripped
Offsetted by -664:
01 [9f1cf8cb] (003/184) Accurately ripped
02 [534fde63] (003/184) Accurately ripped
03 [036dba32] (003/184) Accurately ripped
04 [d294892b] (003/184) Accurately ripped
05 [2d501a38] (003/184) Accurately ripped
06 [44ad2fa9] (003/185) Accurately ripped
07 [8dee1029] (003/183) Accurately ripped
08 [4b0f93e0] (003/186) Accurately ripped
09 [246f1c2b] (003/187) Accurately ripped
10 [a238919e] (003/187) Accurately ripped
11 [3fb6cb4d] (003/185) Accurately ripped
12 [38914837] (003/185) Accurately ripped
13 [986e2150] (003/186) Accurately ripped
14 [37a2d834] (003/185) Accurately ripped
15 [2bb0370b] (003/184) Accurately ripped
16 [fd296972] (003/185) Accurately ripped
17 [bcc19800] (004/186) Accurately ripped
18 [984e498b] (003/189) Accurately ripped
19 [84843faa] (002/186) Accurately ripped
20 [28e213dc] (003/187) Accurately ripped
21 [301eb4f3] (003/187) Accurately ripped
22 [cb6d5ceb] (003/184) Accurately ripped
23 [1af8048d] (003/179) Accurately ripped
Offsetted by 707:
01 [85d3dbdc] (037/184) Accurately ripped
02 [10fcdb47] (037/184) Accurately ripped
03 [01589a0b] (037/184) Accurately ripped
04 [82885b63] (037/184) Accurately ripped
05 [b883b3da] (037/184) Accurately ripped
06 [333f4aac] (037/185) Accurately ripped
07 [730c4ac8] (037/183) Accurately ripped
08 [6a246e66] (037/186) Accurately ripped
09 [3f2076d7] (037/187) Accurately ripped
10 [dc128ed6] (037/187) Accurately ripped
11 [9098fc3a] (037/185) Accurately ripped
12 [f57ad178] (037/185) Accurately ripped
13 [670302c2] (037/186) Accurately ripped
14 [4760a18b] (037/185) Accurately ripped
15 [8db0d04b] (037/184) Accurately ripped
16 [9810b9d2] (037/185) Accurately ripped
17 [41b5f410] (037/186) Accurately ripped
18 [23a6ce69] (038/189) Accurately ripped
19 [cfec2ce7] (036/186) Accurately ripped
20 [ec6348a5] (037/187) Accurately ripped
21 [32885a4e] (037/187) Accurately ripped
22 [13a6c791] (037/184) Accurately ripped
23 [b5fc2e52] (036/179) Accurately ripped
Offsetted by 958:
01 [c0af51cd] (006/184) Accurately ripped
02 [fa67629c] (006/184) Accurately ripped
03 [887104ab] (006/184) Accurately ripped
04 [3d9f41c2] (006/184) Accurately ripped
05 [dfa66aca] (006/184) Accurately ripped
06 [a1a6a205] (006/185) Accurately ripped
07 [945350b8] (006/183) Accurately ripped
08 [f00a9e9c] (006/186) Accurately ripped
09 [79878f0f] (006/187) Accurately ripped
10 [a5883b50] (006/187) Accurately ripped
11 [6e9593ab] (006/185) Accurately ripped
12 [320a71f7] (006/185) Accurately ripped
13 [6bc82ff4] (006/186) Accurately ripped
14 [4da0c3bf] (006/185) Accurately ripped
15 [f2c6ba9a] (006/184) Accurately ripped
16 [f17bde32] (006/185) Accurately ripped
17 [8ee51e20] (006/186) Accurately ripped
18 [71eeb80e] (006/189) Accurately ripped
19 [6ad61e13] (006/186) Accurately ripped
20 [1c2c3bdc] (005/187) Accurately ripped
21 [5bddfb49] (006/187) Accurately ripped
22 [71e5a7e4] (005/184) Accurately ripped
23 [9bd1062f] (005/179) Accurately ripped
Offsetted by 671:
01 [763f1770] (000/184) No match (V2 was not tested)
02 [457c2b99] (000/184) No match (V2 was not tested)
03 [482212cd] (000/184) No match (V2 was not tested)
04 [72242b6c] (000/184) No match (V2 was not tested)
05 [57f9b071] (000/184) No match (V2 was not tested)
06 [8d470eda] (000/185) No match (V2 was not tested)
07 [b66bff3d] (000/183) No match (V2 was not tested)
08 [1f2cb543] (000/186) No match (V2 was not tested)
09 [520eebc3] (000/187) No match (V2 was not tested)
10 [b729f163] (000/187) No match (V2 was not tested)
11 [3c57dba8] (000/185) No match (V2 was not tested)
12 [ebb5851d] (000/185) No match (V2 was not tested)
13 [6344902a] (000/186) No match (V2 was not tested)
14 [31c72317] (000/185) No match (V2 was not tested)
15 [f628a413] (000/184) No match (V2 was not tested)
16 [6580d952] (000/185) No match (V2 was not tested)
17 [0bcdc950] (000/186) No match (V2 was not tested)
18 [a53ef341] (000/189) No match (V2 was not tested)
19 [46a86b97] (000/186) No match (V2 was not tested)
20 [f7ed030d] (000/187) No match (V2 was not tested)
21 [5770da2a] (000/187) No match (V2 was not tested)
22 [d1ec6102] (000/184) No match (V2 was not tested)
23 [34256bb9] (000/179) No match (V2 was not tested)

Track Peak [ CRC32 ] [W/O NULL] [ LOG ]
– 99,9 [DC5C31B9] [94203422]
01 97,1 [DD990E2B] [338A2B1C] CRC32
02 99,9 [F932EB68] [575B16BE] CRC32
03 99,9 [948D86A2] [9C3F043E] CRC32
04 99,9 [8D6FE597] [6B986B18] CRC32
05 64,5 [15B2A9D1] [5E9FD552] CRC32
06 99,9 [A73888A0] [00F873DA] CRC32
07 99,9 [32E1D9BE] [FE80C35B] CRC32
08 99,9 [76C742D6] [03F7EA12] CRC32
09 99,9 [7845095C] [ECB2CFD2] CRC32
10 99,9 [8C91A674] [6323FB9D] CRC32
11 99,9 [65A8E9CB] [A516EF27] CRC32
12 98,7 [82F2FF0A] [951DBEC0] CRC32
13 42,9 [08A664F7] [6219149B] CRC32
14 60,2 [10EF0595] [551214C5] CRC32
15 49,3 [0336D03D] [48D8B917] CRC32
16 99,9 [1461DC4D] [95EF36D8] CRC32
17 73,0 [5F10D4E4] [FEA1E5F5] CRC32
18 99,9 [F44795EE] [53D9E6B3] CRC32
19 99,9 [152CB4E6] [08FD8370] CRC32
20 67,6 [09FF2991] [549F10A9] CRC32
21 23,7 [45F8E2CE] [02C4F7D1] CRC32
22 62,8 [5C58ED9E] [75504D24] CRC32
23 99,9 [07879E77] [3FB52F9B] CRC32

John Lennon - Anthology (1998) [4CD Box Set] Re-up

Tracklist CD3 - The Lost Weekend:

01. What You Got (01:16)
02. Nobody Loves You When You're Down And Out (05:39)
03. Whatever Gets You Through The Night (home) (00:38)
04. Whatever Gets You Through The Night (studio) (03:34)
05. Yesterday (parody) (00:34)
06. Be Bop A Lula (02:53)
07. Rip It Up/Ready Teddy (02:32)
08. Scared (05:04)
09. Steel And Glass (04:47)
10. Surprise, Surprise (Sweet Bird Of Paradox) (02:59)
11. Bless You (04:15)
12. Going Down On Love (00:54)
13. Move Over Ms. L (03:10)
14. Ain't She Sweet (00:28)
15. Slippin' And Slidin' (02:27)
16. Peggy Sue (01:19)
17. Bring It On Home To Me/Send Me Some Lovin' (03:51)
18. Phil And John 1 (02:14)
19. Phil And John 2 (02:00)
20. Phil And John 3 (00:54)
21. 'When In Doubt, Fuck It' (00:10)
22. Be My Baby (04:33)
23. Stranger's Room (03:18)
24. Old Dirt Road (03:54)

Exact Audio Copy V1.0 beta 3 from 29. August 2011

EAC extraction logfile from 18. November 2012, 15:03

John Lennon / Anthology - Disc 3 - The Lost Weekend

Used drive : ATAPI DVD A DH16ABSH Adapter: 3 ID: 1

Read mode : Secure
Utilize accurate stream : Yes
Defeat audio cache : Yes
Make use of C2 pointers : No

Read offset correction : 6
Overread into Lead-In and Lead-Out : No
Fill up missing offset samples with silence : Yes
Delete leading and trailing silent blocks : No
Null samples used in CRC calculations : Yes
Used interface : Native Win32 interface for Win NT & 2000
Gap handling : Appended to previous track

Used output format : User Defined Encoder
Selected bitrate : 320 kBit/s
Quality : High
Add ID3 tag : No
Command line compressor : C:\Program Files (x86)\FLAC\flac.exe
Additional command line options : -8 -V -T "ARTIST=%artist%" -T "TITLE=%title%" -T "ALBUM=%albumtitle%" -T "DATE=%year%" -T "TRACKNUMBER=%tracknr%" -T "GENRE=%genre%" -T "PERFORMER=%albuminterpret%" -T "COMPOSER=%composer%" %haslyrics%–tag-from-file=LYRICS="%lyricsfile%"%haslyrics% -T "ALBUMARTIST=%albumartist%" -T "DISCNUMBER=%cdnumber%" -T "TOTALDISCS=%totalcds%" -T "TOTALTRACKS=%numtracks%" -T "COMMENT=%comment%" %source% -o %dest%


TOC of the extracted CD

Track | Start | Length | Start sector | End sector
––––––––––––––––––––––––––––-
1 | 0:00.00 | 1:16.00 | 0 | 5699
2 | 1:16.00 | 5:39.25 | 5700 | 31149
3 | 6:55.25 | 0:38.47 | 31150 | 34046
4 | 7:33.72 | 3:34.15 | 34047 | 50111
5 | 11:08.12 | 0:34.00 | 50112 | 52661
6 | 11:42.12 | 2:53.38 | 52662 | 65674
7 | 14:35.50 | 2:32.37 | 65675 | 77111
8 | 17:08.12 | 5:04.08 | 77112 | 99919
9 | 22:12.20 | 4:47.67 | 99920 | 121511
10 | 27:00.12 | 2:59.35 | 121512 | 134971
11 | 29:59.47 | 4:15.58 | 134972 | 154154
12 | 34:15.30 | 0:54.02 | 154155 | 158206
13 | 35:09.32 | 3:10.43 | 158207 | 172499
14 | 38:20.00 | 0:28.40 | 172500 | 174639
15 | 38:48.40 | 2:27.70 | 174640 | 185734
16 | 41:16.35 | 1:19.15 | 185735 | 191674
17 | 42:35.50 | 3:51.67 | 191675 | 209066
18 | 46:27.42 | 2:14.60 | 209067 | 219176
19 | 48:42.27 | 2:01.48 | 219177 | 228299
20 | 50:44.00 | 0:55.10 | 228300 | 232434
21 | 51:39.10 | 0:10.45 | 232435 | 233229
22 | 51:49.55 | 4:33.12 | 233230 | 253716
23 | 56:22.67 | 3:18.28 | 253717 | 268594
24 | 59:41.20 | 3:54.20 | 268595 | 286164


Track 1

Filename C:\Users\drizzt\Desktop\Anthology\cd 3\01 - What You Got.wav

Pre-gap length 0:00:02.00

Peak level 64.6 %
Extraction speed 1.7 X
Track quality 99.8 %
Test CRC B58917C2
Copy CRC B58917C2
Accurately ripped (confidence 4) [96B0E477] (AR v2)
Copy OK

Track 2

Filename C:\Users\drizzt\Desktop\Anthology\cd 3\02 - Nobody Loves You When You're Down And Out.wav

Peak level 100.0 %
Extraction speed 4.0 X
Track quality 100.0 %
Test CRC 3B95722D
Copy CRC 3B95722D
Accurately ripped (confidence 4) [9B999DA9] (AR v2)
Copy OK

Track 3

Filename C:\Users\drizzt\Desktop\Anthology\cd 3\03 - Whatever Gets You Through The Night (Home).wav

Peak level 80.4 %
Extraction speed 2.4 X
Track quality 100.0 %
Test CRC 956EB156
Copy CRC 956EB156
Accurately ripped (confidence 4) [973156B1] (AR v2)
Copy OK

Track 4

Filename C:\Users\drizzt\Desktop\Anthology\cd 3\04 - Whatever Gets You Through The Night (Studio).wav

Peak level 100.0 %
Extraction speed 4.2 X
Track quality 100.0 %
Test CRC 9981233E
Copy CRC 9981233E
Accurately ripped (confidence 4) [89E47B99] (AR v2)
Copy OK

Track 5

Filename C:\Users\drizzt\Desktop\Anthology\cd 3\05 - Yesterday (Parody).wav

Peak level 96.9 %
Extraction speed 2.3 X
Track quality 100.0 %
Test CRC D29C6A0C
Copy CRC D29C6A0C
Accurately ripped (confidence 4) [7B7CB9B9] (AR v2)
Copy OK

Track 6

Filename C:\Users\drizzt\Desktop\Anthology\cd 3\06 - Be Bop A Lula.wav

Peak level 100.0 %
Extraction speed 4.3 X
Track quality 100.0 %
Test CRC 15BB17D0
Copy CRC 15BB17D0
Accurately ripped (confidence 4) [74FF39FD] (AR v2)
Copy OK

Track 7

Filename C:\Users\drizzt\Desktop\Anthology\cd 3\07 - Rip It Up,Ready Teddy.wav

Peak level 100.0 %
Extraction speed 4.5 X
Track quality 100.0 %
Test CRC 7F5CFFAD
Copy CRC 7F5CFFAD
Accurately ripped (confidence 4) [9CAA0FB3] (AR v2)
Copy OK

Track 8

Filename C:\Users\drizzt\Desktop\Anthology\cd 3\08 - Scared.wav

Peak level 100.0 %
Extraction speed 4.3 X
Track quality 99.9 %
Test CRC B77FCDB5
Copy CRC B77FCDB5
Accurately ripped (confidence 4) [1F969580] (AR v2)
Copy OK

Track 9

Filename C:\Users\drizzt\Desktop\Anthology\cd 3\09 - Steel And Glass.wav

Peak level 100.0 %
Extraction speed 5.5 X
Track quality 100.0 %
Test CRC C25DCF2F
Copy CRC C25DCF2F
Accurately ripped (confidence 4) [9C1F10A0] (AR v2)
Copy OK

Track 10

Filename C:\Users\drizzt\Desktop\Anthology\cd 3\10 - Surprise, Surprise (Sweet Bird Of Paradox).wav

Peak level 100.0 %
Extraction speed 5.4 X
Track quality 100.0 %
Test CRC 92C0933D
Copy CRC 92C0933D
Accurately ripped (confidence 4) [A4BEC89D] (AR v2)
Copy OK

Track 11

Filename C:\Users\drizzt\Desktop\Anthology\cd 3\11 - Bless You.wav

Peak level 100.0 %
Extraction speed 5.9 X
Track quality 100.0 %
Test CRC EE2DC212
Copy CRC EE2DC212
Accurately ripped (confidence 4) [B0BF0696] (AR v2)
Copy OK

Track 12

Filename C:\Users\drizzt\Desktop\Anthology\cd 3\12 - Going Down On Love.wav

Peak level 100.0 %
Extraction speed 4.0 X
Track quality 100.0 %
Test CRC 7E20FDF7
Copy CRC 7E20FDF7
Accurately ripped (confidence 4) [24B88971] (AR v2)
Copy OK

Track 13

Filename C:\Users\drizzt\Desktop\Anthology\cd 3\13 - Move Over Ms. L.wav

Peak level 100.0 %
Extraction speed 4.5 X
Track quality 99.9 %
Test CRC 08299E8D
Copy CRC 08299E8D
Accurately ripped (confidence 4) [E14A12E4] (AR v2)
Copy OK

Track 14

Filename C:\Users\drizzt\Desktop\Anthology\cd 3\14 - Ain't She Sweet.wav

Peak level 100.0 %
Extraction speed 1.4 X
Track quality 99.6 %
Test CRC DCC371C4
Copy CRC DCC371C4
Accurately ripped (confidence 4) [C0A9831C] (AR v2)
Copy OK

Track 15

Filename C:\Users\drizzt\Desktop\Anthology\cd 3\15 - Slippin' And Slidin'.wav

Peak level 100.0 %
Extraction speed 5.8 X
Track quality 100.0 %
Test CRC 21F5C8DF
Copy CRC 21F5C8DF
Accurately ripped (confidence 4) [5A50EBC9] (AR v2)
Copy OK

Track 16

Filename C:\Users\drizzt\Desktop\Anthology\cd 3\16 - Peggy Sue.wav

Peak level 100.0 %
Extraction speed 5.0 X
Track quality 100.0 %
Test CRC 0FC1C29B
Copy CRC 0FC1C29B
Accurately ripped (confidence 4) [E2E87E10] (AR v2)
Copy OK

Track 17

Filename C:\Users\drizzt\Desktop\Anthology\cd 3\17 - Bring It On Home To Me,Send Me Some Lovin'.wav

Peak level 100.0 %
Extraction speed 6.5 X
Track quality 100.0 %
Test CRC 87EF7984
Copy CRC 87EF7984
Accurately ripped (confidence 4) [9D890577] (AR v2)
Copy OK

Track 18

Filename C:\Users\drizzt\Desktop\Anthology\cd 3\18 - Phil And John 1.wav

Peak level 79.6 %
Extraction speed 4.3 X
Track quality 99.9 %
Test CRC 15974BB7
Copy CRC 15974BB7
Accurately ripped (confidence 4) [A9E0A5B8] (AR v2)
Copy OK

Track 19

Filename C:\Users\drizzt\Desktop\Anthology\cd 3\19 - Phil And John 2.wav

Peak level 100.0 %
Extraction speed 5.9 X
Track quality 100.0 %
Test CRC 4130CC77
Copy CRC 4130CC77
Accurately ripped (confidence 4) [F6521F88] (AR v2)
Copy OK

Track 20

Filename C:\Users\drizzt\Desktop\Anthology\cd 3\20 - Phil And John 3.wav

Pre-gap length 0:00:01.17

Peak level 100.0 %
Extraction speed 4.5 X
Track quality 100.0 %
Test CRC 599BFF54
Copy CRC 599BFF54
Accurately ripped (confidence 4) [1B98615F] (AR v2)
Copy OK

Track 21

Filename C:\Users\drizzt\Desktop\Anthology\cd 3\21 - ''When In Doubt, Fuck It''.wav

Peak level 23.2 %
Extraction speed 0.6 X
Track quality 98.9 %
Test CRC C0DAF7DE
Copy CRC C0DAF7DE
Accurately ripped (confidence 4) [06EF7281] (AR v2)
Copy OK

Track 22

Filename C:\Users\drizzt\Desktop\Anthology\cd 3\22 - Be My Baby.wav

Peak level 100.0 %
Extraction speed 7.1 X
Track quality 100.0 %
Test CRC BE83BA26
Copy CRC BE83BA26
Accurately ripped (confidence 4) [B78B82E3] (AR v2)
Copy OK

Track 23

Filename C:\Users\drizzt\Desktop\Anthology\cd 3\23 - Stranger's Room.wav

Peak level 69.3 %
Extraction speed 7.0 X
Track quality 100.0 %
Test CRC 1061A3A3
Copy CRC 1061A3A3
Accurately ripped (confidence 4) [09E1B76E] (AR v2)
Copy OK

Track 24

Filename C:\Users\drizzt\Desktop\Anthology\cd 3\24 - Old Dirt Road.wav

Peak level 100.0 %
Extraction speed 7.2 X
Track quality 100.0 %
Test CRC 735C9DA8
Copy CRC 735C9DA8
Accurately ripped (confidence 3) [8F0D9565] (AR v2)
Copy OK


All tracks accurately ripped

No errors occurred

End of status report

–– CUETools DB Plugin V2.1.3

[CTDB TOCID: Ly2.WvZ8fls8gc_CD75OvDC51hA-] found, Submit result: Ly2.WvZ8fls8gc_CD75OvDC51hA- has been confirmed
[370b308d] (78/79) Accurately ripped
[7e171c73] (01/79) No match


==== Log checksum BF06017E6A5349F34C6683A94C6B2C22784AF151E85B2FF2669A2062E6541983 ====

foobar2000 1.2.9 / Dynamic Range Meter 1.1.1
log date: 2015-04-21 00:08:04

––––––––––––––––––––––––––––––––––––––––
Analyzed: John Lennon / Anthology - Disc 3 - The Lost Weekend
––––––––––––––––––––––––––––––––––––––––

DR Peak RMS Duration Track
––––––––––––––––––––––––––––––––––––––––
DR13 -3.79 dB -21.30 dB 1:16 01-What You Got
DR10 0.00 dB -12.57 dB 5:39 02-Nobody Loves You When You're Down And Out
DR13 -1.89 dB -20.61 dB 0:39 03-Whatever Gets You Through The Night (Home)
DR10 0.00 dB -11.13 dB 3:34 04-Whatever Gets You Through The Night (Studio)
DR17 -0.27 dB -22.83 dB 0:34 05-Yesterday (Parody)
DR7 0.00 dB -8.82 dB 2:54 06-Be Bop A Lula
DR8 0.00 dB -9.22 dB 2:32 07-Rip It Up/Ready Teddy
DR10 0.00 dB -11.87 dB 5:04 08-Scared
DR10 0.00 dB -12.04 dB 4:48 09-Steel And Glass
DR9 0.00 dB -11.03 dB 2:59 10-Surprise, Surprise (Sweet Bird Of Paradox)
DR11 0.00 dB -11.97 dB 4:16 11-Bless You
DR12 0.00 dB -22.85 dB 0:54 12-Going Down On Love
DR8 0.00 dB -9.62 dB 3:11 13-Move Over Ms. L
DR18 0.00 dB -19.61 dB 0:29 14-Ain't She Sweet
DR9 0.00 dB -10.23 dB 2:28 15-Slippin' And Slidin'
DR7 0.00 dB -8.45 dB 1:19 16-Peggy Sue
DR9 0.00 dB -9.61 dB 3:52 17-Bring It On Home To Me/Send Me Some Lovin'
DR15 -1.97 dB -20.96 dB 2:15 18-Phil And John 1
DR14 0.00 dB -18.44 dB 2:02 19-Phil And John 2
DR16 0.00 dB -21.98 dB 0:55 20-Phil And John 3
DR17 -12.68 dB -31.58 dB 0:11 21-'When In Doubt, Fuck It'
DR8 0.00 dB -11.37 dB 4:33 22-Be My Baby
DR11 -3.18 dB -17.48 dB 3:18 23-Stranger's Room
DR12 0.00 dB -13.76 dB 3:54 24-Old Dirt Road
––––––––––––––––––––––––––––––––––––––––

Number of tracks: 24
Official DR value: DR11

Samplerate: 44100 Hz
Channels: 2
Bits per sample: 16
Bitrate: 812 kbps
Codec: FLAC

[CUETools log; Date: 21.04.2015 0:08:05; Version: 2.1.4]
[CTDB TOCID: Ly2.WvZ8fls8gc_CD75OvDC51hA-] found.
Track | CTDB Status
1 | (74/76) Accurately ripped
2 | (74/76) Accurately ripped
3 | (72/76) Accurately ripped
4 | (73/76) Accurately ripped
5 | (74/76) Accurately ripped
6 | (73/76) Accurately ripped
7 | (73/76) Accurately ripped
8 | (73/76) Accurately ripped
9 | (73/76) Accurately ripped
10 | (73/76) Accurately ripped
11 | (73/76) Accurately ripped
12 | (73/76) Accurately ripped
13 | (73/76) Accurately ripped
14 | (73/76) Accurately ripped
15 | (73/76) Accurately ripped
16 | (74/76) Accurately ripped
17 | (73/76) Accurately ripped
18 | (72/76) Accurately ripped
19 | (73/76) Accurately ripped
20 | (74/76) Accurately ripped
21 | (74/76) Accurately ripped
22 | (72/76) Accurately ripped
23 | (72/76) Accurately ripped
24 | (72/76) Accurately ripped
[AccurateRip ID: 00378c8c-03bb24ea-300ee718] found.
Track [ CRC | V2 ] Status
01 [430faf5d|96b0e477] (040+041/185) Accurately ripped
02 [dcab114c|9b999da9] (041+043/182) Accurately ripped
03 [17348d6c|973156b1] (039+041/182) Accurately ripped
04 [12c6f7f9|89e47b99] (040+041/186) Accurately ripped
05 [4540e365|7b7cb9b9] (041+043/191) Accurately ripped
06 [33c18897|74ff39fd] (041+044/190) Accurately ripped
07 [2d543dfd|9caa0fb3] (041+045/192) Accurately ripped
08 [0935835f|1f969580] (040+041/186) Accurately ripped
09 [70e545a6|9c1f10a0] (039+041/186) Accurately ripped
10 [ed0f33b6|a4bec89d] (040+041/186) Accurately ripped
11 [93984ccc|b0bf0696] (040+041/186) Accurately ripped
12 [fa02330d|24b88971] (040+041/186) Accurately ripped
13 [394a8b27|e14a12e4] (040+043/188) Accurately ripped
14 [a83d9962|c0a9831c] (041+045/190) Accurately ripped
15 [d0dc464a|5a50ebc9] (040+044/189) Accurately ripped
16 [af367a3d|e2e87e10] (041+044/190) Accurately ripped
17 [ae4c4929|9d890577] (040+045/189) Accurately ripped
18 [5e94472a|a9e0a5b8] (040+041/186) Accurately ripped
19 [b30eb8c4|f6521f88] (040+041/186) Accurately ripped
20 [373faf13|1b98615f] (040+041/186) Accurately ripped
21 [078fb5c7|06ef7281] (040+041/186) Accurately ripped
22 [e04ffd43|b78b82e3] (039+044/186) Accurately ripped
23 [6be02df8|09e1b76e] (039+042/185) Accurately ripped
24 [19977097|8f0d9565] (039+040/181) Accurately ripped
Offsetted by -664:
01 [f91c6a2d] (003/185) Accurately ripped
02 [9f257b71] (002/182) Accurately ripped
03 [4f126d59] (003/182) Accurately ripped
04 [046bb7af] (003/186) Accurately ripped
05 [fc63e0cd] (003/191) Accurately ripped
06 [710b950f] (003/190) Accurately ripped
07 [f90d6011] (003/192) Accurately ripped
08 [3f1be8eb] (003/186) Accurately ripped
09 [fe87897e] (003/186) Accurately ripped
10 [68a5f46b] (003/186) Accurately ripped
11 [5344a96b] (003/186) Accurately ripped
12 [6051167c] (003/186) Accurately ripped
13 [11ccfbb6] (003/188) Accurately ripped
14 [4964c5fc] (003/190) Accurately ripped
15 [6a3773cf] (003/189) Accurately ripped
16 [06ea2f2b] (003/190) Accurately ripped
17 [956b323e] (003/189) Accurately ripped
18 [b607bbc2] (003/186) Accurately ripped
19 [4311208c] (003/186) Accurately ripped
20 [357fb443] (003/186) Accurately ripped
21 [2384f32f] (003/186) Accurately ripped
22 [2cabd383] (003/186) Accurately ripped
23 [ca1c0f00] (003/185) Accurately ripped
24 [4cfce207] (003/181) Accurately ripped
Offsetted by -119:
01 [3006666f] (007/185) Accurately ripped
02 [69320f2c] (006/182) Accurately ripped
03 [02207b5e] (007/182) Accurately ripped
04 [dfa1e246] (007/186) Accurately ripped
05 [35e1c2ee] (007/191) Accurately ripped
06 [2c04a0c3] (007/190) Accurately ripped
07 [5e32c782] (007/192) Accurately ripped
08 [3441895c] (007/186) Accurately ripped
09 [99509e25] (007/186) Accurately ripped
10 [5fae4c27] (007/186) Accurately ripped
11 [9455b382] (007/186) Accurately ripped
12 [cdeaa90b] (007/186) Accurately ripped
13 [ab11791c] (007/188) Accurately ripped
14 [2383077b] (007/190) Accurately ripped
15 [77d84298] (007/189) Accurately ripped
16 [63db1862] (007/190) Accurately ripped
17 [95d201a3] (007/189) Accurately ripped
18 [8696d671] (007/186) Accurately ripped
19 [12439629] (007/186) Accurately ripped
20 [1a67b001] (007/186) Accurately ripped
21 [5e4bfd50] (007/186) Accurately ripped
22 [b6457f6b] (007/186) Accurately ripped
23 [dd0d3e65] (007/185) Accurately ripped
24 [15b1b76d] (007/181) Accurately ripped
Offsetted by 471:
01 [0b2dfb0b] (039/185) Accurately ripped
02 [ff80e458] (036/182) Accurately ripped
03 [96182c67] (039/182) Accurately ripped
04 [f9500ec3] (039/186) Accurately ripped
05 [e734053c] (039/191) Accurately ripped
06 [ad63666d] (039/190) Accurately ripped
07 [9eb718bf] (039/192) Accurately ripped
08 [4af13d71] (039/186) Accurately ripped
09 [47fd3e84] (039/186) Accurately ripped
10 [c29bc009] (039/186) Accurately ripped
11 [30b50352] (039/186) Accurately ripped
12 [1416709d] (039/186) Accurately ripped
13 [c44f4c8f] (039/188) Accurately ripped
14 [8e636ef1] (039/190) Accurately ripped
15 [faa55c09] (039/189) Accurately ripped
16 [735aa50b] (039/190) Accurately ripped
17 [8103fbf9] (039/189) Accurately ripped
18 [5a378c79] (039/186) Accurately ripped
19 [60f4573f] (039/186) Accurately ripped
20 [3317ab65] (039/186) Accurately ripped
21 [19b54f03] (039/186) Accurately ripped
22 [6f8ef8b2] (037/186) Accurately ripped
23 [3245fe7e] (038/185) Accurately ripped
24 [2f44de0e] (037/181) Accurately ripped
Offsetted by -658:
01 [cabe3a39] (000/185) No match (V2 was not tested)
02 [a410b01d] (000/182) No match (V2 was not tested)
03 [181f9f6f] (000/182) No match (V2 was not tested)
04 [ea384943] (000/186) No match (V2 was not tested)
05 [1d6f20d3] (000/191) No match (V2 was not tested)
06 [817477a5] (000/190) No match (V2 was not tested)
07 [32119b55] (000/192) No match (V2 was not tested)
08 [5f323e11] (000/186) No match (V2 was not tested)
09 [aabe5c28] (000/186) No match (V2 was not tested)
10 [d78a8424] (000/186) No match (V2 was not tested)
11 [75165317] (000/186) No match (V2 was not tested)
12 [32d89ac7] (000/186) No match (V2 was not tested)
13 [c8a8b45b] (000/188) No match (V2 was not tested)
14 [4cd29e0b] (000/190) No match (V2 was not tested)
15 [37d07946] (000/189) No match (V2 was not tested)
16 [234ec08e] (000/190) No match (V2 was not tested)
17 [15ea5aa8] (000/189) No match (V2 was not tested)
18 [cfa54d30] (000/186) No match (V2 was not tested)
19 [7633087a] (000/186) No match (V2 was not tested)
20 [c4efb437] (000/186) No match (V2 was not tested)
21 [03492335] (000/186) No match (V2 was not tested)
22 [5c27ccf3] (000/186) No match (V2 was not tested)
23 [09445b9e] (000/185) No match (V2 was not tested)
24 [040a9deb] (000/181) No match (V2 was not tested)
Offsetted by 435:
01 [21631ac3] (000/185) No match (V2 was not tested)
02 [535dd5ce] (000/182) No match (V2 was not tested)
03 [0d6717f8] (000/182) No match (V2 was not tested)
04 [33c0b960] (000/186) No match (V2 was not tested)
05 [20f08518] (000/191) No match (V2 was not tested)
06 [ae44dd99] (000/190) No match (V2 was not tested)
07 [342c829f] (000/192) No match (V2 was not tested)
08 [03b87455] (000/186) No match (V2 was not tested)
09 [3f200804] (000/186) No match (V2 was not tested)
10 [b983c4d7] (000/186) No match (V2 was not tested)
11 [f4aa7cc2] (000/186) No match (V2 was not tested)
12 [dd11cc1b] (000/186) No match (V2 was not tested)
13 [8f906541] (000/188) No match (V2 was not tested)
14 [2e7cd40b] (000/190) No match (V2 was not tested)
15 [2de490f2] (000/189) No match (V2 was not tested)
16 [311c7c12] (000/190) No match (V2 was not tested)
17 [829e7e9d] (000/189) No match (V2 was not tested)
18 [a96fdc51] (000/186) No match (V2 was not tested)
19 [2e28e7ab] (000/186) No match (V2 was not tested)
20 [d677abad] (000/186) No match (V2 was not tested)
21 [74852ebb] (000/186) No match (V2 was not tested)
22 [632e2036] (000/186) No match (V2 was not tested)
23 [1f4c8a73] (000/185) No match (V2 was not tested)
24 [e27b9fd5] (000/181) No match (V2 was not tested)

Track Peak [ CRC32 ] [W/O NULL] [ LOG ]
– 99,9 [6B9F80E1] [75B39368]
01 64,6 [B58917C2] [DC068225] CRC32
02 99,9 [3B95722D] [7ED18DA7] CRC32
03 80,4 [956EB156] [4DF4302F] CRC32
04 99,9 [9981233E] [0108B0BD] CRC32
05 96,9 [D29C6A0C] [E4E5881C] CRC32
06 99,9 [15BB17D0] [AD4C0601] CRC32
07 99,9 [7F5CFFAD] [44B7DF0D] CRC32
08 99,9 [B77FCDB5] [35A304CF] CRC32
09 99,9 [C25DCF2F] [0308914E] CRC32
10 99,9 [92C0933D] [935A5AC2] CRC32
11 99,9 [EE2DC212] [9F6FDEAD] CRC32
12 99,9 [7E20FDF7] [C5C7DFD8] CRC32
13 99,9 [08299E8D] [49618A6D] CRC32
14 99,9 [DCC371C4] [1D1B0B44] CRC32
15 99,9 [21F5C8DF] [C53145A9] CRC32
16 99,9 [0FC1C29B] [2A7B0844] CRC32
17 99,9 [87EF7984] [2D09BF1A] CRC32
18 79,6 [15974BB7] [4B720BB9] CRC32
19 99,9 [4130CC77] [23C96E6C] CRC32
20 99,9 [599BFF54] [A2D199D0] CRC32
21 23,2 [C0DAF7DE] [7F430205] CRC32
22 99,9 [BE83BA26] [7BBB9E4B] CRC32
23 69,3 [1061A3A3] [3C114F2D] CRC32
24 99,9 [735C9DA8] [29FD9A86] CRC32

John Lennon - Anthology (1998) [4CD Box Set] Re-up

Tracklist CD4 - Dakota:

01. I'm Losing You (04:06)
02. Sean's 'Little Help' (00:58)
03. Serve Yourself (03:49)
04. My Life (02:36)
05. Nobody Told Me (03:32)
06. Life Begins At 40 (02:24)
07. I Don't Wanna Face It (03:31)
08. Woman (04:03)
09. Dear Yoko (02:35)
10. Watching The Wheels (03:05)
11. I'm Stepping Out (04:19)
12. Borrowed Time (03:58)
13. The Rishi Kesh Song (02:28)
14. Sean's 'Loud' (00:35)
15. Beautiful Boy (04:12)
16. Mr. Hyde's Gone (Don't Be Afraid) (02:41)
17. Only You (03:25)
18. Grow Old With Me (03:19)
19. Dear John (02:14)
20. The Great Wok (03:14)
21. Mucho Mungo (01:26)
22. Satire 1 (02:21)
23. Satire 2 (04:35)
24. Satire 3 (00:47)
25. Sean's 'In The Sky' (01:23)
26. It's Real (01:05)

Exact Audio Copy V1.0 beta 3 from 29. August 2011

EAC extraction logfile from 18. November 2012, 16:01

John Lennon / Anthology 4 - Dakota

Used drive : ATAPI DVD A DH16ABSH Adapter: 3 ID: 1

Read mode : Secure
Utilize accurate stream : Yes
Defeat audio cache : Yes
Make use of C2 pointers : No

Read offset correction : 6
Overread into Lead-In and Lead-Out : No
Fill up missing offset samples with silence : Yes
Delete leading and trailing silent blocks : No
Null samples used in CRC calculations : Yes
Used interface : Native Win32 interface for Win NT & 2000
Gap handling : Appended to previous track

Used output format : User Defined Encoder
Selected bitrate : 320 kBit/s
Quality : High
Add ID3 tag : No
Command line compressor : C:\Program Files (x86)\FLAC\flac.exe
Additional command line options : -8 -V -T "ARTIST=%artist%" -T "TITLE=%title%" -T "ALBUM=%albumtitle%" -T "DATE=%year%" -T "TRACKNUMBER=%tracknr%" -T "GENRE=%genre%" -T "PERFORMER=%albuminterpret%" -T "COMPOSER=%composer%" %haslyrics%–tag-from-file=LYRICS="%lyricsfile%"%haslyrics% -T "ALBUMARTIST=%albumartist%" -T "DISCNUMBER=%cdnumber%" -T "TOTALDISCS=%totalcds%" -T "TOTALTRACKS=%numtracks%" -T "COMMENT=%comment%" %source% -o %dest%


TOC of the extracted CD

Track | Start | Length | Start sector | End sector
––––––––––––––––––––––––––––-
1 | 0:00.00 | 4:06.52 | 0 | 18501
2 | 4:06.52 | 0:58.70 | 18502 | 22921
3 | 5:05.47 | 3:49.38 | 22922 | 40134
4 | 8:55.10 | 2:37.47 | 40135 | 51956
5 | 11:32.57 | 3:32.65 | 51957 | 67921
6 | 15:05.47 | 2:24.15 | 67922 | 78736
7 | 17:29.62 | 3:32.73 | 78737 | 94709
8 | 21:02.60 | 4:03.10 | 94710 | 112944
9 | 25:05.70 | 2:35.32 | 112945 | 124601
10 | 27:41.27 | 3:05.33 | 124602 | 138509
11 | 30:46.60 | 4:19.20 | 138510 | 157954
12 | 35:06.05 | 3:58.47 | 157955 | 175851
13 | 39:04.52 | 2:28.03 | 175852 | 186954
14 | 41:32.55 | 0:35.07 | 186955 | 189586
15 | 42:07.62 | 4:12.60 | 189587 | 208546
16 | 46:20.47 | 2:43.13 | 208547 | 220784
17 | 49:03.60 | 3:25.35 | 220785 | 236194
18 | 52:29.20 | 3:19.72 | 236195 | 251191
19 | 55:49.17 | 2:19.43 | 251192 | 261659
20 | 58:08.60 | 3:14.30 | 261660 | 276239
21 | 61:23.15 | 1:26.10 | 276240 | 282699
22 | 62:49.25 | 2:22.00 | 282700 | 293349
23 | 65:11.25 | 4:35.70 | 293350 | 314044
24 | 69:47.20 | 0:47.17 | 314045 | 317586
25 | 70:34.37 | 1:24.58 | 317587 | 323944
26 | 71:59.20 | 1:05.62 | 323945 | 328881


Track 1

Filename C:\Users\drizzt\Desktop\Anthology\cd 4\01 - I'm Losing You.wav

Pre-gap length 0:00:02.00

Peak level 100.0 %
Extraction speed 2.0 X
Track quality 100.0 %
Test CRC CC50E15E
Copy CRC CC50E15E
Accurately ripped (confidence 4) [8ED6D1FD] (AR v2)
Copy OK

Track 2

Filename C:\Users\drizzt\Desktop\Anthology\cd 4\02 - Sean's ''Little Help''.wav

Peak level 98.4 %
Extraction speed 1.5 X
Track quality 100.0 %
Test CRC 8937AA0C
Copy CRC 8937AA0C
Accurately ripped (confidence 4) [51405411] (AR v2)
Copy OK

Track 3

Filename C:\Users\drizzt\Desktop\Anthology\cd 4\03 - Serve Yourself.wav

Peak level 100.0 %
Extraction speed 2.2 X
Track quality 100.0 %
Test CRC 6D4C617B
Copy CRC 6D4C617B
Accurately ripped (confidence 4) [8B345A82] (AR v2)
Copy OK

Track 4

Filename C:\Users\drizzt\Desktop\Anthology\cd 4\04 - My Life.wav

Peak level 71.7 %
Extraction speed 2.2 X
Track quality 100.0 %
Test CRC 963B7C59
Copy CRC 963B7C59
Accurately ripped (confidence 4) [D66301F7] (AR v2)
Copy OK

Track 5

Filename C:\Users\drizzt\Desktop\Anthology\cd 4\05 - Nobody Told Me.wav

Pre-gap length 0:00:01.56

Peak level 100.0 %
Extraction speed 2.5 X
Track quality 100.0 %
Test CRC A1E7F659
Copy CRC A1E7F659
Accurately ripped (confidence 4) [42A8CD63] (AR v2)
Copy OK

Track 6

Filename C:\Users\drizzt\Desktop\Anthology\cd 4\06 - Life Begins At 40.wav

Peak level 99.8 %
Extraction speed 2.5 X
Track quality 100.0 %
Test CRC BE0F2462
Copy CRC BE0F2462
Accurately ripped (confidence 4) [2CD54572] (AR v2)
Copy OK

Track 7

Filename C:\Users\drizzt\Desktop\Anthology\cd 4\07 - I Don't Wanna Face It.wav

Peak level 100.0 %
Extraction speed 2.7 X
Track quality 100.0 %
Test CRC 3AEB90B7
Copy CRC 3AEB90B7
Accurately ripped (confidence 4) [C0F1C60F] (AR v2)
Copy OK

Track 8

Filename C:\Users\drizzt\Desktop\Anthology\cd 4\08 - Woman.wav

Pre-gap length 0:00:01.37

Peak level 66.9 %
Extraction speed 2.9 X
Track quality 100.0 %
Test CRC B57E89B4
Copy CRC B57E89B4
Accurately ripped (confidence 4) [B05E0F34] (AR v2)
Copy OK

Track 9

Filename C:\Users\drizzt\Desktop\Anthology\cd 4\09 - Dear Yoko.wav

Peak level 100.0 %
Extraction speed 2.8 X
Track quality 100.0 %
Test CRC A08135D4
Copy CRC A08135D4
Accurately ripped (confidence 4) [D2E58BE1] (AR v2)
Copy OK

Track 10

Filename C:\Users\drizzt\Desktop\Anthology\cd 4\10 - Watching The Wheels.wav

Peak level 72.8 %
Extraction speed 3.0 X
Track quality 100.0 %
Test CRC D91EAE4B
Copy CRC D91EAE4B
Accurately ripped (confidence 4) [73BE45EA] (AR v2)
Copy OK

Track 11

Filename C:\Users\drizzt\Desktop\Anthology\cd 4\11 - I'm Stepping Out.wav

Peak level 100.0 %
Extraction speed 2.4 X
Track quality 99.9 %
Test CRC 89833E1F
Copy CRC 89833E1F
Accurately ripped (confidence 4) [A82F5DD3] (AR v2)
Copy OK

Track 12

Filename C:\Users\drizzt\Desktop\Anthology\cd 4\12 - Borrowed Time.wav

Peak level 60.0 %
Extraction speed 3.3 X
Track quality 100.0 %
Test CRC 354A390D
Copy CRC 354A390D
Accurately ripped (confidence 4) [B11AEC9D] (AR v2)
Copy OK

Track 13

Filename C:\Users\drizzt\Desktop\Anthology\cd 4\13 - The Rishi Kesh Song.wav

Peak level 82.5 %
Extraction speed 2.0 X
Track quality 99.9 %
Test CRC 978F371C
Copy CRC 978F371C
Accurately ripped (confidence 4) [AD4F4E36] (AR v2)
Copy OK

Track 14

Filename C:\Users\drizzt\Desktop\Anthology\cd 4\14 - Sean's.wav

Peak level 63.8 %
Extraction speed 1.9 X
Track quality 100.0 %
Test CRC 36E9265D
Copy CRC 36E9265D
Accurately ripped (confidence 4) [832DCB57] (AR v2)
Copy OK

Track 15

Filename C:\Users\drizzt\Desktop\Anthology\cd 4\15 - Beautiful Boy.wav

Peak level 100.0 %
Extraction speed 3.6 X
Track quality 100.0 %
Test CRC 7FE430A1
Copy CRC 7FE430A1
Accurately ripped (confidence 4) [09748262] (AR v2)
Copy OK

Track 16

Filename C:\Users\drizzt\Desktop\Anthology\cd 4\16 - Mr. Hyde's Gone (Don't Be Afraid).wav

Peak level 73.3 %
Extraction speed 3.5 X
Track quality 100.0 %
Test CRC 741C0996
Copy CRC 741C0996
Accurately ripped (confidence 4) [F5E0C662] (AR v2)
Copy OK

Track 17

Filename C:\Users\drizzt\Desktop\Anthology\cd 4\17 - Only You.wav

Pre-gap length 0:00:01.37

Peak level 100.0 %
Extraction speed 3.6 X
Track quality 100.0 %
Test CRC FAC35359
Copy CRC FAC35359
Accurately ripped (confidence 4) [5DBC9CCB] (AR v2)
Copy OK

Track 18

Filename C:\Users\drizzt\Desktop\Anthology\cd 4\18 - Grow Old With Me.wav

Peak level 65.4 %
Extraction speed 3.7 X
Track quality 100.0 %
Test CRC 289E8B8D
Copy CRC 289E8B8D
Accurately ripped (confidence 4) [E1C8102B] (AR v2)
Copy OK

Track 19

Filename C:\Users\drizzt\Desktop\Anthology\cd 4\19 - Dear John.wav

Peak level 78.2 %
Extraction speed 3.5 X
Track quality 100.0 %
Test CRC BFAF46D0
Copy CRC BFAF46D0
Accurately ripped (confidence 4) [D353E661] (AR v2)
Copy OK

Track 20

Filename C:\Users\drizzt\Desktop\Anthology\cd 4\20 - The Great Wok.wav

Pre-gap length 0:00:05.20

Peak level 99.9 %
Extraction speed 3.8 X
Track quality 100.0 %
Test CRC 5E9C6999
Copy CRC 5E9C6999
Accurately ripped (confidence 4) [270FDFB7] (AR v2)
Copy OK

Track 21

Filename C:\Users\drizzt\Desktop\Anthology\cd 4\21 - Mucho Mungo.wav

Peak level 77.2 %
Extraction speed 3.2 X
Track quality 100.0 %
Test CRC 1C296DD5
Copy CRC 1C296DD5
Accurately ripped (confidence 4) [EE77EAD9] (AR v2)
Copy OK

Track 22

Filename C:\Users\drizzt\Desktop\Anthology\cd 4\22 - Satire 1.wav

Peak level 99.3 %
Extraction speed 3.7 X
Track quality 100.0 %
Test CRC 6D7EA92A
Copy CRC 6D7EA92A
Accurately ripped (confidence 4) [D87542EC] (AR v2)
Copy OK

Track 23

Filename C:\Users\drizzt\Desktop\Anthology\cd 4\23 - Satire 2.wav

Peak level 87.3 %
Extraction speed 4.2 X
Track quality 100.0 %
Test CRC F750BEBE
Copy CRC F750BEBE
Accurately ripped (confidence 4) [0C6CFE11] (AR v2)
Copy OK

Track 24

Filename C:\Users\drizzt\Desktop\Anthology\cd 4\24 - Satire 3.wav

Peak level 81.4 %
Extraction speed 2.6 X
Track quality 100.0 %
Test CRC DD66197C
Copy CRC DD66197C
Accurately ripped (confidence 4) [F68D9AB4] (AR v2)
Copy OK

Track 25

Filename C:\Users\drizzt\Desktop\Anthology\cd 4\25 - Sean's ''In The Sky''.wav

Peak level 84.7 %
Extraction speed 3.4 X
Track quality 100.0 %
Test CRC 099D6C2E
Copy CRC 099D6C2E
Accurately ripped (confidence 4) [09A05F33] (AR v2)
Copy OK

Track 26

Filename C:\Users\drizzt\Desktop\Anthology\cd 4\26 - It's Real.wav

Pre-gap length 0:00:01.64

Peak level 70.0 %
Extraction speed 3.2 X
Track quality 100.0 %
Test CRC A23B1230
Copy CRC A23B1230
Accurately ripped (confidence 4) [17FB1298] (AR v2)
Copy OK


All tracks accurately ripped

No errors occurred

End of status report

–– CUETools DB Plugin V2.1.3

[CTDB TOCID: jWydZewDN7Syovuin7YbFQ1J87U-] found, Submit result: jWydZewDN7Syovuin7YbFQ1J87U- has been confirmed
[3dc237ee] (78/79) Accurately ripped
[067c1dda] (01/79) No match


==== Log checksum 4ADF966C8F39942F5326FC0D290EDDEBF4F83F545B4C3846B2393C0469859862 ====

foobar2000 1.2.9 / Dynamic Range Meter 1.1.1
log date: 2015-04-21 00:08:29

––––––––––––––––––––––––––––––––––––––––
Analyzed: John Lennon / Anthology 4 - Dakota
––––––––––––––––––––––––––––––––––––––––

DR Peak RMS Duration Track
––––––––––––––––––––––––––––––––––––––––
DR10 0.00 dB -11.37 dB 4:07 01-I'm Losing You
DR14 -0.14 dB -22.17 dB 0:59 02-Sean's 'Little Help'
DR12 0.00 dB -14.61 dB 3:50 03-Serve Yourself
DR13 -2.88 dB -18.31 dB 2:38 04-My Life
DR9 0.00 dB -9.79 dB 3:33 05-Nobody Told Me
DR15 -0.01 dB -18.00 dB 2:24 06-Life Begins At 40
DR9 0.00 dB -9.72 dB 3:33 07-I Don't Wanna Face It
DR11 -3.48 dB -17.34 dB 4:03 08-Woman
DR10 0.00 dB -11.23 dB 2:35 09-Dear Yoko
DR12 -2.75 dB -18.10 dB 3:05 10-Watching The Wheels
DR10 0.00 dB -11.50 dB 4:19 11-I'm Stepping Out
DR12 -4.43 dB -18.88 dB 3:59 12-Borrowed Time
DR14 -1.66 dB -18.91 dB 2:28 13-The Rishi Kesh Song
DR7 -3.90 dB -18.96 dB 0:35 14-Sean's
DR11 0.00 dB -12.13 dB 4:13 15-Beautiful Boy
DR15 -2.70 dB -20.70 dB 2:43 16-Mr. Hyde's Gone (Don't Be Afraid)
DR8 0.00 dB -9.43 dB 3:25 17-Only You
DR9 -3.68 dB -15.78 dB 3:20 18-Grow Old With Me
DR14 -2.13 dB -18.86 dB 2:20 19-Dear John
DR19 0.00 dB -23.25 dB 3:14 20-The Great Wok
DR11 -2.24 dB -16.95 dB 1:26 21-Mucho Mungo
DR13 -0.05 dB -16.64 dB 2:22 22-Satire 1
DR12 -1.18 dB -15.70 dB 4:36 23-Satire 2
DR12 -1.78 dB -20.01 dB 0:47 24-Satire 3
DR16 -1.44 dB -25.64 dB 1:25 25-Sean's 'In The Sky'
DR13 -3.09 dB -22.62 dB 1:06 26-It's Real
––––––––––––––––––––––––––––––––––––––––

Number of tracks: 26
Official DR value: DR12

Samplerate: 44100 Hz
Channels: 2
Bits per sample: 16
Bitrate: 733 kbps
Codec: FLAC

[CUETools log; Date: 21.04.2015 0:08:39; Version: 2.1.4]
[CTDB TOCID: jWydZewDN7Syovuin7YbFQ1J87U-] found.
Track | CTDB Status
1 | (72/74) Accurately ripped
2 | (73/74) Accurately ripped
3 | (73/74) Accurately ripped
4 | (73/74) Accurately ripped
5 | (73/74) Accurately ripped
6 | (72/74) Accurately ripped
7 | (73/74) Accurately ripped
8 | (72/74) Accurately ripped
9 | (73/74) Accurately ripped
10 | (73/74) Accurately ripped
11 | (73/74) Accurately ripped
12 | (72/74) Accurately ripped
13 | (73/74) Accurately ripped
14 | (72/74) Accurately ripped
15 | (73/74) Accurately ripped
16 | (73/74) Accurately ripped
17 | (73/74) Accurately ripped
18 | (72/74) Accurately ripped
19 | (72/74) Accurately ripped
20 | (73/74) Accurately ripped
21 | (73/74) Accurately ripped
22 | (73/74) Accurately ripped
23 | (72/74) Accurately ripped
24 | (72/74) Accurately ripped
25 | (72/74) Accurately ripped
26 | (72/74) Accurately ripped
[AccurateRip ID: 0048e1e3-05476695-8611211a] found.
Track [ CRC | V2 ] Status
01 [f034a7b5|8ed6d1fd] (039+043/183) Accurately ripped
02 [c8682d70|51405411] (041+045/187) Accurately ripped
03 [4e74521e|8b345a82] (040+044/185) Accurately ripped
04 [3187133d|d66301f7] (041+045/186) Accurately ripped
05 [e9d96259|42a8cd63] (040+043/183) Accurately ripped
06 [0e5b945d|2cd54572] (041+046/188) Accurately ripped
07 [5e85938c|c0f1c60f] (040+043/184) Accurately ripped
08 [d2a83866|b05e0f34] (040+043/183) Accurately ripped
09 [d7a88a0f|d2e58be1] (040+043/183) Accurately ripped
10 [b4c59a21|73be45ea] (040+043/184) Accurately ripped
11 [bd1bab77|a82f5dd3] (040+043/184) Accurately ripped
12 [540142b6|b11aec9d] (040+043/183) Accurately ripped
13 [d6e228b1|ad4f4e36] (041+046/187) Accurately ripped
14 [1f287c56|832dcb57] (040+045/184) Accurately ripped
15 [130db4d0|09748262] (040+043/183) Accurately ripped
16 [2c39a35b|f5e0c662] (040+044/184) Accurately ripped
17 [811afbad|5dbc9ccb] (041+046/187) Accurately ripped
18 [77aaf0a8|e1c8102b] (040+046/187) Accurately ripped
19 [5d399c6b|d353e661] (041+044/185) Accurately ripped
20 [53e678e1|270fdfb7] (041+045/185) Accurately ripped
21 [9f117739|ee77ead9] (040+046/187) Accurately ripped
22 [6f1c00d1|d87542ec] (040+046/186) Accurately ripped
23 [86a96eb4|0c6cfe11] (039+046/184) Accurately ripped
24 [70b51ac1|f68d9ab4] (039+046/185) Accurately ripped
25 [589c3ff6|09a05f33] (041+045/185) Accurately ripped
26 [d165c71a|17fb1298] (038+045/182) Accurately ripped
Offsetted by -664:
01 [64ae2b95] (002/183) Accurately ripped
02 [1266cb08] (002/187) Accurately ripped
03 [7feb4563] (002/185) Accurately ripped
04 [3168ce8c] (002/186) Accurately ripped
05 [0b6f52d1] (002/183) Accurately ripped
06 [777dee73] (002/188) Accurately ripped
07 [f83eba0c] (002/184) Accurately ripped
08 [aad362c0] (002/183) Accurately ripped
09 [8b4e291b] (002/183) Accurately ripped
10 [57720069] (002/184) Accurately ripped
11 [8535c5e7] (002/184) Accurately ripped
12 [d442f0ae] (002/183) Accurately ripped
13 [822a7e49] (002/187) Accurately ripped
14 [731836e6] (002/184) Accurately ripped
15 [ce8c31cf] (002/183) Accurately ripped
16 [93e46aac] (002/184) Accurately ripped
17 [de16ffe6] (002/187) Accurately ripped
18 [b3a12a97] (002/187) Accurately ripped
19 [fdbef463] (002/185) Accurately ripped
20 [698870e1] (002/185) Accurately ripped
21 [d2b38c99] (002/187) Accurately ripped
22 [54cf5f95] (002/186) Accurately ripped
23 [6d041c48] (002/184) Accurately ripped
24 [4d636009] (002/185) Accurately ripped
25 [6dda0466] (002/185) Accurately ripped
26 [957bf2b2] (002/182) Accurately ripped
Offsetted by 1010:
01 [2afd5ccd] (007/183) Accurately ripped
02 [3902f53e] (007/187) Accurately ripped
03 [fe8662f2] (007/185) Accurately ripped
04 [363be3b9] (007/186) Accurately ripped
05 [968043ff] (007/183) Accurately ripped
06 [72e858c3] (007/188) Accurately ripped
07 [0ee8bebd] (007/184) Accurately ripped
08 [a5f3a6f6] (007/183) Accurately ripped
09 [162033a4] (007/183) Accurately ripped
10 [6eae676b] (007/184) Accurately ripped
11 [75c936ac] (007/184) Accurately ripped
12 [4dd6d7df] (007/183) Accurately ripped
13 [706ba67f] (007/187) Accurately ripped
14 [ae22646a] (007/184) Accurately ripped
15 [5e6fdc2f] (007/183) Accurately ripped
16 [5b530730] (007/184) Accurately ripped
17 [0cfc2bca] (007/187) Accurately ripped
18 [4b7c2537] (007/187) Accurately ripped
19 [bacb5071] (007/185) Accurately ripped
20 [e5e2fee1] (007/185) Accurately ripped
21 [183d9f31] (007/187) Accurately ripped
22 [c7f9d698] (007/186) Accurately ripped
23 [87e71a40] (007/184) Accurately ripped
24 [c6a2f3c2] (006/185) Accurately ripped
25 [7096f8a2] (006/185) Accurately ripped
26 [52506468] (007/182) Accurately ripped
Offsetted by 1202:
01 [d1cacdcd] (037/183) Accurately ripped
02 [580c9c7e] (037/187) Accurately ripped
03 [02e980f2] (037/185) Accurately ripped
04 [4dd2bcb9] (036/186) Accurately ripped
05 [c9f7643f] (036/183) Accurately ripped
06 [33a0e010] (037/188) Accurately ripped
07 [aa5ae930] (037/184) Accurately ripped
08 [28d95266] (036/183) Accurately ripped
09 [7842bfc4] (036/183) Accurately ripped
10 [5226312b] (037/184) Accurately ripped
11 [7a48776c] (037/184) Accurately ripped
12 [a99fbfdf] (036/183) Accurately ripped
13 [922b8dbf] (036/187) Accurately ripped
14 [835b87ea] (037/184) Accurately ripped
15 [300e7129] (036/183) Accurately ripped
16 [f14e1cf6] (036/184) Accurately ripped
17 [388d1d4a] (036/187) Accurately ripped
18 [7abcf137] (037/187) Accurately ripped
19 [5b0774b1] (036/185) Accurately ripped
20 [e2b73ee1] (036/185) Accurately ripped
21 [bc33c431] (037/187) Accurately ripped
22 [a82bbe8f] (037/186) Accurately ripped
23 [5418a115] (035/184) Accurately ripped
24 [622c77e2] (037/185) Accurately ripped
25 [b78e5d22] (036/185) Accurately ripped
26 [69ce9ba8] (035/182) Accurately ripped
Offsetted by -669:
01 [ff00d1f9] (000/183) No match (V2 was not tested)
02 [30428aad] (000/187) No match (V2 was not tested)
03 [ce50b064] (000/185) No match (V2 was not tested)
04 [08f38bc7] (000/186) No match (V2 was not tested)
05 [5ba665fa] (000/183) No match (V2 was not tested)
06 [9be8d02d] (000/188) No match (V2 was not tested)
07 [543b56d3] (000/184) No match (V2 was not tested)
08 [d618917f] (000/183) No match (V2 was not tested)
09 [5201f5df] (000/183) No match (V2 was not tested)
10 [d0303728] (000/184) No match (V2 was not tested)
11 [c151ba89] (000/184) No match (V2 was not tested)
12 [184fc5a7] (000/183) No match (V2 was not tested)
13 [9d497eee] (000/187) No match (V2 was not tested)
14 [1c3564a4] (000/184) No match (V2 was not tested)
15 [96577d51] (000/183) No match (V2 was not tested)
16 [8d6205f8] (000/184) No match (V2 was not tested)
17 [ab9f39a6] (000/187) No match (V2 was not tested)
18 [3666253d] (000/187) No match (V2 was not tested)
19 [aae80e1c] (000/185) No match (V2 was not tested)
20 [f2f2e9e1] (000/185) No match (V2 was not tested)
21 [cbc3ce4d] (000/187) No match (V2 was not tested)
22 [4dbf13e6] (000/186) No match (V2 was not tested)
23 [f2bc0f03] (000/184) No match (V2 was not tested)
24 [19cc6d5d] (000/185) No match (V2 was not tested)
25 [f5563dc8] (000/185) No match (V2 was not tested)
26 [4789fe97] (000/182) No match (V2 was not tested)
Offsetted by -663:
01 [ac373d81] (000/183) No match (V2 was not tested)
02 [d93ad7e7] (000/187) No match (V2 was not tested)
03 [d6a3c996] (000/185) No match (V2 was not tested)
04 [3980424d] (000/186) No match (V2 was not tested)
05 [fb644efc] (000/183) No match (V2 was not tested)
06 [09cef481] (000/188) No match (V2 was not tested)
07 [d5f5aab1] (000/184) No match (V2 was not tested)
08 [9144a0ac] (000/183) No match (V2 was not tested)
09 [63973360] (000/183) No match (V2 was not tested)
10 [3f4bf576] (000/184) No match (V2 was not tested)
11 [12c9c82d] (000/184) No match (V2 was not tested)
12 [f9d9f949] (000/183) No match (V2 was not tested)
13 [16577e28] (000/187) No match (V2 was not tested)
14 [eadf2dc0] (000/184) No match (V2 was not tested)
15 [0cfd22b5] (000/183) No match (V2 was not tested)
16 [61fe7ed0] (000/184) No match (V2 was not tested)
17 [b4fbc126] (000/187) No match (V2 was not tested)
18 [ffe02ba9] (000/187) No match (V2 was not tested)
19 [a7e9ef3e] (000/185) No match (V2 was not tested)
20 [1ad98be1] (000/185) No match (V2 was not tested)
21 [a0e37f75] (000/187) No match (V2 was not tested)
22 [bc9f6eb8] (000/186) No match (V2 was not tested)
23 [ee7dccc3] (000/184) No match (V2 was not tested)
24 [24825d5f] (000/185) No match (V2 was not tested)
25 [1f8df8ec] (000/185) No match (V2 was not tested)
26 [d845f051] (000/182) No match (V2 was not tested)
Offsetted by 1116:
01 [c9bec885] (000/183) No match (V2 was not tested)
02 [8cd04994] (000/187) No match (V2 was not tested)
03 [e39d1b82] (000/185) No match (V2 was not tested)
04 [9341d631] (000/186) No match (V2 was not tested)
05 [2eacadcd] (000/183) No match (V2 was not tested)
06 [0604dd75] (000/188) No match (V2 was not tested)
07 [2da31259] (000/184) No match (V2 was not tested)
08 [47e1e147] (000/183) No match (V2 was not tested)
09 [6d2aad79] (000/183) No match (V2 was not tested)
10 [6eeddecd] (000/184) No match (V2 was not tested)
11 [7044cd16] (000/184) No match (V2 was not tested)
12 [832dc29f] (000/183) No match (V2 was not tested)
13 [cb0d98d5] (000/187) No match (V2 was not tested)
14 [46849aae] (000/184) No match (V2 was not tested)
15 [371f818b] (000/183) No match (V2 was not tested)
16 [b3895b38] (000/184) No match (V2 was not tested)
17 [07b4311e] (000/187) No match (V2 was not tested)
18 [dd9295d7] (000/187) No match (V2 was not tested)
19 [30972f1f] (000/185) No match (V2 was not tested)
20 [51782ce1] (000/185) No match (V2 was not tested)
21 [78182e49] (000/187) No match (V2 was not tested)
22 [6063cab8] (000/186) No match (V2 was not tested)
23 [6956cd1a] (000/184) No match (V2 was not tested)
24 [8c4a2208] (000/185) No match (V2 was not tested)
25 [051a381e] (000/185) No match (V2 was not tested)
26 [f9f3683e] (000/182) No match (V2 was not tested)

Track Peak [ CRC32 ] [W/O NULL] [ LOG ]
– 99,9 [A61C015D] [908F801F]
01 99,9 [CC50E15E] [DBD37F28] CRC32
02 98,4 [8937AA0C] [D08CFBAA] CRC32
03 99,9 [6D4C617B] [C027AF6B] CRC32
04 71,7 [963B7C59] [C583E1F9] CRC32
05 99,9 [A1E7F659] [E32EACFF] CRC32
06 99,8 [BE0F2462] [09977308] CRC32
07 99,9 [3AEB90B7] [086989F1] CRC32
08 66,9 [B57E89B4] [22AEAE12] CRC32
09 99,9 [A08135D4] [025A546F] CRC32
10 72,8 [D91EAE4B] [CD39F149] CRC32
11 99,9 [89833E1F] [B605D4AC] CRC32
12 60,0 [354A390D] [DB4328B7] CRC32
13 82,5 [978F371C] [28ACF4A7] CRC32
14 63,8 [36E9265D] [01841781] CRC32
15 99,9 [7FE430A1] [97A23AAC] CRC32
16 73,3 [741C0996] [D396A5A4] CRC32
17 99,9 [FAC35359] [0F89F464] CRC32
18 65,4 [289E8B8D] [23FB6E9E] CRC32
19 78,2 [BFAF46D0] [E8D14ACF] CRC32
20 99,9 [5E9C6999] [C5DAF999] CRC32
21 77,2 [1C296DD5] [8AE5BE48] CRC32
22 99,3 [6D7EA92A] [C2438A9D] CRC32
23 87,3 [F750BEBE] [FB264B2A] CRC32
24 81,4 [DD66197C] [41DECFB9] CRC32
25 84,7 [099D6C2E] [371B9E08] CRC32
26 70,0 [A23B1230] [5530FC69] CRC32

John Lennon - Anthology (1998) [4CD Box Set] Re-up

All thanks go to archricker

John Lennon in my Blog

Download John Lennon - Anthology (1998):