Tags
Language
Tags

John Lennon / Plastic Ono Band - Live Peace in Toronto (1969) [2006, MFSL, UDCD 763]

Posted By: v3122
John Lennon / Plastic Ono Band - Live Peace in Toronto (1969) [2006, MFSL, UDCD 763]

John Lennon / Plastic Ono Band - Live Peace in Toronto (1969)
EAC | Flac(Image) + Cue + Log & MP3 CBR 320Kbps
MFSL, UDCD 763 | ~ 243 or 96 Mb | Scans(jpg) -> 49 Mb
Classic Rock / Pop Rock / Rock & Roll

Although one of the world's best-kept secrets at the time, this was John Lennon's declaration of independence from the Beatles, the document of a concert appearance at Toronto's Rock and Roll Revival festival about a month after the conclusion of the Abbey Road sessions. Thrown together literally on the wing (they rehearsed only on the flight from England), the ad-hoc band consisting of Lennon, Yoko Ono, Eric Clapton on guitar, Klaus Voorman on bass, and Alan White on drums hit the stage to the surprise and delight of the thousands who packed Varsity Stadium. "We're just going to do numbers we know, you know, because we've never played together before," confesses John, who was reportedly extremely nervous before going on. But the repertoire ought to have been a cakewalk for a quartet of seasoned rockers – blues-based oldies ("Blue Suede Shoes," "Money," "Dizzy Miss Lizzie") and basic recent Lennon numbers ("Yer Blues," "Cold Turkey," "Give Peace a Chance") – and they lay it down in a dignified, noisy, glorified garage band manner. Lennon is in fine vocal form, confident and funny despite his frequent apologies, while Yoko confines her caterwauling to "Cold Turkey." That was side one of the original LP. Side two, alas, was devoted entirely to Ono's wailing, pitchless, brainless, banshee vocalizing on "Don't Worry Kyoko" and "John John (Let's Hope for Peace)" – the former backed with plodding rock rhythms and the latter with feedback. No wonder you see many used copies of the LP with worn A-sides and clean, unplayed B-sides – and Yoko's "art" is just as irritating today as it was in 1969. But in those days, if you wanted John you had to take the whole package.

by Richard S. Ginell, allmusic
John Lennon / Plastic Ono Band - Live Peace in Toronto (1969):

John Lennon / Plastic Ono Band - Live Peace in Toronto (1969) [2006, MFSL, UDCD 763]

Tracklist:

1. Blue Suede Shoes 4:06
02. Money 3:25
03. Dizzy Miss Lizzy 3:24
04. Yer Blues 4:12
05. Cold Turkey 3:34
06. Give Peace A Chance 3:41
07. Don't Worry Kyoko (Mummy's only looking for her hand in the snow) 4:47
08. John, John (Let's Hope For Peace) 12:40

Exact Audio Copy V1.0 beta 4 from 7. December 2014

EAC extraction logfile from 14. January 2015, 10:14

John Lennon / The Plastic Ono Band - Live Peace In Toronto 1969

Used drive : ASUS SDRW-08D1S-U Adapter: 1 ID: 1

Read mode : Secure
Utilize accurate stream : Yes
Defeat audio cache : Yes
Make use of C2 pointers : No

Read offset correction : 667
Overread into Lead-In and Lead-Out : No
Fill up missing offset samples with silence : Yes
Delete leading and trailing silent blocks : No
Null samples used in CRC calculations : Yes
Used interface : Native Win32 interface for Win NT & 2000

Used output format : User Defined Encoder
Selected bitrate : 128 kBit/s
Quality : High
Add ID3 tag : No
Command line compressor : C:\Program Files (x86)\Exact Audio Copy\Flac\flac.exe
Additional command line options : -V -8 -T "Date=%year%" -T "Genre=%genre%" %source%


TOC of the extracted CD

Track | Start | Length | Start sector | End sector
––––––––––––––––––––––––––––-
1 | 0:00.00 | 4:06.37 | 0 | 18486
2 | 4:06.37 | 3:25.28 | 18487 | 33889
3 | 7:31.65 | 3:23.57 | 33890 | 49171
4 | 10:55.47 | 4:12.00 | 49172 | 68071
5 | 15:07.47 | 3:34.30 | 68072 | 84151
6 | 18:42.02 | 3:40.50 | 84152 | 100701
7 | 22:22.52 | 4:47.15 | 100702 | 122241
8 | 27:09.67 | 12:40.08 | 122242 | 179249


Range status and errors

Selected range

Filename C:\Users\Олег\Desktop\Live Peace in Toronto\John Lennon - The Plastic Ono Band - Live Peace In Toronto 1969.wav

Peak level 100.0 %
Extraction speed 1.9 X
Range quality 100.0 %
Test CRC 3EB7942E
Copy CRC 3EB7942E
Copy OK

No errors occurred


AccurateRip summary

Track 1 accurately ripped (confidence 26) [81F5ABD2] (AR v2)
Track 2 accurately ripped (confidence 26) [25D81D56] (AR v2)
Track 3 accurately ripped (confidence 26) [6A63DAF5] (AR v2)
Track 4 accurately ripped (confidence 26) [0287BC08] (AR v2)
Track 5 accurately ripped (confidence 26) [4B1B69CA] (AR v2)
Track 6 accurately ripped (confidence 26) [EF5D39F3] (AR v2)
Track 7 accurately ripped (confidence 24) [DCC033AC] (AR v2)
Track 8 accurately ripped (confidence 23) [CF3D3099] (AR v2)

All tracks accurately ripped

End of status report

–– CUETools DB Plugin V2.1.4

[CTDB TOCID: oK7qkIE5RZyNgXNsuGIJf0ETVwo-] found
Submit result: oK7qkIE5RZyNgXNsuGIJf0ETVwo- has been confirmed
Track | CTDB Status
1 | (4/4) Accurately ripped
2 | (4/4) Accurately ripped
3 | (4/4) Accurately ripped
4 | (4/4) Accurately ripped
5 | (4/4) Accurately ripped
6 | (4/4) Accurately ripped
7 | (4/4) Accurately ripped
8 | (4/4) Accurately ripped


==== Log checksum 8417ECC91E82CFA7D489AAC584C8E822DA38927675F00CFE3C86C8BB23767A79 ====


[CUETools log; Date: 15.01.2015 22:23:31; Version: 2.1.5]
[CTDB TOCID: oK7qkIE5RZyNgXNsuGIJf0ETVwo-] found.
Track | CTDB Status
1 | (5/5) Accurately ripped
2 | (5/5) Accurately ripped
3 | (5/5) Accurately ripped
4 | (5/5) Accurately ripped
5 | (5/5) Accurately ripped
6 | (5/5) Accurately ripped
7 | (5/5) Accurately ripped
8 | (5/5) Accurately ripped
[AccurateRip ID: 000a025f-00444f21-5f095608] found.
Track [ CRC | V2 ] Status
01 [fa32c633|81f5abd2] (18+26/49) Accurately ripped
02 [8b0b0b19|25d81d56] (18+26/49) Accurately ripped
03 [a4ed9515|6a63daf5] (18+26/49) Accurately ripped
04 [8b9a05fd|0287bc08] (18+26/49) Accurately ripped
05 [c7d6faf6|4b1b69ca] (18+26/49) Accurately ripped
06 [100d9c7b|ef5d39f3] (18+26/49) Accurately ripped
07 [95f425a8|dcc033ac] (17+24/46) Accurately ripped
08 [e5317a95|cf3d3099] (17+23/44) Accurately ripped
Offsetted by -661:
01 [2a128eda] (00/49) No match (V2 was not tested)
02 [0109e537] (00/49) No match (V2 was not tested)
03 [fa2d1df4] (00/49) No match (V2 was not tested)
04 [b6005bbd] (00/49) No match (V2 was not tested)
05 [734c548a] (00/49) No match (V2 was not tested)
06 [8d585cbc] (00/49) No match (V2 was not tested)
07 [3f7d36a4] (00/46) No match (V2 was not tested)
08 [7a3e9413] (00/44) No match (V2 was not tested)
Offsetted by -18:
01 [5f501c1a] (00/49) No match (V2 was not tested)
02 [0e69ce1d] (00/49) No match (V2 was not tested)
03 [b0afc9af] (00/49) No match (V2 was not tested)
04 [ae03a3cc] (00/49) No match (V2 was not tested)
05 [cd6246e3] (00/49) No match (V2 was not tested)
06 [86fd620d] (00/49) No match (V2 was not tested)
07 [46c28002] (00/46) No match (V2 was not tested)
08 [f5a55006] (00/44) No match (V2 was not tested)
Offsetted by 6:
01 [7b1889ea] (00/49) No match (V2 was not tested)
02 [a4033bf6] (00/49) No match (V2 was not tested)
03 [121cbebb] (00/49) No match (V2 was not tested)
04 [0fa4a884] (00/49) No match (V2 was not tested)
05 [60c03e3a] (00/49) No match (V2 was not tested)
06 [bd169f72] (00/49) No match (V2 was not tested)
07 [412bd3be] (00/46) No match (V2 was not tested)
08 [45a78705] (00/44) No match (V2 was not tested)

Track Peak [ CRC32 ] [W/O NULL] [ LOG ]
– 100,0 [3EB7942E] [CDAF526B] CRC32
01 100,0 [978604C4] [64698048]
02 100,0 [B9E36CBB] [F85E5BA6]
03 97,7 [1E116DDC] [2C1EAB47]
04 95,9 [E03A800F] [F5E0C917]
05 100,0 [B996E7A6] [E29750C1]
06 100,0 [F2FC8D96] [456C48B2]
07 99,6 [14CF3C43] [FBA632F4]
08 99,9 [9AB50E7E] [4FACEBA9]


John Lennon / Plastic Ono Band - Live Peace in Toronto (1969) [2006, MFSL, UDCD 763]

All thanks go to the original releaser

John Lennon in my Blog

Download John Lennon / Plastic Ono Band - Live Peace in Toronto (1969):