Tags
Language
Tags

John Mayall and The Bluesbreakers - Blues for the Lost Days (1997) [Re-Up]

Posted By: Designol
John Mayall and The Bluesbreakers - Blues for the Lost Days (1997) [Re-Up]

John Mayall and The Bluesbreakers - Blues for the Lost Days (1997)
EAC | FLAC | Image (Cue&Log) ~ 373 Mb | Mp3 (CBR320) ~ 151 Mb | Scans included
Genre: British Blues, Blues-Rock | Label: Silverstone | # CTCZ-30011 | Time: 00:51:10

John Mayall has been playing blues literally for my entire lifetime and at 64 years old proves that he's still among the best. On this CD, Mayall displays the many blues attitudes of which he is capable. Lately, many of his songs decry urban decay and violence. He continues here in that vein with the hard-driving Dead City and the old Eddie Harris R&B song, How Can You Live Like That. Stone Cold Deal is a shuffle driven by saxophone, organ and drums. Its infectuous rhythm will have you dancing and its incisive lyrics will have you thinking. My other favorites are the title cut on which Mayall's prowess on the piano is showcased, One In A Million which is a rocking paean to his beloved mother, and I Don't Mind, a song in the rollicking piano-driven Southern style for which Mayall is justly famous. There isn't anything I really dislike on the album though It Ain't Safe and Some Other Day seem out of place and Trenches, though lyrically gripping, is musically weak. If you are a blues fan, you are sure to like Blues For the Lost Days, another strong effort from master bluesman John Mayall.

Review by Kurt Harding, Amazon.com

Allmusic
Website
Wiki

Tracklist:

01. Dead City (03:48)
02. Stone Cold Deal (04:18)
03. All Those Heroes (03:58)
04. Blues For The Lost Days (06:14)
05. Trenches (03:36)
06. One In A Million (05:34)
07. How Can You Live Like That (05:20)
08. Some Other Day (03:40)
09. I Don't Mind (03:16)
10. It Ain't Safe (04:13)
11. Sen-Say-Shun (03:18)
12. You Are For Real (03:45)


Exact Audio Copy V0.99 prebeta 5 from 4. May 2009

Отчёт EAC об извлечении, выполненном 14. января 2008, 23:49

John Mayall / Blues For The Lost Days

Дисковод: TSSTcorpCDDVDW TS-L633M Adapter: 1 ID: 0

Режим чтения : Достоверность
Использование точного потока : Да
Отключение кэша аудио : Да
Использование указателей C2 : Нет

Коррекция смещения при чтении : 6
Способность читать области Lead-in и Lead-out : Нет
Заполнение пропущенных сэмплов тишиной : Да
Удаление блоков с тишиной в начале и конце : Нет
При вычислениях CRC использовались нулевые сэмплы : Нет
Интерфейс : Встроенный Win32-интерфейс для Win NT/2000

Выходной формат : Внутренние WAV-операции
Формат сэмплов : 44.100 Гц; 16 бит; стерео


TOC извлечённого CD

Трек | Старт | Длительность | Начальный сектор | Конечный сектор
––––––––––––––––––––––––––––––––––-
1 | 0:00.00 | 3:48.37 | 0 | 17136
2 | 3:48.37 | 4:18.33 | 17137 | 36519
3 | 8:06.70 | 3:58.15 | 36520 | 54384
4 | 12:05.10 | 6:14.62 | 54385 | 82496
5 | 18:19.72 | 3:36.10 | 82497 | 98706
6 | 21:56.07 | 5:34.60 | 98707 | 123816
7 | 27:30.67 | 5:20.33 | 123817 | 147849
8 | 32:51.25 | 3:40.05 | 147850 | 164354
9 | 36:31.30 | 3:16.42 | 164355 | 179096
10 | 39:47.72 | 4:13.45 | 179097 | 198116
11 | 44:01.42 | 3:18.10 | 198117 | 212976
12 | 47:19.52 | 3:45.18 | 212977 | 229869
13 | 53:36.70 | 1:43.12 | 241270 | 249006


Характеристики диапазона извлечения и сообщения об ошибках

Выбранный диапазон

Имя файла C:\Users\Mishany\Documents\John Mayall - Blues For The Lost Days.(Japan)\John Mayall - Blues For The Lost Days.wav

Пиковый уровень 98.8 %
Качество диапазона 99.9 %
CRC теста 5DBB5E3D
CRC копии 5DBB5E3D
Копирование… OK

Ошибок не произошло


AccurateRip: сводка

Трек 1 нет в базе данных
Трек 2 нет в базе данных
Трек 3 нет в базе данных
Трек 4 нет в базе данных
Трек 5 нет в базе данных
Трек 6 нет в базе данных
Трек 7 нет в базе данных
Трек 8 нет в базе данных
Трек 9 нет в базе данных
Трек 10 нет в базе данных
Трек 11 нет в базе данных
Трек 12 нет в базе данных

Ни одного трека нет в базе AccurateRip

Конец отчёта

foobar2000 1.2 / Dynamic Range Meter 1.1.1
log date: 2013-05-13 18:05:55

––––––––––––––––––––––––––––––––––––––––
Analyzed: John Mayall / Blues For The Lost Days
––––––––––––––––––––––––––––––––––––––––

DR Peak RMS Duration Track
––––––––––––––––––––––––––––––––––––––––
DR11 -0.14 dB -11.97 dB 3:48 01-Dead City
DR11 -0.10 dB -11.71 dB 4:18 02-Stone Cold Deal
DR11 -0.85 dB -12.70 dB 3:58 03-All Those Heroes
DR10 -0.10 dB -11.24 dB 6:15 04-Blues For The Lost Days
DR12 -0.14 dB -13.89 dB 3:36 05-Trenches
DR10 -0.33 dB -12.09 dB 5:35 06-One In A Million
DR10 -0.10 dB -12.27 dB 5:20 07-How Can You Live Like That
DR11 -0.49 dB -12.57 dB 3:40 08-Some Other Day
DR11 -1.07 dB -13.47 dB 3:17 09- I Don't Mind
DR11 -0.10 dB -12.40 dB 4:14 10-It Ain't Safe
DR9 -1.45 dB -11.29 dB 3:18 11-Sen-Say-Shun
DR11 -0.10 dB -11.92 dB 3:45 12-You Are For Real
––––––––––––––––––––––––––––––––––––––––

Number of tracks: 12
Official DR value: DR11

Samplerate: 44100 Hz
Channels: 2
Bits per sample: 16

================================================================================

John Mayall and The Bluesbreakers - Blues for the Lost Days (1997) [Re-Up]

John Mayall and The Bluesbreakers - Blues for the Lost Days (1997) [Re-Up]

All thanks to original releaser - Nebarmaley

More interesting music in My Blog