Tags
Language
Tags

John Mayall and The Bluesbreakers - Spinning Coin (1995) [Re-Up]

Posted By: Designol
John Mayall and The Bluesbreakers - Spinning Coin (1995) [Re-Up]

John Mayall and The Bluesbreakers - Spinning Coin (1995)
EAC | FLAC | Tracks (Cue&Log) ~ 318 Mb | Mp3 (CBR320) ~ 112 Mb | Scans ~ 45 Mb
British Blues, Blues Rock | Label: Silvertone | # 01241-41541-2 | 00:49:04

Somehow the grandfather of British blues still had the fire in his belly to record a strong album almost 40 years after he began his storied career. Buddy Whittington acquits himself well as the latest in a long line of hotshot guitarists for this multi-instrumentalist, who still does his best work on harmonica. He still admires long-dead bluesman J.B. Lenoir, including "Voodoo Music" here. A lot of credit for this strong outing goes to R.S. Field, lyricist and sometime producer for Webb Wilder. "Long Story Short" would pass for a Wilder tune were it not for Mayall's distinctive voice.

Review by Mark Allan, Allmusic.com

John Mayall at Allmusic
John Mayall at Wiki

Tracklist:

01. When The Devil Starts Crying (04:12)
02. Spinning Coin (04:39)
03. Ain't No Brakeman (04:05)
04. Double Life Feelings (05:07)
05. Run (04:13)
06. What Passes For Love (05:07)
07. Fan The Flames (03:18)
08. Voodoo Music (03:32)
09. Long Story Short (04:18)
10. No Big Hurry (03:12)
11. Remember This (07:00)


Exact Audio Copy V1.0 beta 3 from 29. August 2011

EAC extraction logfile from 18. August 2013, 11:34

John Mayall & The Bluesbreakers / Spinning Coin

Used drive : SONY CD-RW CRX230ED Adapter: 0 ID: 1

Read mode : Secure
Utilize accurate stream : Yes
Defeat audio cache : Yes
Make use of C2 pointers : No

Read offset correction : 6
Overread into Lead-In and Lead-Out : No
Fill up missing offset samples with silence : Yes
Delete leading and trailing silent blocks : No
Null samples used in CRC calculations : Yes
Used interface : Installed external ASPI interface
Gap handling : Appended to previous track

Used output format : User Defined Encoder
Selected bitrate : 1024 kBit/s
Quality : High
Add ID3 tag : No
Command line compressor : C:\Audio\Exact Audio Copy\Flac\flac.exe
Additional command line options : -8 -V -T "ARTIST=%artist%" -T "TITLE=%title%" -T "ALBUM=%albumtitle%" -T "DATE=%year%" -T "TRACKNUMBER=%tracknr%" -T "GENRE=%genre%" -T "COMMENT=ripped by squirr for gym1974" %source%


TOC of the extracted CD

Track | Start | Length | Start sector | End sector
––––––––––––––––––––––––––––-
1 | 0:00.00 | 4:16.57 | 0 | 19256
2 | 4:16.57 | 4:41.53 | 19257 | 40384
3 | 8:58.35 | 4:07.02 | 40385 | 58911
4 | 13:05.37 | 5:10.33 | 58912 | 82194
5 | 18:15.70 | 4:14.60 | 82195 | 101304
6 | 22:30.55 | 5:08.67 | 101305 | 124471
7 | 27:39.47 | 3:20.45 | 124472 | 139516
8 | 31:00.17 | 3:32.18 | 139517 | 155434
9 | 34:32.35 | 4:18.25 | 155435 | 174809
10 | 38:50.60 | 3:12.55 | 174810 | 189264
11 | 42:03.40 | 7:00.05 | 189265 | 220769


Track 1

Filename E:\MusicCD\01. John Mayall & The Bluesbreakers - When The Devil Starts Crying.wav

Pre-gap length 0:00:02.00

Peak level 98.4 %
Extraction speed 4.8 X
Track quality 100.0 %
Test CRC 2B23E95C
Copy CRC 2B23E95C
Accurately ripped (confidence 12) [3DEBA4E4] (AR v2)
Copy OK

Track 2

Filename E:\MusicCD\02. John Mayall & The Bluesbreakers - Spinning Coin.wav

Pre-gap length 0:00:04.56

Peak level 96.5 %
Extraction speed 5.4 X
Track quality 100.0 %
Test CRC 64056127
Copy CRC 64056127
Accurately ripped (confidence 12) [3C3860BA] (AR v2)
Copy OK

Track 3

Filename E:\MusicCD\03. John Mayall & The Bluesbreakers - Ain't No Brakeman.wav

Pre-gap length 0:00:02.00

Peak level 98.5 %
Extraction speed 5.7 X
Track quality 100.0 %
Test CRC F9C2A507
Copy CRC F9C2A507
Accurately ripped (confidence 12) [11798AB1] (AR v2)
Copy OK

Track 4

Filename E:\MusicCD\04. John Mayall & The Bluesbreakers - Double Life Feelings.wav

Pre-gap length 0:00:01.73

Peak level 98.4 %
Extraction speed 5.9 X
Track quality 99.9 %
Test CRC 70B9423A
Copy CRC 70B9423A
Accurately ripped (confidence 12) [81CB2C5A] (AR v2)
Copy OK

Track 5

Filename E:\MusicCD\05. John Mayall & The Bluesbreakers - Run.wav

Pre-gap length 0:00:03.30

Peak level 98.3 %
Extraction speed 6.8 X
Track quality 100.0 %
Test CRC C3FCD619
Copy CRC C3FCD619
Accurately ripped (confidence 12) [CE0C4487] (AR v2)
Copy OK

Track 6

Filename E:\MusicCD\06. John Mayall & The Bluesbreakers - What Passes For Love.wav

Pre-gap length 0:00:01.33

Peak level 93.3 %
Extraction speed 7.3 X
Track quality 100.0 %
Test CRC F5BF91E2
Copy CRC F5BF91E2
Accurately ripped (confidence 12) [02676827] (AR v2)
Copy OK

Track 7

Filename E:\MusicCD\07. John Mayall & The Bluesbreakers - Fan The Flames.wav

Pre-gap length 0:00:01.86

Peak level 98.3 %
Extraction speed 7.3 X
Track quality 100.0 %
Test CRC CF6C9FC7
Copy CRC CF6C9FC7
Accurately ripped (confidence 12) [262122D6] (AR v2)
Copy OK

Track 8

Filename E:\MusicCD\08. John Mayall & The Bluesbreakers - Voodoo Music.wav

Pre-gap length 0:00:01.86

Peak level 98.4 %
Extraction speed 7.6 X
Track quality 100.0 %
Test CRC D7710BA9
Copy CRC D7710BA9
Accurately ripped (confidence 12) [DF6E10A5] (AR v2)
Copy OK

Track 9

Filename E:\MusicCD\09. John Mayall & The Bluesbreakers - Long Story Short.wav

Peak level 98.5 %
Extraction speed 8.0 X
Track quality 100.0 %
Test CRC 7E982695
Copy CRC 7E982695
Accurately ripped (confidence 12) [1B24C931] (AR v2)
Copy OK

Track 10

Filename E:\MusicCD\10. John Mayall & The Bluesbreakers - No Big Hurry.wav

Peak level 87.7 %
Extraction speed 8.1 X
Track quality 100.0 %
Test CRC 66060B9B
Copy CRC 66060B9B
Accurately ripped (confidence 12) [7255A473] (AR v2)
Copy OK

Track 11

Filename E:\MusicCD\11. John Mayall & The Bluesbreakers - Remember This.wav

Pre-gap length 0:00:00.57

Peak level 98.4 %
Extraction speed 9.2 X
Track quality 100.0 %
Test CRC 3AC20D2F
Copy CRC 3AC20D2F
Accurately ripped (confidence 12) [53013FE3] (AR v2)
Copy OK


All tracks accurately ripped

No errors occurred

End of status report

==== Log checksum 9648C4F284BDC0AABFF44CC784A648BAE335BEA392E6A1FFD68732AB4B4ACEF9 ====

foobar2000 1.2 / Dynamic Range Meter 1.1.1
log date: 2017-04-22 02:48:10

––––––––––––––––––––––––––––––––––––––––
Analyzed: John Mayall & The Bluesbreakers / Spinning Coin [01241-41541-2]
––––––––––––––––––––––––––––––––––––––––

DR Peak RMS Duration Track
––––––––––––––––––––––––––––––––––––––––
DR11 -0.14 dB -12.79 dB 4:17 01-When The Devil Starts Crying
DR12 -0.30 dB -13.30 dB 4:42 02-Spinning Coin
DR11 -0.12 dB -12.79 dB 4:07 03-Ain't No Brakeman
DR12 -0.13 dB -13.49 dB 5:10 04-Double Life Feelings
DR12 -0.14 dB -13.04 dB 4:15 05-Run
DR11 -0.60 dB -13.51 dB 5:09 06-What Passes For Love
DR10 -0.14 dB -11.49 dB 3:21 07-Fan The Flames
DR11 -0.13 dB -12.21 dB 3:32 08-Voodoo Music
DR12 -0.12 dB -12.48 dB 4:18 09-Long Story Short
DR12 -1.14 dB -14.02 dB 3:13 10-No Big Hurry
DR11 -0.13 dB -12.59 dB 7:00 11-Remember This
––––––––––––––––––––––––––––––––––––––––

Number of tracks: 11
Official DR value: DR11

Samplerate: 44100 Hz
Channels: 2
Bits per sample: 16
Bitrate: 914 kbps
Codec: FLAC
================================================================================

John Mayall and The Bluesbreakers - Spinning Coin (1995) [Re-Up]

John Mayall and The Bluesbreakers - Spinning Coin (1995) [Re-Up]

All thanks to original releaser - squirr

More interesting music in My Blog