Subcategories
Tags
Language
Tags

John Pizzarelli - Double Exposure (2012) Repost

Posted By: popsakov
John Pizzarelli - Double Exposure (2012) Repost

John Pizzarelli - Double Exposure (2012)
EAC Rip | FLAC (Img) + Cue + Log ~ 315 Mb | MP3 CBR320 ~ 131 Mb
Full Scans ~ 97 Mb | 00:54:26 | RAR 5% Recovery
Vocal Jazz, Swing | Telarc #TEL-33221-02

On this album, jazz guitarist and singer John Pizzarelli pays simultaneous tribute to the pop music of his adolescence (Steely Dan, Billy Joel, the Allman Brothers, Elvis Costello) and the jazz tradition in which he, as a member of the celebrated Pizzarelli dynasty, was steeped from his earliest years. The album title refers to the fact that the program takes classic pop songs and puts them in jazz settings: thus you'll hear a cool bossa nova arrangement of Joni Mitchell's "Free Man in Paris," a completely natural lounge-lizard setting of Tom Waits' "Drunk on the Moon," and a hard-swinging, boppish version of James Taylor's "Traffic Jam" that sounds like it was written for the Manhattan Transfer and incorporates the Joe Henderson composition "The Kicker." There's nothing particularly revolutionary about this idea: the line separating pop music and jazz has always been fuzzy anyway, and many jazz standards are actually show tunes. But Pizzarelli is an unusually gifted arranger as well as a drop-dead wonderful guitarist, and on several of these arrangements he suggests entirely new ways of thinking about these familiar songs. Consider, for example, his subtly elegant use of organ and violin on Neil Young's "Harvest Moon," or the way he sneaks material from Wes Montgomery's "Four on Six" into a snappy rendition of the Allman Brothers' instrumental "In Memory of Elizabeth Reed." It's also true that Pizzarelli is not gifted with a conventionally beautiful voice. He is, however, an excellent singer: listen the how he makes the most of what he's got on his voice-and-guitar bossa nova setting of Billy Joel's "Rosalinda's Eyes." What's charming about this album, beyond the sheer quality of the songs and the arrangements, is Pizzarelli's obvious and genuine love for this really broad gamut of material, and his insight into the varied qualities that make them all great songs.

~ Rick Anderson, All Music

***************

Track List:

01. I Feel Fine / Sidewinder [0:03:49.21]
02. Harvest Moon [0:05:19.01]
03. Traffic Jam / The Kicker [0:03:29.72]
04. Ruby Baby [0:04:53.60]
05. Alison [0:03:56.72]
06. Rosalinda's Eyes [0:04:02.55]
07. In Memory of Elizabeth Reed [0:04:19.08]
08. Drunk on the Moon / Lush Life [0:04:28.07]
09. Walk Between the Raindrops [0:05:10.37]
10. Free Man in Paris [0:04:10.53]
11. Take a Lot of Pictures [0:04:00.31]
12. I Can Let Go Now [0:02:47.11]
13. Diamond Girl [0:03:58.49]

Exact Audio Copy V1.0 beta 3 from 29. August 2011

EAC extraction logfile from 23. November 2013, 13:09

John Pizzarelli / Double Exposure

Used drive : ATAPI iHAS124 D Adapter: 0 ID: 2

Read mode : Secure
Utilize accurate stream : Yes
Defeat audio cache : Yes
Make use of C2 pointers : No

Read offset correction : 6
Overread into Lead-In and Lead-Out : No
Fill up missing offset samples with silence : Yes
Delete leading and trailing silent blocks : No
Null samples used in CRC calculations : Yes
Used interface : Installed external ASPI interface

Used output format : User Defined Encoder
Selected bitrate : 1024 kBit/s
Quality : High
Add ID3 tag : No
Command line compressor : C:\Program Files (x86)\Exact Audio Copy\Flac\flac.exe
Additional command line options : -6 -V -T "ARTIST=%artist%" -T "TITLE=%title%" -T "ALBUM=%albumtitle%" -T "DATE=%year%" -T "TRACKNUMBER=%tracknr%" -T "GENRE=%genre%" -T "COMMENT=%comment%" -T "BAND=%albuminterpret%" -T "COMPOSER=%composer%" %haslyrics%–tag-from-file=LYRICS="%lyricsfile%"%haslyrics% -T "DISCNUMBER=%cdnumber%" -T "TOTALDISCS=%totalcds%" -T "TOTALTRACKS=%numtracks%" %hascover%–picture="%coverfile%"%hascover% %source% -o %dest%


TOC of the extracted CD

Track | Start | Length | Start sector | End sector
––––––––––––––––––––––––––––-
1 | 0:00.00 | 3:49.21 | 0 | 17195
2 | 3:49.21 | 5:19.01 | 17196 | 41121
3 | 9:08.22 | 3:29.72 | 41122 | 56868
4 | 12:38.19 | 4:53.60 | 56869 | 78903
5 | 17:32.04 | 3:56.72 | 78904 | 96675
6 | 21:29.01 | 4:02.55 | 96676 | 114880
7 | 25:31.56 | 4:19.08 | 114881 | 134313
8 | 29:50.64 | 4:28.07 | 134314 | 154420
9 | 34:18.71 | 5:10.37 | 154421 | 177707
10 | 39:29.33 | 4:10.53 | 177708 | 196510
11 | 43:40.11 | 4:00.31 | 196511 | 214541
12 | 47:40.42 | 2:47.11 | 214542 | 227077
13 | 50:27.53 | 3:58.49 | 227078 | 244976


Range status and errors

Selected range

Filename C:\mm\John Pizzarelli\1996 - After Hours [01241 63191-2]\John Pizzarelli - Double Exposure.wav

Peak level 100.0 %
Extraction speed 3.5 X
Range quality 100.0 %
Test CRC 2FB95F3A
Copy CRC 2FB95F3A
Copy OK

No errors occurred


AccurateRip summary

Track 1 accurately ripped (confidence 16) [5E3B3388] (AR v2)
Track 2 accurately ripped (confidence 16) [E9C6C31B] (AR v2)
Track 3 accurately ripped (confidence 16) [1A21DCBC] (AR v2)
Track 4 accurately ripped (confidence 16) [31DDECDF] (AR v2)
Track 5 accurately ripped (confidence 16) [14BF6956] (AR v2)
Track 6 accurately ripped (confidence 16) [F334F96C] (AR v2)
Track 7 accurately ripped (confidence 17) [F1FB1B4D] (AR v2)
Track 8 accurately ripped (confidence 15) [21B84371] (AR v2)
Track 9 accurately ripped (confidence 16) [721071A5] (AR v2)
Track 10 accurately ripped (confidence 16) [F1DAB11E] (AR v2)
Track 11 accurately ripped (confidence 15) [0B421F47] (AR v2)
Track 12 accurately ripped (confidence 16) [810273A0] (AR v2)
Track 13 accurately ripped (confidence 16) [3C76F4C5] (AR v2)

All tracks accurately ripped

End of status report

–– CUETools DB Plugin V2.1.3

[CTDB TOCID: M1GYAjkWtdsNrdb_rxlKbEVKz7Q-] found, Submit result: M1GYAjkWtdsNrdb_rxlKbEVKz7Q- has been confirmed
[cf08b214] (5/5) Accurately ripped

[CUETools log; Date: 05.05.2021 1:17:09; Version: 2.1.6]
[CTDB TOCID: M1GYAjkWtdsNrdb_rxlKbEVKz7Q-] found.
Track | CTDB Status
1 | (52/52) Accurately ripped
2 | (52/52) Accurately ripped
3 | (52/52) Accurately ripped
4 | (52/52) Accurately ripped
5 | (52/52) Accurately ripped
6 | (52/52) Accurately ripped
7 | (52/52) Accurately ripped
8 | (52/52) Accurately ripped
9 | (51/52) Accurately ripped
10 | (52/52) Accurately ripped
11 | (52/52) Accurately ripped
12 | (52/52) Accurately ripped
13 | (52/52) Accurately ripped
[AccurateRip ID: 001ac83f-010b61e8-960cc20d] found.
Track [ CRC | V2 ] Status
01 [6f7679c0|5e3b3388] (02+51/53) Accurately ripped
02 [7e769221|e9c6c31b] (02+51/53) Accurately ripped
03 [4acaca1c|1a21dcbc] (02+51/53) Accurately ripped
04 [84c9dd5b|31ddecdf] (02+51/53) Accurately ripped
05 [1a0e271f|14bf6956] (02+51/53) Accurately ripped
06 [4f15ebd7|f334f96c] (02+50/52) Accurately ripped
07 [e500eec9|f1fb1b4d] (03+51/54) Accurately ripped
08 [762743f0|21b84371] (02+50/52) Accurately ripped
09 [cacfb858|721071a5] (02+51/53) Accurately ripped
10 [3754ba29|f1dab11e] (02+51/53) Accurately ripped
11 [ede1a090|0b421f47] (02+49/51) Accurately ripped
12 [6caec4fb|810273a0] (02+51/53) Accurately ripped
13 [abce993a|3c76f4c5] (02+51/53) Accurately ripped

Track Peak [ CRC32 ] [W/O NULL] [ LOG ]
– 100,0 [2FB95F3A] [C1FE1655] CRC32
01 100,0 [EBCD9E64] [2DDBAFBA]
02 100,0 [76D510C2] [7CFC565A]
03 100,0 [BFF75750] [02CA7BE5]
04 100,0 [FF696EA9] [EA12FE62]
05 100,0 [7616288C] [639FD485]
06 100,0 [EA01E0D9] [303BD1F3]
07 100,0 [70FA9F18] [7D0AEBD5]
08 100,0 [2338ADDF] [75331BBA]
09 74,0 [D7CA936C] [FB8C2987]
10 100,0 [CAE8C329] [05DD8A38]
11 100,0 [1BEA3D5F] [FA144C22]
12 100,0 [73242225] [9E4ACD24]
13 100,0 [19851178] [E48B9A97]

All thanks go to sergych

>>> John Pizzarelli in my Blog <<<

DOWNLOAD: