Tags
Language
Tags

John Prine - Great Days: The John Prine Anthology (1993) 2CDs

Posted By: Designol
John Prine - Great Days: The John Prine Anthology (1993) 2CDs

John Prine - Great Days: The John Prine Anthology (1993) 2CDs
EAC | FLAC | Tracks (Cue&Log) ~ 854 Mb | Mp3 (CBR320) ~ 343 Mb | Scans ~ 100 Mb
Label: Rhino Records | # 8122-71400-2 | Time: 02:29:11
Genre: Singer/Songwriter, Folk, Country-Folk, Folk-Rock

Rhino's Great Days: The John Prine Anthology is an excellent summary of John Prine's prime period, from his sublime 1971 eponymous debut to 1991's Missing Years. This (appropriately) draws heavily from his early recordings (including the aforementioned debut), but it also does a terrific job of finding songs on uneven albums, while giving weight to such classic albums as Bruised Orange. Although those previously mentioned albums are all worthwhile on their own terms (as are many of Prine's other records), this provides a nearly flawless recap of his career – so much so that it's not only for neophytes, but also reminds longtime fans why they loved him in the first place.

Review by Stephen Thomas Erlewine, Allmusic.com

John Prine - Great Days: The John Prine Anthology (1993) 2CDs



Tracklist:

CD1:

01. Illegal Smile (3:13)
02. Spanish Pipedream (2:41)
03. Hello in There (4:32)
04. Sam Stone (4:16)
05. Paradise (3:15)
06. Donald and Lydia (4:30)
07. The Late John Garfield Blues (3:06)
08. Yes I Guess They Oughta Name a Drink After You (2:10)
09. The Great Compromise (4:56)
10. Sweet Revenge (2:41)
11. Please Don't Bury Me (2:51)
12. Christmas in Prison (3:13)
13. Dear Abby(live) (4:22)
14. Blue Umbrella (3:31)
15. Common Sense (3:11)
16. Come Back to Us Barbara Lewis Hare Krishna Beauregard (3:20)
17. Saddle in the Rain (3:35)
18. He Was in Heaven Before He Died (2:16)
19. Fish and Whistle (3:15)
20. That's the Way That the World Goes 'Round (3:22)
21. Bruised Orange(Chain of Sorrow) (5:20)

CD2:

01. Sabu Visits the Twin Cities Alone (2:55)
02. Automobile (4:23)
03. Killing the Blues (Roly Salley)(4:38)
04. Down by the Side of the Road (5:04)
05. Living in the Future (3:26)
06. It's Happening to You (Prine, John Burns)(2:19)
07. Storm Windows (5:07)
08. One Red Rose (3:19)
09. Souvenirs (3:33)
10. Aimless Love (3:08)
11. The Oldest Baby in the World (Prine, Donnie Fritts)(3:07)
12. People Puttin' People Down (2:50)
13. Unwed Fathers (Prine, Bobby Braddock)(3:32)
14. Angel from Montgomery(live) (4:34)
15. Linda Goes to Mars (3:10)
16. Bad Boy (3:30)
17. Speed of the Sound of Loneliness(live) (3:31)
18. It's a Big Old Goofy World(live) (5:24)
19. The Sins of Memphisto (4:14)
20. All the Best (3:28)


Exact Audio Copy V0.99 prebeta 4 from 23. January 2008

EAC extraction logfile from 15. November 2009, 14:45

John Prine / The John Prine Anthology: Great Days (Disc 1)

Used drive : _NEC DVD_RW ND-3520A Adapter: 1 ID: 0

Read mode : Secure
Utilize accurate stream : Yes
Defeat audio cache : Yes
Make use of C2 pointers : No

Read offset correction : 48
Overread into Lead-In and Lead-Out : No
Fill up missing offset samples with silence : Yes
Delete leading and trailing silent blocks : No
Null samples used in CRC calculations : Yes
Used interface : Installed external ASPI interface
Gap handling : Appended to previous track

Used output format : User Defined Encoder
Selected bitrate : 1024 kBit/s
Quality : High
Add ID3 tag : No
Command line compressor : C:\Program Files\FLAC\flac.exe
Additional command line options : -8 -V -T "ARTIST=%a" -T "TITLE=%t" -T "ALBUM=%g" -T "DATE=%y" -T "TRACKNUMBER=%n" -T "GENRE=%m" -T "COMMENT=EAC FLAC -8" %s


TOC of the extracted CD

Track | Start | Length | Start sector | End sector
––––––––––––––––––––––––––––-
1 | 0:00.00 | 3:14.03 | 0 | 14552
2 | 3:14.03 | 2:41.10 | 14553 | 26637
3 | 5:55.13 | 4:32.02 | 26638 | 47039
4 | 10:27.15 | 4:16.68 | 47040 | 66307
5 | 14:44.08 | 3:15.45 | 66308 | 80977
6 | 17:59.53 | 4:30.55 | 80978 | 101282
7 | 22:30.33 | 3:06.17 | 101283 | 115249
8 | 25:36.50 | 2:10.03 | 115250 | 125002
9 | 27:46.53 | 4:56.42 | 125003 | 147244
10 | 32:43.20 | 2:41.63 | 147245 | 159382
11 | 35:25.08 | 2:51.27 | 159383 | 172234
12 | 38:16.35 | 3:13.58 | 172235 | 186767
13 | 41:30.18 | 4:22.60 | 186768 | 206477
14 | 45:53.03 | 3:31.07 | 206478 | 222309
15 | 49:24.10 | 3:11.65 | 222310 | 236699
16 | 52:36.00 | 3:20.58 | 236700 | 251757
17 | 55:56.58 | 3:35.27 | 251758 | 267909
18 | 59:32.10 | 2:16.08 | 267910 | 278117
19 | 61:48.18 | 3:15.60 | 278118 | 292802
20 | 65:04.03 | 3:22.00 | 292803 | 307952
21 | 68:26.03 | 5:20.25 | 307953 | 331977


Track 1

Filename C:\Documents and Settings\All Users\Documents\Uploads\Ex\John Prine - Great Days-The John Prine Anthology (1993) [FLAC]\Disc 1\01 - Illegal Smile.wav

Pre-gap length 0:00:02.00

Peak level 96.5 %
Track quality 100.0 %
Test CRC 34C7C20E
Copy CRC 34C7C20E
Accurately ripped (confidence 2) [E903A663]
Copy OK

Track 2

Filename C:\Documents and Settings\All Users\Documents\Uploads\Ex\John Prine - Great Days-The John Prine Anthology (1993) [FLAC]\Disc 1\02 - Spanish Pipedream.wav

Pre-gap length 0:00:00.86

Peak level 89.4 %
Track quality 100.0 %
Test CRC 702ECCA3
Copy CRC 702ECCA3
Accurately ripped (confidence 3) [496FF10A]
Copy OK

Track 3

Filename C:\Documents and Settings\All Users\Documents\Uploads\Ex\John Prine - Great Days-The John Prine Anthology (1993) [FLAC]\Disc 1\03 - Hello in There.wav

Pre-gap length 0:00:00.64

Peak level 88.2 %
Track quality 100.0 %
Test CRC A400669C
Copy CRC A400669C
Accurately ripped (confidence 3) [13A8AEBE]
Copy OK

Track 4

Filename C:\Documents and Settings\All Users\Documents\Uploads\Ex\John Prine - Great Days-The John Prine Anthology (1993) [FLAC]\Disc 1\04 - Sam Stone.wav

Pre-gap length 0:00:01.29

Peak level 79.6 %
Track quality 100.0 %
Test CRC BF80EDDE
Copy CRC BF80EDDE
Accurately ripped (confidence 3) [EC578EC2]
Copy OK

Track 5

Filename C:\Documents and Settings\All Users\Documents\Uploads\Ex\John Prine - Great Days-The John Prine Anthology (1993) [FLAC]\Disc 1\05 - Paradise.wav

Pre-gap length 0:00:00.84

Peak level 92.4 %
Track quality 99.9 %
Test CRC 7EDCF652
Copy CRC 7EDCF652
Accurately ripped (confidence 3) [F2230161]
Copy OK

Track 6

Filename C:\Documents and Settings\All Users\Documents\Uploads\Ex\John Prine - Great Days-The John Prine Anthology (1993) [FLAC]\Disc 1\06 - Donald andf Lydia.wav

Pre-gap length 0:00:02.13

Peak level 100.0 %
Track quality 100.0 %
Test CRC 56E8141D
Copy CRC 56E8141D
Accurately ripped (confidence 3) [398F8955]
Copy OK

Track 7

Filename C:\Documents and Settings\All Users\Documents\Uploads\Ex\John Prine - Great Days-The John Prine Anthology (1993) [FLAC]\Disc 1\07 - The Late John Garfield Blues.wav

Pre-gap length 0:00:02.00

Peak level 94.0 %
Track quality 100.0 %
Test CRC CCEA8786
Copy CRC CCEA8786
Accurately ripped (confidence 3) [07B83A9A]
Copy OK

Track 8

Filename C:\Documents and Settings\All Users\Documents\Uploads\Ex\John Prine - Great Days-The John Prine Anthology (1993) [FLAC]\Disc 1\08 - Yes I Guess They Oughta Name a Drink After You.wav

Pre-gap length 0:00:02.16

Peak level 89.6 %
Track quality 100.0 %
Test CRC 1D7F371A
Copy CRC 1D7F371A
Accurately ripped (confidence 3) [270C74E0]
Copy OK

Track 9

Filename C:\Documents and Settings\All Users\Documents\Uploads\Ex\John Prine - Great Days-The John Prine Anthology (1993) [FLAC]\Disc 1\09 - The Great Compromise.wav

Pre-gap length 0:00:02.60

Peak level 94.3 %
Track quality 100.0 %
Test CRC 59BAEBE8
Copy CRC 59BAEBE8
Accurately ripped (confidence 3) [E3A028FC]
Copy OK

Track 10

Filename C:\Documents and Settings\All Users\Documents\Uploads\Ex\John Prine - Great Days-The John Prine Anthology (1993) [FLAC]\Disc 1\10 - Sweet Revenge.wav

Pre-gap length 0:00:02.16

Peak level 100.0 %
Track quality 100.0 %
Test CRC 08B6E82D
Copy CRC 08B6E82D
Accurately ripped (confidence 2) [8B9FD725]
Copy OK

Track 11

Filename C:\Documents and Settings\All Users\Documents\Uploads\Ex\John Prine - Great Days-The John Prine Anthology (1993) [FLAC]\Disc 1\11 - Please Don't Bury Me.wav

Pre-gap length 0:00:01.17

Peak level 100.0 %
Track quality 99.9 %
Test CRC C5708B0C
Copy CRC C5708B0C
Accurately ripped (confidence 3) [E8C8A2F9]
Copy OK

Track 12

Filename C:\Documents and Settings\All Users\Documents\Uploads\Ex\John Prine - Great Days-The John Prine Anthology (1993) [FLAC]\Disc 1\12 - Christmas in Prison.wav

Pre-gap length 0:00:01.42

Peak level 100.0 %
Track quality 100.0 %
Test CRC 16CAD8B0
Copy CRC 16CAD8B0
Accurately ripped (confidence 3) [A5DEE778]
Copy OK

Track 13

Filename C:\Documents and Settings\All Users\Documents\Uploads\Ex\John Prine - Great Days-The John Prine Anthology (1993) [FLAC]\Disc 1\13 - Dear Abby.wav

Pre-gap length 0:00:01.00

Peak level 86.0 %
Track quality 100.0 %
Test CRC 268A044A
Copy CRC 268A044A
Accurately ripped (confidence 3) [720B049F]
Copy OK

Track 14

Filename C:\Documents and Settings\All Users\Documents\Uploads\Ex\John Prine - Great Days-The John Prine Anthology (1993) [FLAC]\Disc 1\14 - Blue Umbrella.wav

Pre-gap length 0:00:01.46

Peak level 92.7 %
Track quality 99.8 %
Test CRC DB182394
Copy CRC DB182394
Accurately ripped (confidence 3) [47BFFE56]
Copy OK

Track 15

Filename C:\Documents and Settings\All Users\Documents\Uploads\Ex\John Prine - Great Days-The John Prine Anthology (1993) [FLAC]\Disc 1\15 - Common Sense.wav

Pre-gap length 0:00:02.09

Peak level 100.0 %
Track quality 99.8 %
Test CRC BFB5F60D
Copy CRC BFB5F60D
Accurately ripped (confidence 2) [7AD29125]
Copy OK

Track 16

Filename C:\Documents and Settings\All Users\Documents\Uploads\Ex\John Prine - Great Days-The John Prine Anthology (1993) [FLAC]\Disc 1\16 - Come Back to Us Barbara Lewis Hare Krishnal Beauregard.wav

Pre-gap length 0:00:01.96

Peak level 91.7 %
Track quality 100.0 %
Test CRC 9FC5FBFF
Copy CRC 9FC5FBFF
Accurately ripped (confidence 3) [22C3793E]
Copy OK

Track 17

Filename C:\Documents and Settings\All Users\Documents\Uploads\Ex\John Prine - Great Days-The John Prine Anthology (1993) [FLAC]\Disc 1\17 - Saddle in the Rain.wav

Pre-gap length 0:00:02.20

Peak level 100.0 %
Track quality 99.9 %
Test CRC DEAE0070
Copy CRC DEAE0070
Accurately ripped (confidence 2) [66FADCD4]
Copy OK

Track 18

Filename C:\Documents and Settings\All Users\Documents\Uploads\Ex\John Prine - Great Days-The John Prine Anthology (1993) [FLAC]\Disc 1\18 - He was in Heaven Before he Died.wav

Pre-gap length 0:00:02.06

Peak level 92.0 %
Track quality 100.0 %
Test CRC B257DE8A
Copy CRC B257DE8A
Accurately ripped (confidence 3) [E2D6B0D9]
Copy OK

Track 19

Filename C:\Documents and Settings\All Users\Documents\Uploads\Ex\John Prine - Great Days-The John Prine Anthology (1993) [FLAC]\Disc 1\19 - Fish and Whistle.wav

Pre-gap length 0:00:02.06

Peak level 99.6 %
Track quality 100.0 %
Test CRC 639FFD27
Copy CRC 639FFD27
Cannot be verified as accurate (confidence 3) [941CBEF8], AccurateRip returned [F5DEC060]
Copy OK

Track 20

Filename C:\Documents and Settings\All Users\Documents\Uploads\Ex\John Prine - Great Days-The John Prine Anthology (1993) [FLAC]\Disc 1\20 - That's the Way that the World Goes 'Round.wav

Pre-gap length 0:00:02.00

Peak level 99.0 %
Track quality 100.0 %
Test CRC 9D256982
Copy CRC 9D256982
Accurately ripped (confidence 2) [55063773]
Copy OK

Track 21

Filename C:\Documents and Settings\All Users\Documents\Uploads\Ex\John Prine - Great Days-The John Prine Anthology (1993) [FLAC]\Disc 1\21 - Bruised Orange (Chain of Sorrow).wav

Pre-gap length 0:00:02.00

Peak level 100.0 %
Track quality 100.0 %
Test CRC EE217D49
Copy CRC EE217D49
Accurately ripped (confidence 2) [C340D414]
Copy OK


All tracks accurately ripped

No errors occurred

End of status report

[CUETools log; Date: 08.04.2020 14:51:52; Version: 2.1.4]
[CTDB TOCID: QcDl9yFSQpY46pk2v7.93ZaUJuk-] found.
Track | CTDB Status
1 | (19/20) Accurately ripped
2 | (19/20) Accurately ripped
3 | (19/20) Accurately ripped
4 | (19/20) Accurately ripped
5 | (19/20) Accurately ripped
6 | (19/20) Accurately ripped
7 | (19/20) Accurately ripped
8 | (19/20) Accurately ripped
9 | (19/20) Accurately ripped
10 | (19/20) Accurately ripped
11 | (18/20) Accurately ripped
12 | (19/20) Accurately ripped
13 | (19/20) Accurately ripped
14 | (19/20) Accurately ripped
15 | (19/20) Accurately ripped
16 | (19/20) Accurately ripped
17 | (19/20) Accurately ripped
18 | (19/20) Accurately ripped
19 | (19/20) Accurately ripped
20 | (19/20) Accurately ripped
21 | (18/20) Accurately ripped
[AccurateRip ID: 003785a4-0350a4bf-56114a15] found.
Track [ CRC | V2 ] Status
01 [e903a663|71532512] (07+06/25) Accurately ripped
02 [496ff10a|91a33b90] (08+06/27) Accurately ripped
03 [13a8aebe|ac383f8d] (08+06/28) Accurately ripped
04 [ec578ec2|bfcc29d0] (07+06/27) Accurately ripped
05 [f2230161|469408e2] (07+06/27) Accurately ripped
06 [398f8955|e52ca501] (08+06/28) Accurately ripped
07 [07b83a9a|ec8bebb1] (07+06/27) Accurately ripped
08 [270c74e0|ee0edf87] (08+06/28) Accurately ripped
09 [e3a028fc|cfb37009] (07+06/27) Accurately ripped
10 [8b9fd725|a1588f67] (07+06/27) Accurately ripped
11 [e8c8a2f9|57f88879] (06+06/24) Accurately ripped
12 [a5dee778|50aedd44] (08+06/28) Accurately ripped
13 [720b049f|6ec7baba] (08+06/27) Accurately ripped
14 [47bffe56|01ecbb68] (08+06/28) Accurately ripped
15 [7ad29125|f971d949] (06+06/26) Accurately ripped
16 [22c3793e|5302fd14] (07+06/27) Accurately ripped
17 [66fadcd4|cbc98c68] (06+06/25) Accurately ripped
18 [e2d6b0d9|466f57e7] (08+06/27) Accurately ripped
19 [941cbef8|ef327ac4] (00+00/26) No match
20 [55063773|1a209d35] (07+06/26) Accurately ripped
21 [c340d414|f8b02b1e] (06+05/24) Accurately ripped
Offsetted by -670:
01 [c7d8c7ef] (00/25) No match
02 [af73ba2e] (00/27) No match
03 [a8775542] (00/28) No match
04 [a78315d2] (00/27) No match
05 [315e39f5] (00/27) No match
06 [1795c0b1] (00/28) No match
07 [4cf63f9c] (00/27) No match
08 [07dac3bc] (00/28) No match
09 [10e5fac4] (00/27) No match
10 [f122e38f] (00/27) No match
11 [cff9210f] (00/24) No match
12 [5b36d33e] (00/28) No match
13 [fd1586e7] (00/27) No match
14 [706d2f0c] (00/28) No match
15 [4a5f1215] (00/26) No match
16 [71706842] (00/27) No match
17 [a84fb654] (00/25) No match
18 [3afb61f5] (00/27) No match
19 [f5dec060] (09/26) Accurately ripped
20 [1fa2370b] (00/26) No match
21 [b7335478] (00/24) No match
Offsetted by -664:
01 [249c07d3] (08/25) Accurately ripped
02 [ec6fdf5a] (09/27) Accurately ripped
03 [c2a4dc8e] (10/28) Accurately ripped
04 [fc302a02] (10/27) Accurately ripped
05 [cfc04671] (10/27) Accurately ripped
06 [84671505] (10/28) Accurately ripped
07 [218c3c82] (10/27) Accurately ripped
08 [2f1b6690] (10/28) Accurately ripped
09 [5c258b9c] (10/27) Accurately ripped
10 [6e51182d] (10/27) Accurately ripped
11 [f8b263f1] (09/24) Accurately ripped
12 [580fd430] (10/28) Accurately ripped
13 [96f7a13f] (09/27) Accurately ripped
14 [7ac2bfce] (10/28) Accurately ripped
15 [b75195e5] (10/26) Accurately ripped
16 [925bc10e] (10/27) Accurately ripped
17 [42172ad4] (09/25) Accurately ripped
18 [0ddec789] (09/27) Accurately ripped
19 [0a644618] (00/26) No match
20 [fcf5a453] (09/26) Accurately ripped
21 [26e0eb64] (09/24) Accurately ripped
Offsetted by -6:
01 [8c40667f] (00/25) No match
02 [0c73cbde] (00/27) No match
03 [f97b2772] (00/28) No match
04 [97aa7a92] (00/27) No match
05 [53c0f4e5] (00/27) No match
06 [ccbe3501] (00/28) No match
07 [33223db4] (00/27) No match
08 [ffcbd20c] (00/28) No match
09 [98609824] (00/27) No match
10 [0e71a287] (00/27) No match
11 [c00f6017] (00/24) No match
12 [a905e686] (00/28) No match
13 [d828ea47] (00/27) No match
14 [3d6a6d94] (00/28) No match
15 [0de00d55] (00/26) No match
16 [01d82072] (00/27) No match
17 [cd336854] (00/25) No match
18 [0ff34b45] (00/27) No match
19 [7f973940] (07/26) Accurately ripped
20 [77b2ca2b] (00/26) No match
21 [53933d28] (00/24) No match

Track Peak [ CRC32 ] [W/O NULL] [ LOG ]
– 100,0 [3E7F90F6] [883BA93C]
01 96,5 [34C7C20E] [1072EEC1] CRC32
02 89,4 [702ECCA3] [DBB99F4C] CRC32
03 88,2 [A400669C] [E3185AF7] CRC32
04 79,6 [BF80EDDE] [22AB9E10] CRC32
05 92,4 [7EDCF652] [3111CDAB] CRC32
06 100,0 [56E8141D] [EF5B2B25] CRC32
07 94,0 [CCEA8786] [0D9DDA64] CRC32
08 89,6 [1D7F371A] [38122AAD] CRC32
09 94,3 [59BAEBE8] [60C53090] CRC32
10 100,0 [08B6E82D] [4B644EB9] CRC32
11 100,0 [C5708B0C] [2892EA86] CRC32
12 100,0 [16CAD8B0] [C5D79146] CRC32
13 86,0 [268A044A] [F34397F8] CRC32
14 92,7 [DB182394] [DD9DC513] CRC32
15 100,0 [BFB5F60D] [8621B180] CRC32
16 91,7 [9FC5FBFF] [4D838B34] CRC32
17 100,0 [DEAE0070] [1C4C8D50] CRC32
18 92,0 [B257DE8A] [969A4528] CRC32
19 99,6 [639FFD27] [C2139D6C] CRC32
20 99,0 [9D256982] [57119E35] CRC32
21 100,0 [EE217D49] [0FBA6838] CRC32

foobar2000 1.2 / Dynamic Range Meter 1.1.1
log date: 2020-04-08 14:50:19

––––––––––––––––––––––––––––––––––––––––
Analyzed: John Prine / The John Prine Anthology: Great Days (Disc 1)
––––––––––––––––––––––––––––––––––––––––

DR Peak RMS Duration Track
––––––––––––––––––––––––––––––––––––––––
DR12 -0.31 dB -15.53 dB 3:14 01-Illegal Smile
DR13 -0.97 dB -15.63 dB 2:41 02-Spanish Pipedream
DR11 -1.09 dB -16.49 dB 4:32 03-Hello in There
DR11 -1.98 dB -16.29 dB 4:17 04-Sam Stone
DR12 -0.69 dB -16.27 dB 3:16 05-Paradise
DR12 0.00 dB -15.28 dB 4:31 06-Donald andf Lydia
DR12 -0.53 dB -15.69 dB 3:06 07-The Late John Garfield Blues
DR14 -0.95 dB -16.62 dB 2:10 08-Yes I Guess They Oughta Name a Drink After You
DR14 -0.51 dB -18.55 dB 4:57 09-The Great Compromise
DR12 0.00 dB -13.99 dB 2:42 10-Sweet Revenge
DR12 0.00 dB -13.81 dB 2:51 11-Please Don't Bury Me
DR12 0.00 dB -15.76 dB 3:14 12-Christmas in Prison
DR13 -1.31 dB -18.10 dB 4:23 13-Dear Abby
DR13 -0.66 dB -17.28 dB 3:31 14-Blue Umbrella
DR11 0.00 dB -14.12 dB 3:12 15-Common Sense
DR12 -0.75 dB -16.06 dB 3:21 16-Come Back to Us Barbara Lewis Hare Krishnal Beauregard
DR12 0.00 dB -14.13 dB 3:35 17-Saddle in the Rain
DR13 -0.72 dB -16.59 dB 2:16 18-He was in Heaven Before he Died
DR14 -0.03 dB -16.50 dB 3:16 19-Fish and Whistle
DR13 -0.09 dB -15.58 dB 3:22 20-That's the Way that the World Goes 'Round
DR13 0.00 dB -15.79 dB 5:20 21-Bruised Orange (Chain of Sorrow)
––––––––––––––––––––––––––––––––––––––––

Number of tracks: 21
Official DR value: DR12

Samplerate: 44100 Hz
Channels: 2
Bits per sample: 16
Bitrate: 828 kbps
Codec: FLAC
================================================================================


Exact Audio Copy V0.99 prebeta 4 from 23. January 2008

EAC extraction logfile from 15. November 2009, 15:20

John Prine / The John Prine Anthology: Great Days (Disc 2)

Used drive : _NEC DVD_RW ND-3520A Adapter: 1 ID: 0

Read mode : Secure
Utilize accurate stream : Yes
Defeat audio cache : Yes
Make use of C2 pointers : No

Read offset correction : 48
Overread into Lead-In and Lead-Out : No
Fill up missing offset samples with silence : Yes
Delete leading and trailing silent blocks : No
Null samples used in CRC calculations : Yes
Used interface : Installed external ASPI interface
Gap handling : Appended to previous track

Used output format : User Defined Encoder
Selected bitrate : 1024 kBit/s
Quality : High
Add ID3 tag : No
Command line compressor : C:\Program Files\FLAC\flac.exe
Additional command line options : -8 -V -T "ARTIST=%a" -T "TITLE=%t" -T "ALBUM=%g" -T "DATE=%y" -T "TRACKNUMBER=%n" -T "GENRE=%m" -T "COMMENT=EAC FLAC -8" %s


TOC of the extracted CD

Track | Start | Length | Start sector | End sector
––––––––––––––––––––––––––––-
1 | 0:00.00 | 2:56.23 | 0 | 13222
2 | 2:56.23 | 4:23.25 | 13223 | 32972
3 | 7:19.48 | 4:38.05 | 32973 | 53827
4 | 11:57.53 | 5:04.50 | 53828 | 76677
5 | 17:02.28 | 3:26.30 | 76678 | 92157
6 | 20:28.58 | 2:19.55 | 92158 | 102637
7 | 22:48.38 | 5:07.57 | 102638 | 125719
8 | 27:56.20 | 3:19.43 | 125720 | 140687
9 | 31:15.63 | 3:33.40 | 140688 | 156702
10 | 34:49.28 | 3:08.40 | 156703 | 170842
11 | 37:57.68 | 3:07.70 | 170843 | 184937
12 | 41:05.63 | 2:50.70 | 184938 | 197757
13 | 43:56.58 | 3:32.00 | 197758 | 213657
14 | 47:28.58 | 4:34.45 | 213658 | 234252
15 | 52:03.28 | 3:10.47 | 234253 | 248549
16 | 55:14.00 | 3:30.58 | 248550 | 264357
17 | 58:44.58 | 3:31.37 | 264358 | 280219
18 | 62:16.20 | 5:24.10 | 280220 | 304529
19 | 67:40.30 | 4:14.58 | 304530 | 323637
20 | 71:55.13 | 3:29.07 | 323638 | 339319


Track 1

Filename C:\Documents and Settings\All Users\Documents\Uploads\Ex\John Prine - Great Days-The John Prine Anthology (1993) [FLAC]\Disc 2\01 - Sabu Visits the Twin Cities Alone.wav

Pre-gap length 0:00:02.00

Peak level 81.3 %
Track quality 99.9 %
Test CRC FCE4E6F1
Copy CRC FCE4E6F1
Accurately ripped (confidence 6) [BB572D1D]
Copy OK

Track 2

Filename C:\Documents and Settings\All Users\Documents\Uploads\Ex\John Prine - Great Days-The John Prine Anthology (1993) [FLAC]\Disc 2\02 - Automobile.wav

Pre-gap length 0:00:01.97

Peak level 100.0 %
Track quality 99.9 %
Test CRC C8296046
Copy CRC C8296046
Accurately ripped (confidence 6) [C50DEE79]
Copy OK

Track 3

Filename C:\Documents and Settings\All Users\Documents\Uploads\Ex\John Prine - Great Days-The John Prine Anthology (1993) [FLAC]\Disc 2\03 - Killing the Blues.wav

Pre-gap length 0:00:01.26

Peak level 100.0 %
Track quality 100.0 %
Test CRC 3CB9A48D
Copy CRC 3CB9A48D
Accurately ripped (confidence 5) [8327C574]
Copy OK

Track 4

Filename C:\Documents and Settings\All Users\Documents\Uploads\Ex\John Prine - Great Days-The John Prine Anthology (1993) [FLAC]\Disc 2\04 - Down by the Side of the Road.wav

Pre-gap length 0:00:02.13

Peak level 100.0 %
Track quality 100.0 %
Test CRC B6BC7F28
Copy CRC B6BC7F28
Accurately ripped (confidence 4) [FC44AE3F]
Copy OK

Track 5

Filename C:\Documents and Settings\All Users\Documents\Uploads\Ex\John Prine - Great Days-The John Prine Anthology (1993) [FLAC]\Disc 2\05 - Living in the Future.wav

Pre-gap length 0:00:02.33

Peak level 100.0 %
Track quality 100.0 %
Test CRC D0BEC08C
Copy CRC D0BEC08C
Accurately ripped (confidence 5) [B6FC00FF]
Copy OK

Track 6

Filename C:\Documents and Settings\All Users\Documents\Uploads\Ex\John Prine - Great Days-The John Prine Anthology (1993) [FLAC]\Disc 2\06 - It's Happening to You.wav

Peak level 96.8 %
Track quality 100.0 %
Test CRC F2E97AAA
Copy CRC F2E97AAA
Accurately ripped (confidence 6) [77063199]
Copy OK

Track 7

Filename C:\Documents and Settings\All Users\Documents\Uploads\Ex\John Prine - Great Days-The John Prine Anthology (1993) [FLAC]\Disc 2\07 - Storm Windows.wav

Pre-gap length 0:00:02.13

Peak level 100.0 %
Track quality 100.0 %
Test CRC 599A6DA6
Copy CRC 599A6DA6
Accurately ripped (confidence 5) [2280635E]
Copy OK

Track 8

Filename C:\Documents and Settings\All Users\Documents\Uploads\Ex\John Prine - Great Days-The John Prine Anthology (1993) [FLAC]\Disc 2\08 - One Red Rose.wav

Pre-gap length 0:00:01.49

Peak level 98.6 %
Track quality 99.9 %
Test CRC BE4B5BF6
Copy CRC BE4B5BF6
Accurately ripped (confidence 6) [4B6D3A34]
Copy OK

Track 9

Filename C:\Documents and Settings\All Users\Documents\Uploads\Ex\John Prine - Great Days-The John Prine Anthology (1993) [FLAC]\Disc 2\09 - Souvenirs.wav

Pre-gap length 0:00:01.53

Peak level 100.0 %
Track quality 99.9 %
Test CRC 96993082
Copy CRC 96993082
Accurately ripped (confidence 6) [414CDC18]
Copy OK

Track 10

Filename C:\Documents and Settings\All Users\Documents\Uploads\Ex\John Prine - Great Days-The John Prine Anthology (1993) [FLAC]\Disc 2\10 - Aimless Love.wav

Pre-gap length 0:00:01.77

Peak level 95.4 %
Track quality 100.0 %
Test CRC B7206A55
Copy CRC B7206A55
Accurately ripped (confidence 6) [5FB153B3]
Copy OK

Track 11

Filename C:\Documents and Settings\All Users\Documents\Uploads\Ex\John Prine - Great Days-The John Prine Anthology (1993) [FLAC]\Disc 2\11 - The Oldest Baby in the World.wav

Pre-gap length 0:00:01.44

Peak level 87.3 %
Track quality 99.9 %
Test CRC 193CD4BD
Copy CRC 193CD4BD
Accurately ripped (confidence 5) [56196BB4]
Copy OK

Track 12

Filename C:\Documents and Settings\All Users\Documents\Uploads\Ex\John Prine - Great Days-The John Prine Anthology (1993) [FLAC]\Disc 2\12 - People Puttin' People Down.wav

Pre-gap length 0:00:03.06

Peak level 100.0 %
Track quality 100.0 %
Test CRC E9666419
Copy CRC E9666419
Accurately ripped (confidence 6) [26C11478]
Copy OK

Track 13

Filename C:\Documents and Settings\All Users\Documents\Uploads\Ex\John Prine - Great Days-The John Prine Anthology (1993) [FLAC]\Disc 2\13 - Unwed Fathers.wav

Pre-gap length 0:00:02.84

Peak level 100.0 %
Track quality 100.0 %
Test CRC 885F2048
Copy CRC 885F2048
Accurately ripped (confidence 6) [7998A386]
Copy OK

Track 14

Filename C:\Documents and Settings\All Users\Documents\Uploads\Ex\John Prine - Great Days-The John Prine Anthology (1993) [FLAC]\Disc 2\14 - Angel from Montgomery.wav

Pre-gap length 0:00:00.77

Peak level 69.2 %
Track quality 99.9 %
Test CRC 8F57BB8C
Copy CRC 8F57BB8C
Accurately ripped (confidence 6) [FF9F7824]
Copy OK

Track 15

Filename C:\Documents and Settings\All Users\Documents\Uploads\Ex\John Prine - Great Days-The John Prine Anthology (1993) [FLAC]\Disc 2\15 - Linda Goes to Mars.wav

Pre-gap length 0:00:02.06

Peak level 91.2 %
Track quality 100.0 %
Test CRC 59F84991
Copy CRC 59F84991
Accurately ripped (confidence 6) [1C52F4B1]
Copy OK

Track 16

Filename C:\Documents and Settings\All Users\Documents\Uploads\Ex\John Prine - Great Days-The John Prine Anthology (1993) [FLAC]\Disc 2\16 - Bad Boy.wav

Pre-gap length 0:00:03.76

Peak level 91.4 %
Track quality 100.0 %
Test CRC D8001E3F
Copy CRC D8001E3F
Accurately ripped (confidence 6) [6DE41BB4]
Copy OK

Track 17

Filename C:\Documents and Settings\All Users\Documents\Uploads\Ex\John Prine - Great Days-The John Prine Anthology (1993) [FLAC]\Disc 2\17 - Speed of the Sound of Loneliness.wav

Pre-gap length 0:00:02.80

Peak level 82.3 %
Track quality 99.9 %
Test CRC 5C6A0AFD
Copy CRC 5C6A0AFD
Accurately ripped (confidence 6) [23A75F60]
Copy OK

Track 18

Filename C:\Documents and Settings\All Users\Documents\Uploads\Ex\John Prine - Great Days-The John Prine Anthology (1993) [FLAC]\Disc 2\18 - It's a Big Old Goofy World.wav

Pre-gap length 0:00:01.93

Peak level 100.0 %
Track quality 100.0 %
Test CRC F918F3A7
Copy CRC F918F3A7
Accurately ripped (confidence 6) [ADBD3602]
Copy OK

Track 19

Filename C:\Documents and Settings\All Users\Documents\Uploads\Ex\John Prine - Great Days-The John Prine Anthology (1993) [FLAC]\Disc 2\19 - The Sins of Memphisto.wav

Pre-gap length 0:00:02.06

Peak level 92.3 %
Track quality 100.0 %
Test CRC C516FBCA
Copy CRC C516FBCA
Accurately ripped (confidence 5) [839E7509]
Copy OK

Track 20

Filename C:\Documents and Settings\All Users\Documents\Uploads\Ex\John Prine - Great Days-The John Prine Anthology (1993) [FLAC]\Disc 2\20 - All the Best.wav

Pre-gap length 0:00:02.84

Peak level 99.2 %
Track quality 100.0 %
Test CRC 7CAC6178
Copy CRC 7CAC6178
Accurately ripped (confidence 5) [CC341D0D]
Copy OK


All tracks accurately ripped

No errors occurred

End of status report

[CUETools log; Date: 08.04.2020 14:52:25; Version: 2.1.4]
[CTDB TOCID: .FfQU42OrGFH.YR9A90IL1aYkw4-] found.
Track | CTDB Status
1 | (22/22) Accurately ripped
2 | (22/22) Accurately ripped
3 | (22/22) Accurately ripped
4 | (22/22) Accurately ripped
5 | (22/22) Accurately ripped
6 | (22/22) Accurately ripped
7 | (22/22) Accurately ripped
8 | (21/22) Accurately ripped
9 | (11/22) Accurately ripped
10 | (21/22) Accurately ripped
11 | (22/22) Accurately ripped
12 | (22/22) Accurately ripped
13 | (22/22) Accurately ripped
14 | (22/22) Accurately ripped
15 | (22/22) Accurately ripped
16 | (22/22) Accurately ripped
17 | (22/22) Accurately ripped
18 | (22/22) Accurately ripped
19 | (22/22) Accurately ripped
20 | (21/22) Accurately ripped
[AccurateRip ID: 00364543-03180e9a-1f11ac14] found.
Track [ CRC | V2 ] Status
01 [bb572d1d|88995ceb] (17+09/28) Accurately ripped
02 [c50dee79|548dbdc4] (17+09/28) Accurately ripped
03 [8327c574|c9833b1d] (16+09/27) Accurately ripped
04 [fc44ae3f|12212c91] (14+09/25) Accurately ripped
05 [b6fc00ff|5c4b6228] (15+09/26) Accurately ripped
06 [77063199|3ef5c949] (17+09/28) Accurately ripped
07 [2280635e|4618d911] (16+09/27) Accurately ripped
08 [4b6d3a34|0d00a3c9] (17+09/28) Accurately ripped
09 [414cdc18|7a3b2a0f] (15+06/21) Accurately ripped
10 [5fb153b3|96d80426] (17+09/28) Accurately ripped
11 [56196bb4|fba668fa] (16+09/27) Accurately ripped
12 [26c11478|d9b12b7d] (17+09/28) Accurately ripped
13 [7998a386|f5460046] (16+09/27) Accurately ripped
14 [ff9f7824|9d1d21c9] (17+09/28) Accurately ripped
15 [1c52f4b1|73dfdcde] (17+09/28) Accurately ripped
16 [6de41bb4|ec831f11] (17+09/28) Accurately ripped
17 [23a75f60|9f52efb5] (17+09/28) Accurately ripped
18 [adbd3602|32c47316] (16+09/27) Accurately ripped
19 [839e7509|adf06539] (16+09/27) Accurately ripped
20 [cc341d0d|c3b880fa] (15+09/26) Accurately ripped
Offsetted by -664:
01 [b76b1be5] (00/28) No match (V2 was not tested)
02 [30e9ee41] (00/28) No match (V2 was not tested)
03 [1971fde4] (00/27) No match (V2 was not tested)
04 [ceac440b] (00/25) No match (V2 was not tested)
05 [9eee6e93] (00/26) No match (V2 was not tested)
06 [2b5f7399] (00/28) No match (V2 was not tested)
07 [7e6a635e] (00/27) No match (V2 was not tested)
08 [a53fd434] (00/28) No match (V2 was not tested)
09 [697256e0] (00/21) No match (V2 was not tested)
10 [4ac37803] (00/28) No match (V2 was not tested)
11 [e939d33c] (00/27) No match (V2 was not tested)
12 [787192b8] (00/28) No match (V2 was not tested)
13 [326b729e] (00/27) No match (V2 was not tested)
14 [ada9c924] (00/28) No match (V2 was not tested)
15 [eadd34e9] (00/28) No match (V2 was not tested)
16 [aa602a3c] (00/28) No match (V2 was not tested)
17 [f438c480] (00/28) No match (V2 was not tested)
18 [10efc25a] (00/27) No match (V2 was not tested)
19 [51ff8c09] (00/27) No match (V2 was not tested)
20 [ad6461ed] (00/26) No match (V2 was not tested)

Track Peak [ CRC32 ] [W/O NULL] [ LOG ]
– 100,0 [E2732008] [F611BD7E]
01 81,3 [FCE4E6F1] [97739508] CRC32
02 100,0 [C8296046] [AA7881C7] CRC32
03 100,0 [3CB9A48D] [4B875FDF] CRC32
04 100,0 [B6BC7F28] [65E67A9D] CRC32
05 100,0 [D0BEC08C] [5CCE42F6] CRC32
06 96,8 [F2E97AAA] [EE10FAA4] CRC32
07 100,0 [599A6DA6] [EBCE665B] CRC32
08 98,6 [BE4B5BF6] [25FFFF2C] CRC32
09 100,0 [96993082] [6004F877] CRC32
10 95,4 [B7206A55] [BA78337F] CRC32
11 87,3 [193CD4BD] [3409E649] CRC32
12 100,0 [E9666419] [40E3BF98] CRC32
13 100,0 [885F2048] [FB7CF233] CRC32
14 69,2 [8F57BB8C] [F5E71834] CRC32
15 91,2 [59F84991] [0858C5BD] CRC32
16 91,4 [D8001E3F] [2B91D988] CRC32
17 82,3 [5C6A0AFD] [077831A3] CRC32
18 100,0 [F918F3A7] [B73D72EC] CRC32
19 92,3 [C516FBCA] [DE2869CA] CRC32
20 99,2 [7CAC6178] [B6CC28F3] CRC32

foobar2000 1.2 / Dynamic Range Meter 1.1.1
log date: 2020-04-08 14:51:23

––––––––––––––––––––––––––––––––––––––––
Analyzed: John Prine / The John Prine Anthology: Great Days (Disc 2)
––––––––––––––––––––––––––––––––––––––––

DR Peak RMS Duration Track
––––––––––––––––––––––––––––––––––––––––
DR13 -1.79 dB -20.98 dB 2:56 01-Sabu Visits the Twin Cities Alone
DR15 0.00 dB -17.97 dB 4:23 02-Automobile
DR14 0.00 dB -17.39 dB 4:38 03-Killing the Blues
DR14 0.00 dB -16.57 dB 5:05 04-Down by the Side of the Road
DR13 0.00 dB -15.34 dB 3:26 05-Living in the Future
DR12 -0.28 dB -14.78 dB 2:20 06-It's Happening to You
DR12 0.00 dB -15.34 dB 5:08 07-Storm Windows
DR15 -0.12 dB -19.13 dB 3:20 08-One Red Rose
DR12 0.00 dB -14.22 dB 3:34 09-Souvenirs
DR13 -0.40 dB -17.48 dB 3:09 10-Aimless Love
DR13 -1.17 dB -18.40 dB 3:08 11-The Oldest Baby in the World
DR13 0.00 dB -15.74 dB 2:51 12-People Puttin' People Down
DR13 0.00 dB -16.83 dB 3:32 13-Unwed Fathers
DR12 -3.19 dB -18.21 dB 4:35 14-Angel from Montgomery
DR13 -0.80 dB -16.85 dB 3:11 15-Linda Goes to Mars
DR16 -0.78 dB -19.86 dB 3:31 16-Bad Boy
DR11 -1.69 dB -14.79 dB 3:31 17-Speed of the Sound of Loneliness
DR15 0.00 dB -18.26 dB 5:24 18-It's a Big Old Goofy World
DR13 -0.69 dB -15.50 dB 4:15 19-The Sins of Memphisto
DR13 -0.06 dB -15.33 dB 3:29 20-All the Best
––––––––––––––––––––––––––––––––––––––––

Number of tracks: 20
Official DR value: DR13

Samplerate: 44100 Hz
Channels: 2
Bits per sample: 16
Bitrate: 830 kbps
Codec: FLAC
================================================================================

John Prine - Great Days: The John Prine Anthology (1993) 2CDs

John Prine - Great Days: The John Prine Anthology (1993) 2CDs

All thanks to original releaser - headman

More interesting music in My Blog