Subcategories
Tags
Language
Tags

John Cage - John Cage Shock, Vol. 1-3 (2012) 3CD [Re-Up]

Posted By: Designol
John Cage - John Cage Shock, Vol. 1-3 (2012) 3CD [Re-Up]

John Cage - John Cage Shock, Vol. 1-3 (2012) 3CD
EAC | FLAC | Tracks (Cue&Log) ~ 606 Mb | Mp3 (CBR320) ~ 341 Mb | Scans included
Label: EM/Edition Omega Point | # EM1104CD-EM1106CD, OP-0008~0010 | 02:01:54
Contemporary Classical, Avant-Garde, Experimental

In October 1962, John Cage and David Tudor went to Japan to present a series of historic concerts. Sensation. These are invaluable recordings, since they aren’t of a selected repertoire reconsidered in tranquility but capture the atmosphere of a time when all this was new and highly radical. And it’s a fine programme, played by the best exponents. In a nicely packaged double-fold card sleeve, with fine pictures

Each of the three volumes of Omega Point’s hugely important Cage Shock archival releases features a marvelous black and white photograph, together perhaps underscoring the force of that second titular term. One shows the composer playing with two contact microphones, one affixed to a perched boom mike and the other to a sheaf of paper in Cage’s left hand. A second shows Cage in the middle distance, bending over a crowded table to smell from a steaming pot he has just uncovered. A third cover photo shows Yoko Ono lying atop the piano, as if she is about to be sacrificed, while three black-suited performers appear to circumambulate the instrument, apparently reading from sheets of paper. What wicked science was this? Whither music?

The discs cover Cage’s first appearances and performances in Japan during October 1962. Cage and Merce Cunningham’s visits to the country during the mid-’60s became known among Japanese listeners as “Cage shock” for the radicalism of the chance aesthetic (here realized, in the words of one reviewer, in “quiet and brutal isolation”), for the unpredictable and sometimes confrontational performance ethos, and for the at times jaw-dropping otherness of the sound itself. The performances here total approximately 120 minutes, and they represent only a fraction of what was played during this important period (one wishes, for example, for some recordings of Frederic Rzewski’s performances). Yet, what is here is a dazzling snapshot of Cage and like-minded musicians a half century ago.

Volume One opens with Toru Takemitsu’s spiky, tension-filled “Corona for Pianists,” wherein Takemitsu’s more flinty early personality is very much on display. This piece – incorporating graphic notation – is filled with lengthy silences, flurries of percussive scrabbling in the upper register, limpid pools, and very modest preparations (an overtone coaxed from a hammer daubed just so). While it sometimes has a notebook-like quality, the pianists’ use of “string piano techniques” gives it a real sonic range and frisson. It’s all played with exquisite subtlety and understanding by David Tudor (and how interesting to compare some of these recordings with Tudor’s later entries, on the essential Edition RZ) and fellow pianist Yuji Takahashi, who conjure some intense moments (for instance, the late surge of a volley of spikes followed by dark, billowing clouds from twinned pianoforte). The dynamically intense Christian Wolff piece “Duo for Pianist & Violinist” (with some sizzling, barely audible work from violinist Kenji Kobayashi) is a fairly emphatic realization of chance operations. There’s so much space, so many spectral overtones; a metallophone rattles inside the piano, followed by a declamatory single note. What’s especially pleasant is that there is, despite the uncertainty, a real flow between these events, with nothing sounding merely gestural. Ringing metallic clouds open Cage’s “Variations II” – which takes its cues from superimposed transparent sheets with graphic notation to be interpreted by performers (Cage himself alongside Tudor) – and the piece is still pretty startling at times. Its grinding, gritty metallic/electric noise must have freaked people out rather badly.

Half of the second disc features Tudor’s bracing performance of Karlheinz Stockhausen’s “Klavierstuck X.” It’s filled with crashing clusters, heavy doses of glissandi, polytonal knots, and it’s a performance that relies on energy and intensity more than on exacting technique. But the more you immerse yourself in the details of the piece – with bright, quizzical passages and plenty of fractured pauses to break up the restlessness – it’s worth noting how Stockhausen’s vaunted serialism doesn’t differ as much in method from Cage as one might think. Hear this audibly in the subsequent composition, Cage’s “26’55.998,” one of the more focused explorations of chance operations from this period. Tudor is joined by pianist Toshi Ichiyanagi and Kobayashi, and the performance is an absolute stunner. Jagged piano irruptions, woody thwacks, and grainy electronic washes of varying duration form the building blocks here, but some of the elements of “shock” are palpable, too – not just the aggressive, sheer noise but the vocalizations from an uncredited young Yoko Ono, who is deeply in tune with Cage’s conception. She rambles, mutters, and shrieks in dialogue with Tudor, and it’s all particularly effective in the comparably hushed, almost disorienting second part of the piece (with mangled, mewling noise, and whipcracks).

And on Volume Three the music continues to impress. Cage as solo performer on “0’0”” delivers a study in electronic crackle that’s positively decades ahead of its time, the kind of thing you might expect on an early Voice Crack record. Michael von Biel’s “Composition II for 2 Pianos” (Tudor and Ichiyanagi) is sensuous and subtle, with billowing clouds, micro-details, and soft timbres amidst the percussive approach. Finally, Ichiyanagi’s “Music for Piano #7” (for the same two pianists) seems superficially a bit too derivative of Cage’s “Variations,” but this is surely a case of more of a good thing; and in any case, its different graphic notation and methodology give it the sense of multiple bagatelles being strung together, for a somewhat different perceptual effect. Cage Shock, when taken together, provide a bracing distillation of these important concerts. Perhaps more vividly, they confirm how integral these musicians and their aesthetic experimentation remain to contemporary music. Essential stuff.

Jason Bivins dustedmagazine.com

John Cage - John Cage Shock, Vol. 1-3 (2012) 3CD [Re-Up]






John Cage - John Cage Shock, Vol. 1-3 (2012) 3CD [Re-Up]

John Cage - John Cage Shock, Vol. 1 (2012)
EAC | FLAC | Tracks (Cue&Log) ~ 201 Mb | Mp3 (CBR320) ~ 112 Mb | Scans included
Label: EM/Edition Omega Point | # EM1104CD, OP-0008 | Time: 00:40:02


Tracklist:

01. Corona for Pianists (09:36)
Composed by - Toru Takemitsu
Performed by - David Tudor & Yuji Takahashi

02. Duo for Violinist & Pianist (11:11)
Composed by - Christian Wolff
Performed by - David Tudor & Kenji Kobayashi

03. Variations II (19:14)
Composed by - John Cage
Performed by - David Tudor & John Cage

- Recorded at Sogestu Art Center in Aoyama, Tokyo on October 24, 1962


Exact Audio Copy V1.0 beta 2 from 29. April 2011

EAC extraction logfile from 6. September 2012, 20:31

John Cage / John Cage Shock Vol. 1

Used drive : TSSTcorpDVD+-RW TS-H653G Adapter: 1 ID: 0

Read mode : Secure
Utilize accurate stream : Yes
Defeat audio cache : Yes
Make use of C2 pointers : No

Read offset correction : 6
Overread into Lead-In and Lead-Out : No
Fill up missing offset samples with silence : Yes
Delete leading and trailing silent blocks : No
Null samples used in CRC calculations : Yes
Used interface : Native Win32 interface for Win NT & 2000
Gap handling : Appended to previous track

Used output format : User Defined Encoder
Selected bitrate : 896 kBit/s
Quality : High
Add ID3 tag : No
Command line compressor : C:\Program Files (x86)\Exact Audio Copy\Flac\flac.exe
Additional command line options : -8 -V -T "ARTIST=%artist%" -T "TITLE=%title%" -T "ALBUM=%albumtitle%" -T "DATE=%year%" -T "TRACKNUMBER=%tracknr%" -T "GENRE=%genre%" -T "PERFORMER=%albuminterpret%" -T "COMPOSER=%composer%" %haslyrics%–tag-from-file=LYRICS


TOC of the extracted CD

Track | Start | Length | Start sector | End sector
––––––––––––––––––––––––––––-
1 | 0:00.00 | 9:36.24 | 0 | 43223
2 | 9:36.24 | 11:11.62 | 43224 | 93610
3 | 20:48.11 | 19:14.42 | 93611 | 180202


Track 1

Filename C:\EAC Rips\John Cage - John Cage Shock Vol. 1 (2012) [FLAC]\01 - David Tudor; Yuji Takahashi - Corona for Pianists.wav

Pre-gap length 0:00:02.00

Peak level 99.9 %
Extraction speed 2.1 X
Track quality 99.9 %
Test CRC F8A52AD2
Copy CRC F8A52AD2
Track not present in AccurateRip database
Copy OK

Track 2

Filename C:\EAC Rips\John Cage - John Cage Shock Vol. 1 (2012) [FLAC]\02 - David Tudor; Kenji Kobayashi - Duo for Violinist & Pianist.wav

Pre-gap length 0:00:02.00

Peak level 99.9 %
Extraction speed 2.3 X
Track quality 100.0 %
Test CRC 85E86C27
Copy CRC 85E86C27
Track not present in AccurateRip database
Copy OK

Track 3

Filename C:\EAC Rips\John Cage - John Cage Shock Vol. 1 (2012) [FLAC]\03 - David Tudor; John Cage - Variations II.wav

Pre-gap length 0:00:02.00

Peak level 96.2 %
Extraction speed 2.3 X
Track quality 100.0 %
Test CRC BFB12007
Copy CRC BFB12007
Track not present in AccurateRip database
Copy OK


None of the tracks are present in the AccurateRip database

No errors occurred

End of status report

==== Log checksum 0835D62FE63F6291CBD7A80499759D0FBEEB0AC5856B3DF2EF9EF7E0F598B87C ====

foobar2000 1.2 / Dynamic Range Meter 1.1.1
log date: 2015-09-03 13:41:32

––––––––––––––––––––––––––––––––––––––––
Analyzed: David Tudor; John Cage / John Cage Shock Vol. 1 (1)
David Tudor; Kenji Kobayashi / John Cage Shock Vol. 1 (2)
David Tudor; Yuji Takahashi / John Cage Shock Vol. 1 (3)
––––––––––––––––––––––––––––––––––––––––

DR Peak RMS Duration Track
––––––––––––––––––––––––––––––––––––––––
DR10 -0.34 dB -16.25 dB 19:15 03-Variations II
DR21 0.00 dB -27.41 dB 11:12 02-Duo for Violinist & Pianist
DR16 0.00 dB -22.12 dB 9:36 01-Corona for Pianists
––––––––––––––––––––––––––––––––––––––––

Number of tracks: 3
Official DR value: DR15

Samplerate: 44100 Hz
Channels: 2
Bits per sample: 16
Bitrate: 570 kbps
Codec: FLAC
================================================================================

John Cage - John Cage Shock, Vol. 1-3 (2012) 3CD [Re-Up]




John Cage - John Cage Shock, Vol. 1-3 (2012) 3CD [Re-Up]

John Cage - John Cage Shock, Vol. 2 (2012)
EAC | FLAC | Tracks (Cue&Log) ~ 213 Mb | Mp3 (CBR320) ~ 118 Mb | Scans included
Label: EM/Edition Omega Point | # EM1105CD, OP-0009 | Time: 00:42:23


Tracklist:

01. Klavierstück X (19:42)
Composed by - Karlheinz Stockhausen
Performed by David Tudor

02. 26'55.988' for 2 Pianists & a String Player (22:41)
Composed by - John Cage
Performed by - David Tudor, Toshi Ichiyanagi, Kenji Kobayashi & Yoko Ono

- Recorded at Mido-Kaikan in Osaka on October 17, 1962


Exact Audio Copy V1.0 beta 2 from 29. April 2011

EAC extraction logfile from 6. September 2012, 21:45

John Cage / John Cage Shock Vol. 2

Used drive : TSSTcorpDVD+-RW TS-H653G Adapter: 1 ID: 0

Read mode : Secure
Utilize accurate stream : Yes
Defeat audio cache : Yes
Make use of C2 pointers : No

Read offset correction : 6
Overread into Lead-In and Lead-Out : No
Fill up missing offset samples with silence : Yes
Delete leading and trailing silent blocks : No
Null samples used in CRC calculations : Yes
Used interface : Native Win32 interface for Win NT & 2000
Gap handling : Appended to previous track

Used output format : User Defined Encoder
Selected bitrate : 896 kBit/s
Quality : High
Add ID3 tag : No
Command line compressor : C:\Program Files (x86)\Exact Audio Copy\Flac\flac.exe
Additional command line options : -8 -V -T "ARTIST=%artist%" -T "TITLE=%title%" -T "ALBUM=%albumtitle%" -T "DATE=%year%" -T "TRACKNUMBER=%tracknr%" -T "GENRE=%genre%" -T "PERFORMER=%albuminterpret%" -T "COMPOSER=%composer%" %haslyrics%–tag-from-file=LYRICS


TOC of the extracted CD

Track | Start | Length | Start sector | End sector
––––––––––––––––––––––––––––-
1 | 0:00.00 | 19:42.26 | 0 | 88675
2 | 19:42.26 | 22:41.30 | 88676 | 190780


Track 1

Filename C:\EAC Rips\John Cage - John Cage Shock Vol. 2 (2012) [FLAC]\01 - David Tudor - Klavierstück X.wav

Pre-gap length 0:00:02.00

Peak level 99.9 %
Extraction speed 2.3 X
Track quality 100.0 %
Test CRC D1C30E79
Copy CRC D1C30E79
Track not present in AccurateRip database
Copy OK

Track 2

Filename C:\EAC Rips\John Cage - John Cage Shock Vol. 2 (2012) [FLAC]\02 - David Tudor; Toshi Ichiyanagi; Kenji Kobayashi; Yoko Ono - 26'55.988'' for 2 Pianists & a String Player.wav

Pre-gap length 0:00:03.09

Peak level 99.9 %
Extraction speed 2.3 X
Track quality 100.0 %
Test CRC B86ACBC2
Copy CRC B86ACBC2
Track not present in AccurateRip database
Copy OK


None of the tracks are present in the AccurateRip database

No errors occurred

End of status report

==== Log checksum E48A2029DD3ABED2DE2F666669753F119FAB3E83D7D5A5EBCD2C1B68413C1A0E ====

foobar2000 1.2 / Dynamic Range Meter 1.1.1
log date: 2015-09-03 13:41:46

––––––––––––––––––––––––––––––––––––––––
Analyzed: David Tudor; Toshi Ichiyanagi; Kenji Kobayashi; Yoko Ono / John Cage Shock Vol. 2 (1)
David Tudor / John Cage Shock Vol. 2 (2)
––––––––––––––––––––––––––––––––––––––––

DR Peak RMS Duration Track
––––––––––––––––––––––––––––––––––––––––
DR11 0.00 dB -16.22 dB 22:41 02-26'55.988' for 2 Pianists & a String Player
DR12 0.00 dB -17.89 dB 19:42 01-Klavierstück X
––––––––––––––––––––––––––––––––––––––––

Number of tracks: 2
Official DR value: DR11

Samplerate: 44100 Hz
Channels: 2
Bits per sample: 16
Bitrate: 596 kbps
Codec: FLAC
================================================================================

John Cage - John Cage Shock, Vol. 1-3 (2012) 3CD [Re-Up]




John Cage - John Cage Shock, Vol. 1-3 (2012) 3CD [Re-Up]

John Cage - John Cage Shock, Vol. 3 (2012)
EAC | FLAC | Tracks (Cue&Log) ~ 191 Mb | Mp3 (CBR320) ~ 111 Mb | Scans included
Label: EM/Edition Omega Point | # EM1106CD, OP-0010 | Time: 00:39:27


Tracklist:

01. 0'00" (18:12)
Composed & Performed by - John Cage

02. Composition II for 2 Pianos (06:15)
Composed by - Michael von Biel
Performed by - Toshi Ichiyanagi & David Tudor

03. Music for Piano #7 (14:59)
Composed by - Toshi Ichiyanagi
Performed by - Toshi Ichiyanagi & David Tudor

- Recorded at Sogestu Art Center in Aoyama, Tokyo on October 24, 1962


Exact Audio Copy V1.0 beta 2 from 29. April 2011

EAC extraction logfile from 6. September 2012, 22:52

John Cage / John Cage Shock Vol. 3

Used drive : TSSTcorpDVD+-RW TS-H653G Adapter: 1 ID: 0

Read mode : Secure
Utilize accurate stream : Yes
Defeat audio cache : Yes
Make use of C2 pointers : No

Read offset correction : 6
Overread into Lead-In and Lead-Out : No
Fill up missing offset samples with silence : Yes
Delete leading and trailing silent blocks : No
Null samples used in CRC calculations : Yes
Used interface : Native Win32 interface for Win NT & 2000
Gap handling : Appended to previous track

Used output format : User Defined Encoder
Selected bitrate : 896 kBit/s
Quality : High
Add ID3 tag : No
Command line compressor : C:\Program Files (x86)\Exact Audio Copy\Flac\flac.exe
Additional command line options : -8 -V -T "ARTIST=%artist%" -T "TITLE=%title%" -T "ALBUM=%albumtitle%" -T "DATE=%year%" -T "TRACKNUMBER=%tracknr%" -T "GENRE=%genre%" -T "PERFORMER=%albuminterpret%" -T "COMPOSER=%composer%" %haslyrics%–tag-from-file=LYRICS


TOC of the extracted CD

Track | Start | Length | Start sector | End sector
––––––––––––––––––––––––––––-
1 | 0:00.00 | 18:12.24 | 0 | 81923
2 | 18:12.24 | 6:15.26 | 81924 | 110074
3 | 24:27.50 | 14:59.59 | 110075 | 177558


Track 1

Filename C:\EAC Rips\John Cage - John Cage Shock Vol. 3 (2012) [FLAC]\01 - John Cage - 0'00''.wav

Pre-gap length 0:00:02.00

Peak level 99.9 %
Extraction speed 2.2 X
Track quality 100.0 %
Test CRC 7CEF33B0
Copy CRC 7CEF33B0
Track not present in AccurateRip database
Copy OK

Track 2

Filename C:\EAC Rips\John Cage - John Cage Shock Vol. 3 (2012) [FLAC]\02 - Toshi Ichiyanagi; David Tudor - Composition II for 2 Pianos.wav

Pre-gap length 0:00:03.96

Peak level 99.9 %
Extraction speed 2.6 X
Track quality 100.0 %
Test CRC C2BE0F2F
Copy CRC C2BE0F2F
Track not present in AccurateRip database
Copy OK

Track 3

Filename C:\EAC Rips\John Cage - John Cage Shock Vol. 3 (2012) [FLAC]\03 - Toshi Ichiyanagi; David Tudor - Music for Piano #7.wav

Pre-gap length 0:00:03.84

Peak level 99.9 %
Extraction speed 3.1 X
Track quality 100.0 %
Test CRC 2308B471
Copy CRC 2308B471
Track not present in AccurateRip database
Copy OK


None of the tracks are present in the AccurateRip database

No errors occurred

End of status report

==== Log checksum 99849DD651D81B64EA6385AD6DA97680C0E8E2526BEDA2E20614BC9FEE1C0A0C ====

foobar2000 1.2 / Dynamic Range Meter 1.1.1
log date: 2018-03-08 03:04:55

––––––––––––––––––––––––––––––––––––––––
Analyzed: John Cage / John Cage Shock Vol. 3 (1)
Toshi Ichiyanagi; David Tudor / John Cage Shock Vol. 3 (2-3)
––––––––––––––––––––––––––––––––––––––––

DR Peak RMS Duration Track
––––––––––––––––––––––––––––––––––––––––
DR19 0.00 dB -25.43 dB 18:12 01-0'00"
DR18 0.00 dB -24.77 dB 6:15 02-Composition II for 2 Pianos
DR14 0.00 dB -19.76 dB 15:00 03-Music for Piano #7
––––––––––––––––––––––––––––––––––––––––

Number of tracks: 3
Official DR value: DR17

Samplerate: 44100 Hz
Channels: 2
Bits per sample: 16
Bitrate: 622 kbps
Codec: FLAC
================================================================================

John Cage - John Cage Shock, Vol. 1-3 (2012) 3CD [Re-Up]




All thanks to original releaser - meltapple

More interesting music in My Blog