Tags
Language
Tags

John Eliot Gardiner, The English Baroque Soloists - Claudio Monteverdi: L'incoronazione di Poppea (1996)

Posted By: ArlegZ
John Eliot Gardiner, The English Baroque Soloists - Claudio Monteverdi: L'incoronazione di Poppea (1996)

John Eliot Gardiner, The English Baroque Soloists - Claudio Monteverdi: L'incoronazione di Poppea (1996)
EAC | FLAC | Image (Cue & Log) ~ 825 Mb | Total time: 71:36+76:11+43:00 | Scans included
Classical | Label: Archiv Produktion | # 447 088-2 | Recorded: 1993

The central question was always about how much needs to be added to the surviving notes in order to make Poppea viable on stage. Gardiner and his advisers believe that nothing needs adding and that the 'orchestra' played only when explicitly notated in the score and was a very small group.
To some ears this will have a fairly ascetic effect, but it's firmly in line with current scholarly thinking. To compensate, there's a rich group of continuo players who play with wonderful flexibility. And Gardiner's spacious reading of the score bursts with the variety of pace you might expect from a seasoned conductor of early opera. Sylvia McNair is a gloriously sensuous Poppea: from her sleepy first words to the final duet she's always a thoroughly devious character, with her breathy, come-hither tones. Complementing this is Dana Hanchard's angry-brat Nerone, less even in voice than one might hope, but dramatically powerful nevertheless. Whether they quite challenge Helen Donath and Elisabeth Söderström for Harnoncourt is a matter of opinion, but they certainly offer a viable alternative. The strongest performances here, though, come from Michael Chance and Anne Sofie von Otter as Ottone and Ottavia, both of them offering superbly rounded portrayals. Again they face severe challenges from Harnoncourt's unforgettable Paul Esswood and Cathy Berberian, but here the challenge is more equal. Francesco Ellero d'Artegna is perhaps the most vocally skilled Seneca to date. The fact that this was recorded at a public concert is noticeable only occasionally.
— Gramophone Classical Music Guide

Performer:
Poppea - Sylvia McNair
Ottavia - Anne Sofie von Otter
Nerone - Dana Hanchard
Ottone - Michael Chance
Seneca - Francesco Ellero d'Artegna
Drusilla - Catherine Bott
Arnalte - Bernarda Fink
Nutrice - Roberto Balconi
The English Baroque Soloists
Conductor - John Eliot Gardiner

Track List:
CD1:
PROLOGO
01. Sinfonia - Prologue - "Deh, nasconditi, o Virtù" … (Fortuna, Virtù, Amore)
ATTO I
02. E pur'io torno qui, qual linea al centro (Ottone)
03. Chi parla? chi parla? (Soldato I, Ottone, Soldato II)
04. Signor, deh, non partire! (Poppea, Nerone)
05. Speranza, tu mi vai (Poppea, Arnalta)
06. Disprezzata regina (Ottavia)
07. Ottavia, Ottavia! (Nutrice, Ottavia)
08. Ecco la sconsolata (Seneca, Ottavia)
09. Madama, con tua pace (Valletta, Ottavia)
10. Le porpore regali, e imperatrici (Seneca)
11. Seneca, io miro in cielo infausti rai (Pallade, Seneca)
12. Son risoluto insomma (Nerone, Seneca)
13. Come dolci, Signor, come soavi (Poppea, Nerone)
CD2:
01. Ad altri tocca in sorte (Ottone, Poppea)
02. "Infelice garzone!" - "Otton, torna in te stesso" (Arnalta / Ottone)
03. Pur sempre di Poppea (Drusilla, Ottone)
ATTO II
04. Solitudine amata (Seneca, Mercurio)
05. Il comando tiranno (Liberto, Seneca)
06. "Amici, è giunta l'ora" - Non morir, Seneca, no!" - "Supprimete i singulti" (Seneca / Famigliari / Seneca)
07. Sento un certo non so che (Valletto, Damigella)
08. Dunque amor così comincia? (Valletto, Damigella)
09. Or che Seneca è morto (Nerone, Lucano)
10. Son rubini amorosi (Nerone, Lucano)
11. Tu che dagli avi miei (Ottavia, Ottone)
12. "Felice cor mio" - "Nutrice, quanto pagheresti" - "Il Giorno femminil" (Drusilla / Valletto, Nutrice, Drusilla / Nutrice, Valletto)
13. Io non so dov'io vada (Ottone, Drusilla)
14. Or che Seneca è morto (Poppea, Arnalta)
15. Adagiati, Poppea - Oblivion soave (Arnalta)
16. Dorme, l'incauta dorme (Amore)
17. Eccomi trasformato (Ottone)
18. Forsennato, scellerato (Amore, Poppea, Arnalta)
CD3:
ATTO III
01. O felice Drusilla, o che sper'io? (Drusilla)
02. Ecco la scellerata (Arnalta, Littore, Drusilla)
03. Signor, ecco la rea (Arnalta, Nerone, Drusilla)
04. No, no, questa sentenza (Ottone, Drusilla, Nerone, Littore)
05. "Signor, oggi rinasco ai primi fiori" - "Non più s'interporrà noia o dimora" (Poppea, Nerone / Nerone, Poppea)
06. Oggi sarà Poppea (Arnalta)
07. A Dio, Roma! a Dio, patria! amici, a Dio! (Ottavia)
08. "Ascendi, o mia diletta" - "A te, sovrana augusta" (Nerone / Consoli, Tribuni)
09. Scendiam, scendiam (Amore, Coro d'Amori, Venere, Poppea, Nerone)
10. Pur ti miro


Exact Audio Copy V1.3 from 2. September 2016

EAC extraction logfile from 29. October 2018, 21:39

Sylvia McNair, Anne Sofie von Otter, Dana Hanchard, Michael Chance, Francesco Ellero d'Artegna, Catherine Bott, Bernarda Fink, / Monteverdi - L'incoronazione di Poppea (Disc 1)

Used drive : ATAPI iHAS124 F Adapter: 1 ID: 0

Read mode : Secure
Utilize accurate stream : Yes
Defeat audio cache : Yes
Make use of C2 pointers : No

Read offset correction : 6
Overread into Lead-In and Lead-Out : No
Fill up missing offset samples with silence : Yes
Delete leading and trailing silent blocks : No
Null samples used in CRC calculations : Yes
Used interface : Native Win32 interface for Win NT & 2000

Used output format : User Defined Encoder
Selected bitrate : 1024 kBit/s
Quality : High
Add ID3 tag : No
Command line compressor : C:\Program Files (x86)\Exact Audio Copy\FLAC\FLAC.EXE
Additional command line options : -8 -V -T "TITLE=%title%" -T "ARTIST=%artist%" -T "ALBUMARTIST=%albumartist%" -T "ALBUM=%albumtitle%" -T "DATE=%year%" -T "TRACKNUMBER=%tracknr%" -T "TRACKTOTAL=%numtracks%" -T "GENRE=%genre%" -T "COMMENT=%comment%" -T "PERFORMER=%albuminterpret%" -T "COMPOSER=%composer%" %source% -o %dest%

TOC of the extracted CD

Track | Start | Length | Start sector | End sector
––––––––––––––––––––––––––––-
1 | 0:00.32 | 7:07.05 | 32 | 32061
2 | 7:07.37 | 8:23.60 | 32062 | 69846
3 | 15:31.22 | 3:36.10 | 69847 | 86056
4 | 19:07.32 | 9:05.00 | 86057 | 126931
5 | 28:12.32 | 6:45.00 | 126932 | 157306
6 | 34:57.32 | 4:47.18 | 157307 | 178849
7 | 39:44.50 | 7:05.57 | 178850 | 210781
8 | 46:50.32 | 3:06.18 | 210782 | 224749
9 | 49:56.50 | 4:47.07 | 224750 | 246281
10 | 54:43.57 | 1:15.08 | 246282 | 251914
11 | 55:58.65 | 1:43.22 | 251915 | 259661
12 | 57:42.12 | 4:44.15 | 259662 | 280976
13 | 62:26.27 | 9:10.05 | 280977 | 322231

Range status and errors

Selected range

Filename C:\EACRip\Monteverdi - L'incoronazione di Poppea (John Eliot Gardiner) (1996)\CD1\Monteverdi - L'incoronazione di Poppea (Disc 1) - John Eliot Gardiner.wav

Peak level 99.9 %
Extraction speed 1.1 X
Range quality 99.3 %
Test CRC EB23BCB4
Copy CRC EB23BCB4
Copy OK

No errors occurred

AccurateRip summary

Track 1 accurately ripped (confidence 5) [39731747] (AR v2)
Track 2 accurately ripped (confidence 5) [2CC6C30F] (AR v2)
Track 3 accurately ripped (confidence 5) [B9C6CA6F] (AR v2)
Track 4 accurately ripped (confidence 5) [9DEB1194] (AR v2)
Track 5 accurately ripped (confidence 5) [679C7609] (AR v2)
Track 6 accurately ripped (confidence 5) [160A8946] (AR v2)
Track 7 accurately ripped (confidence 5) [89E77390] (AR v2)
Track 8 accurately ripped (confidence 5) [5076107B] (AR v2)
Track 9 accurately ripped (confidence 5) [1242E8B7] (AR v2)
Track 10 accurately ripped (confidence 5) [1ECE8CA8] (AR v2)
Track 11 accurately ripped (confidence 5) [E4791D03] (AR v2)
Track 12 accurately ripped (confidence 5) [B81F1636] (AR v2)
Track 13 accurately ripped (confidence 5) [0E4A3A4A] (AR v2)

All tracks accurately ripped

End of status report

–– CUETools DB Plugin V2.1.6

[CTDB TOCID: xjHFPFbF5SWCoFLsvLTgLvWR9rg-] found
Submit result: xjHFPFbF5SWCoFLsvLTgLvWR9rg- has been confirmed
Track | CTDB Status
1 | (48/49) Accurately ripped
2 | (48/49) Accurately ripped
3 | (48/49) Accurately ripped
4 | (41/49) Accurately ripped
5 | (46/49) Accurately ripped
6 | (46/49) Accurately ripped
7 | (46/49) Accurately ripped
8 | (46/49) Accurately ripped
9 | (46/49) Accurately ripped
10 | (46/49) Accurately ripped
11 | (48/49) Accurately ripped
12 | (48/49) Accurately ripped
13 | (48/49) Accurately ripped

==== Log checksum 7F649E78F4F09AEAC782D541CCE226C66CC3D6455DCA2D2DEAE50E7AF87C3777 ====


Exact Audio Copy V1.3 from 2. September 2016

EAC extraction logfile from 29. October 2018, 22:55

Sylvia McNair, Anne Sofie von Otter, Dana Hanchard, Michael Chance, Francesco Ellero d'Artegna, Catherine Bott, Bernarda Fink, / Monteverdi - L'incoronazione di Poppea (Disc 2)

Used drive : ATAPI iHAS124 F Adapter: 1 ID: 0

Read mode : Secure
Utilize accurate stream : Yes
Defeat audio cache : Yes
Make use of C2 pointers : No

Read offset correction : 6
Overread into Lead-In and Lead-Out : No
Fill up missing offset samples with silence : Yes
Delete leading and trailing silent blocks : No
Null samples used in CRC calculations : Yes
Used interface : Native Win32 interface for Win NT & 2000

Used output format : User Defined Encoder
Selected bitrate : 1024 kBit/s
Quality : High
Add ID3 tag : No
Command line compressor : C:\Program Files (x86)\Exact Audio Copy\FLAC\FLAC.EXE
Additional command line options : -8 -V -T "TITLE=%title%" -T "ARTIST=%artist%" -T "ALBUMARTIST=%albumartist%" -T "ALBUM=%albumtitle%" -T "DATE=%year%" -T "TRACKNUMBER=%tracknr%" -T "TRACKTOTAL=%numtracks%" -T "GENRE=%genre%" -T "COMMENT=%comment%" -T "PERFORMER=%albuminterpret%" -T "COMPOSER=%composer%" %source% -o %dest%

TOC of the extracted CD

Track | Start | Length | Start sector | End sector
––––––––––––––––––––––––––––-
1 | 0:00.32 | 6:17.15 | 32 | 28321
2 | 6:17.47 | 3:13.28 | 28322 | 42824
3 | 9:31.00 | 5:17.32 | 42825 | 66631
4 | 14:48.32 | 5:03.53 | 66632 | 89409
5 | 19:52.10 | 4:10.37 | 89410 | 108196
6 | 24:02.47 | 5:27.60 | 108197 | 132781
7 | 29:30.32 | 2:07.60 | 132782 | 142366
8 | 31:38.17 | 3:49.18 | 142367 | 159559
9 | 35:27.35 | 5:40.72 | 159560 | 185131
10 | 41:08.32 | 3:58.00 | 185132 | 202981
11 | 45:06.32 | 6:01.13 | 202982 | 230069
12 | 51:07.45 | 4:33.62 | 230070 | 250606
13 | 55:41.32 | 5:33.00 | 250607 | 275581
14 | 61:14.32 | 4:19.25 | 275582 | 295031
15 | 65:33.57 | 2:51.10 | 295032 | 307866
16 | 68:24.67 | 2:34.00 | 307867 | 319416
17 | 70:58.67 | 3:15.60 | 319417 | 334101
18 | 74:14.52 | 1:56.55 | 334102 | 342856

Range status and errors

Selected range

Filename C:\EACRip\Monteverdi - L'incoronazione di Poppea (John Eliot Gardiner) (1996)\CD2\Monteverdi - L'incoronazione di Poppea (Disc 2) - John Eliot Gardiner.wav

Peak level 99.9 %
Extraction speed 3.7 X
Range quality 100.0 %
Test CRC 0AB0CC02
Copy CRC 0AB0CC02
Copy OK

No errors occurred

AccurateRip summary

Track 1 accurately ripped (confidence 2) [F375F358] (AR v2)
Track 2 accurately ripped (confidence 2) [6146EE6F] (AR v2)
Track 3 accurately ripped (confidence 2) [D4FD438D] (AR v2)
Track 4 accurately ripped (confidence 2) [584FC386] (AR v2)
Track 5 accurately ripped (confidence 2) [A8A47757] (AR v2)
Track 6 accurately ripped (confidence 2) [FA803304] (AR v2)
Track 7 accurately ripped (confidence 2) [B4ADCD70] (AR v2)
Track 8 accurately ripped (confidence 2) [0E3FE686] (AR v2)
Track 9 accurately ripped (confidence 2) [35203F6B] (AR v2)
Track 10 accurately ripped (confidence 2) [048D8377] (AR v2)
Track 11 accurately ripped (confidence 2) [0D475D53] (AR v2)
Track 12 accurately ripped (confidence 2) [DD6A8128] (AR v2)
Track 13 accurately ripped (confidence 2) [296DF045] (AR v2)
Track 14 accurately ripped (confidence 2) [FAFA6E05] (AR v2)
Track 15 accurately ripped (confidence 2) [CF3A637D] (AR v2)
Track 16 accurately ripped (confidence 2) [E440700B] (AR v2)
Track 17 accurately ripped (confidence 2) [275A6C66] (AR v2)
Track 18 accurately ripped (confidence 2) [FB9A9186] (AR v2)

All tracks accurately ripped

End of status report

–– CUETools DB Plugin V2.1.6

[CTDB TOCID: eMyWvOySyBjqJib2uc9vSMpS8MY-] found
Submit result: eMyWvOySyBjqJib2uc9vSMpS8MY- has been confirmed
Track | CTDB Status
1 | (41/41) Accurately ripped
2 | (41/41) Accurately ripped
3 | (41/41) Accurately ripped
4 | (41/41) Accurately ripped
5 | (41/41) Accurately ripped
6 | (41/41) Accurately ripped
7 | (41/41) Accurately ripped
8 | (41/41) Accurately ripped
9 | (41/41) Accurately ripped
10 | (41/41) Accurately ripped
11 | (41/41) Accurately ripped
12 | (41/41) Accurately ripped
13 | (41/41) Accurately ripped
14 | (41/41) Accurately ripped
15 | (41/41) Accurately ripped
16 | (41/41) Accurately ripped
17 | (41/41) Accurately ripped
18 | (40/41) Accurately ripped

==== Log checksum ADAB739B8F4656CFB7EFF921655F568D4365F6FC8BA33C0A7C9ED7E7461D41DC ====


Exact Audio Copy V1.3 from 2. September 2016

EAC extraction logfile from 29. October 2018, 23:21

Sylvia McNair, Anne Sofie von Otter, Dana Hanchard, Michael Chance, Francesco Ellero d'Artegna, Catherine Bott, Bernarda Fink, / Monteverdi - L'incoronazione di Poppea (Disc 3)

Used drive : ATAPI iHAS124 F Adapter: 1 ID: 0

Read mode : Secure
Utilize accurate stream : Yes
Defeat audio cache : Yes
Make use of C2 pointers : No

Read offset correction : 6
Overread into Lead-In and Lead-Out : No
Fill up missing offset samples with silence : Yes
Delete leading and trailing silent blocks : No
Null samples used in CRC calculations : Yes
Used interface : Native Win32 interface for Win NT & 2000

Used output format : User Defined Encoder
Selected bitrate : 1024 kBit/s
Quality : High
Add ID3 tag : No
Command line compressor : C:\Program Files (x86)\Exact Audio Copy\FLAC\FLAC.EXE
Additional command line options : -8 -V -T "TITLE=%title%" -T "ARTIST=%artist%" -T "ALBUMARTIST=%albumartist%" -T "ALBUM=%albumtitle%" -T "DATE=%year%" -T "TRACKNUMBER=%tracknr%" -T "TRACKTOTAL=%numtracks%" -T "GENRE=%genre%" -T "COMMENT=%comment%" -T "PERFORMER=%albuminterpret%" -T "COMPOSER=%composer%" %source% -o %dest%

TOC of the extracted CD

Track | Start | Length | Start sector | End sector
––––––––––––––––––––––––––––-
1 | 0:00.32 | 1:26.38 | 32 | 6519
2 | 1:26.70 | 1:11.50 | 6520 | 11894
3 | 2:38.45 | 5:38.50 | 11895 | 37294
4 | 8:17.20 | 5:49.12 | 37295 | 63481
5 | 14:06.32 | 5:38.00 | 63482 | 88831
6 | 19:44.32 | 3:01.00 | 88832 | 102406
7 | 22:45.32 | 4:28.00 | 102407 | 122506
8 | 27:13.32 | 3:39.08 | 122507 | 138939
9 | 30:52.40 | 7:56.67 | 138940 | 174706
10 | 38:49.32 | 4:11.00 | 174707 | 193531

Range status and errors

Selected range

Filename C:\EACRip\Monteverdi - L'incoronazione di Poppea (John Eliot Gardiner) (1996)\CD3\Monteverdi - L'incoronazione di Poppea (Disc 3) - John Eliot Gardiner.wav

Peak level 99.9 %
Extraction speed 8.0 X
Range quality 100.0 %
Test CRC 379F8D5E
Copy CRC 379F8D5E
Copy OK

No errors occurred

AccurateRip summary

Track 1 accurately ripped (confidence 2) [7D5727B3] (AR v2)
Track 2 accurately ripped (confidence 2) [79E99EB4] (AR v2)
Track 3 accurately ripped (confidence 2) [3BACFB8B] (AR v2)
Track 4 accurately ripped (confidence 2) [C7FA1F45] (AR v2)
Track 5 accurately ripped (confidence 2) [B36AEE46] (AR v2)
Track 6 accurately ripped (confidence 2) [00624C04] (AR v2)
Track 7 accurately ripped (confidence 2) [0E2DD2DC] (AR v2)
Track 8 accurately ripped (confidence 2) [4AE10540] (AR v2)
Track 9 accurately ripped (confidence 2) [FA400F52] (AR v2)
Track 10 accurately ripped (confidence 2) [195A8530] (AR v2)

All tracks accurately ripped

End of status report

–– CUETools DB Plugin V2.1.6

[CTDB TOCID: B7lFZPjGN_S__VYa4EJVaJPgRhA-] found
Submit result: B7lFZPjGN_S__VYa4EJVaJPgRhA- has been confirmed
Track | CTDB Status
1 | (20/20) Accurately ripped
2 | (20/20) Accurately ripped
3 | (20/20) Accurately ripped
4 | (20/20) Accurately ripped
5 | (20/20) Accurately ripped
6 | (20/20) Accurately ripped
7 | (20/20) Accurately ripped
8 | (20/20) Accurately ripped
9 | (20/20) Accurately ripped
10 | (20/20) Accurately ripped

==== Log checksum CF9F847EF4E17169202981931568A1B4C621D22C61EC6EBE28FB69FD19A6915C ====

John Eliot Gardiner, The English Baroque Soloists - Claudio Monteverdi: L'incoronazione di Poppea (1996)

Thanks to the original releaser