Tags
Language
Tags

John Nelson, English Chamber Orchertra, Ambrosian Opera Chorus - Handel: Semele (1993)

Posted By:
John Nelson, English Chamber Orchertra, Ambrosian Opera Chorus - Handel: Semele (1993)

John Nelson, English Chamber Orchertra, Ambrosian Opera Chorus, Kathleen Battle, Marilyn Horne - Handel: Semele (1993)
EAC | FLAC | Image (Cue & Log) ~ 828 Mb | Total time: 62:08+45:19+67:12 | Scans included
Classical | Label: Deutsche Grammophon ‎| 435 782-2 | Recorded: 1990

This magnificent performance is without a doubt among the top two or three Handel opera recordings in the catalog. John Nelson outdoes even the period instrument competition, conducting with a vitality and freshness that sweeps all before it. Kathleen Battle is a great Semele (if listening to this woman sing "Myself I Will Adore" isn't a classic example of typecasting, then what is?). But the real palm must go to Marilyn Horne as the jealous Juno, who simply stops the show with her two arias (she sings Ino as well). A very great recording.
–David Hurwitz

Performer:
Semele - Kathleen Battle
Ino/Juno - Marilyn Horne
Cadmus/Somnus - Samuel Ramey
Jupiter - John Aler
Athamas - Michael Chance
Apollo - Neil Mackie
Iris - Sylvia McNair
Priest - Mark S.Doss
Ambrosian Opera Chorus
English Chamber Orchertra
Conductor - John Nelson

Track List:
CD1:
01. Ouverture – Gavotte
02. Act I. Behold! auspicious flashes rise!
03. Lucky omens bless our rites
04. Daughter, obey, hear and obey!
05. Ah me! What refuge now is left me? - O Jove! in pity teach me which to choose
06. The morning lark to mine accords his note
07. See, she blushing turns her eyes
08. Hymen, haste, thy torch prepare
09. Alas! she yields, and has undone me
10. Why dost thou thus untimely grieve
11. Avert these omens, all ye pow'rs!
12. Again auspicious flashes rise
13. Thy aid, pronubial Juno, Athmans implores!
14. Cease, cease your vows, 'tis impious to proceed
15. O Athmans, what torture hast thou borne!
16. Turn, hopeless lover, turn thy eyes
17. She weeps!
18. Your tuneful voice my tale would tell
19. Too well I see, thou wilt not understand me
20. You've undone me - With my life I would atone
21. Ah, wretched prince, doom'd to disastrous love!
22. Hail Cadmus, hail!
23. Endless pleasure, endless love
CD2:
01. Act II. Sinfonia
02. Iris, impatient of thy stay
03. There from mortal cares retiring
04. No more - I'll hear no more! - Awake Saturnia from thy lethargy!
05. Hence, Iris, hence away
06. O sleep, why dost thou leave me?
07. Let me not another moment bear the pangs of absence
08. Lay your doubts and fears aside
09. You are mortal and require time to rest
10. With fond desiring
11. How engaging, how endearing
12. Ah me! - Why sighs my Semele?
13. I must with speed amuse her
14. Now Love that everlasting boy invites
15. By my command
16. Where'er you walk
17. Dear sister, how was your passage hither?
18. But hark! the heav'nly sphere turns round
19. Prepare then, ye immortal choir
20. Bless the glad earth with heav'nly lays
CD3:
01. Act III. [Symphony] Larghetto e piano per tutto
02. Somnus, awake, raise thy reclining head!
03. Leave me, loathsome light
04. Dull God, canst thou attend the water's fall
05. More sweet is that name
06. My will obey, she shall be thine
07. Duetto: Obey my will' & 'All I must grant
08. My racking thoughts by no kind slumbers freed
09. Thus shap'd like Ino
10. Behold in this mirror
11. O ecstasy of happiness
12. Myself I shall adore
13. Be wise, as you are beautiful
14. Conjure him by his oath
15. Thus let my thanks be paid
16. Rich odours fill the fragrant air
17. Come to my arms, my lovely fair
18. O Semele! Why art thou thus insensible?; I ever am granting, you always complain
19. Speak, speak your desire
20. By that tremendous flood, I swear
21. You'll grant what I require?'; 'Then cast off this human shape
22. Ah, take heed what you press
23. No, no! I'll take no less
24. Ah! whither is she gone!
25. Above measure is the pleasure, which my revenge supplies
26. Ah me! too late I now repent
27. Of my ill-boding dream
28. Oh, terror and astonishment!
29. How I was hence remov'd
30. Despair no more shall wound me
31. See from above the bellying clouds descend
32. Sinfonia
33. Apollo comes, to relieve your care
34. Happy, happy shall we be


Exact Audio Copy V1.5 from 20. February 2020

EAC extraction logfile from 13. September 2020, 16:20

John Nelson, Ambrosian Opera Chorus & English Chamber Orchestra / Handel - Semele CD1

Used drive : PIONEER DVD-RW DVR-218L Adapter: 1 ID: 0

Read mode : Secure
Utilize accurate stream : Yes
Defeat audio cache : Yes
Make use of C2 pointers : No

Read offset correction : 6
Overread into Lead-In and Lead-Out : No
Fill up missing offset samples with silence : Yes
Delete leading and trailing silent blocks : No
Null samples used in CRC calculations : Yes
Used interface : Native Win32 interface for Win NT & 2000

Used output format : User Defined Encoder
Selected bitrate : 128 kBit/s
Quality : High
Add ID3 tag : No
Command line compressor : C:\Program Files\Exact Audio Copy\Flac\flac.exe
Additional command line options : -V -8 -T "Date=%year%" -T "Genre=%genre%" %source%


TOC of the extracted CD

Track | Start | Length | Start sector | End sector
––––––––––––––––––––––––––––-
1 | 0:00.32 | 9:03.60 | 32 | 40816
2 | 9:04.17 | 1:26.13 | 40817 | 47279
3 | 10:30.30 | 3:07.60 | 47280 | 61364
4 | 13:38.15 | 0:57.67 | 61365 | 65706
5 | 14:36.07 | 2:43.48 | 65707 | 77979
6 | 17:19.55 | 7:04.60 | 77980 | 109839
7 | 24:24.40 | 0:17.57 | 109840 | 111171
8 | 24:42.22 | 4:38.00 | 111172 | 132021
9 | 29:20.22 | 0:48.35 | 132022 | 135656
10 | 30:08.57 | 2:44.60 | 135657 | 148016
11 | 32:53.42 | 1:59.40 | 148017 | 156981
12 | 34:53.07 | 0:38.58 | 156982 | 159889
13 | 35:31.65 | 0:17.32 | 159890 | 161196
14 | 35:49.22 | 0:36.08 | 161197 | 163904
15 | 36:25.30 | 0:29.47 | 163905 | 166126
16 | 36:55.02 | 8:25.40 | 166127 | 204041
17 | 45:20.42 | 0:24.63 | 204042 | 205904
18 | 45:45.30 | 4:55.45 | 205905 | 228074
19 | 50:41.00 | 0:47.12 | 228075 | 231611
20 | 51:28.12 | 2:28.70 | 231612 | 242781
21 | 53:57.07 | 2:07.00 | 242782 | 252306
22 | 56:04.07 | 1:34.13 | 252307 | 259369
23 | 57:38.20 | 4:30.32 | 259370 | 279651


Range status and errors

Selected range

Filename C:\ArlegZ\John Nelson - Handel - Semele CD1.wav

Peak level 98.4 %
Extraction speed 2.0 X
Range quality 99.9 %
Test CRC 9FC1DBA6
Copy CRC 9FC1DBA6
Copy OK

No errors occurred


AccurateRip summary

Track 1 accurately ripped (confidence 6) [407A2F14] (AR v1)
Track 2 accurately ripped (confidence 6) [ED080F76] (AR v1)
Track 3 accurately ripped (confidence 6) [FE796B34] (AR v1)
Track 4 accurately ripped (confidence 6) [97A6B17B] (AR v1)
Track 5 accurately ripped (confidence 6) [188BC673] (AR v1)
Track 6 accurately ripped (confidence 6) [9EFD84B6] (AR v1)
Track 7 accurately ripped (confidence 6) [BAB91746] (AR v1)
Track 8 accurately ripped (confidence 6) [F2C7411B] (AR v1)
Track 9 accurately ripped (confidence 6) [7F32F905] (AR v1)
Track 10 accurately ripped (confidence 6) [C7F472BF] (AR v1)
Track 11 accurately ripped (confidence 6) [68EAB166] (AR v1)
Track 12 accurately ripped (confidence 6) [0FC7AD7C] (AR v1)
Track 13 accurately ripped (confidence 6) [321CD262] (AR v1)
Track 14 accurately ripped (confidence 6) [F8F5615D] (AR v1)
Track 15 accurately ripped (confidence 6) [5F215902] (AR v1)
Track 16 accurately ripped (confidence 6) [26AC89E2] (AR v1)
Track 17 accurately ripped (confidence 6) [584F73CF] (AR v1)
Track 18 accurately ripped (confidence 6) [5CD2F9D4] (AR v1)
Track 19 accurately ripped (confidence 6) [65DA7C66] (AR v1)
Track 20 accurately ripped (confidence 6) [EBCA9A27] (AR v1)
Track 21 accurately ripped (confidence 6) [0BCF63A9] (AR v1)
Track 22 accurately ripped (confidence 6) [3A86B914] (AR v1)
Track 23 accurately ripped (confidence 6) [0B0E7CBC] (AR v1)

All tracks accurately ripped

End of status report

–– CUETools DB Plugin V2.1.6

[CTDB TOCID: ndR4okm47b06s8Ri3CzK7.2MP_g-] found
Submit result: ndR4okm47b06s8Ri3CzK7.2MP_g- has been confirmed
Track | CTDB Status
1 | (4/4) Accurately ripped
2 | (4/4) Accurately ripped
3 | (4/4) Accurately ripped
4 | (4/4) Accurately ripped
5 | (4/4) Accurately ripped
6 | (4/4) Accurately ripped
7 | (4/4) Accurately ripped
8 | (4/4) Accurately ripped
9 | (4/4) Accurately ripped
10 | (4/4) Accurately ripped
11 | (4/4) Accurately ripped
12 | (4/4) Accurately ripped
13 | (4/4) Accurately ripped
14 | (4/4) Accurately ripped
15 | (4/4) Accurately ripped
16 | (4/4) Accurately ripped
17 | (4/4) Accurately ripped
18 | (4/4) Accurately ripped
19 | (4/4) Accurately ripped
20 | (4/4) Accurately ripped
21 | (4/4) Accurately ripped
22 | (4/4) Accurately ripped
23 | (4/4) Accurately ripped


==== Log checksum DA1A5228C5A5A98799BCD1D924881810B5A5BAA5BAEA65C55D1BE788E9FDEC38 ====


Exact Audio Copy V1.5 from 20. February 2020

EAC extraction logfile from 13. September 2020, 17:25

John Nelson, Ambrosian Opera Chorus & English Chamber Orchestra / Handel - Semele CD2

Used drive : PIONEER DVD-RW DVR-218L Adapter: 1 ID: 0

Read mode : Secure
Utilize accurate stream : Yes
Defeat audio cache : Yes
Make use of C2 pointers : No

Read offset correction : 6
Overread into Lead-In and Lead-Out : No
Fill up missing offset samples with silence : Yes
Delete leading and trailing silent blocks : No
Null samples used in CRC calculations : Yes
Used interface : Native Win32 interface for Win NT & 2000

Used output format : User Defined Encoder
Selected bitrate : 128 kBit/s
Quality : High
Add ID3 tag : No
Command line compressor : C:\Program Files\Exact Audio Copy\Flac\flac.exe
Additional command line options : -V -8 -T "Date=%year%" -T "Genre=%genre%" %source%


TOC of the extracted CD

Track | Start | Length | Start sector | End sector
––––––––––––––––––––––––––––-
1 | 0:00.32 | 1:30.40 | 32 | 6821
2 | 1:30.72 | 0:46.03 | 6822 | 10274
3 | 2:17.00 | 3:26.62 | 10275 | 25786
4 | 5:43.62 | 1:55.33 | 25787 | 34444
5 | 7:39.20 | 3:23.27 | 34445 | 49696
6 | 11:02.47 | 3:09.50 | 49697 | 63921
7 | 14:12.22 | 0:16.38 | 63922 | 65159
8 | 14:28.60 | 3:02.20 | 65160 | 78829
9 | 17:31.05 | 0:23.27 | 78830 | 80581
10 | 17:54.32 | 2:53.60 | 80582 | 93616
11 | 20:48.17 | 3:06.25 | 93617 | 107591
12 | 23:54.42 | 1:23.33 | 107592 | 113849
13 | 25:18.00 | 3:44.32 | 113850 | 130681
14 | 29:02.32 | 2:21.23 | 130682 | 141279
15 | 31:23.55 | 1:17.70 | 141280 | 147124
16 | 32:41.50 | 4:53.27 | 147125 | 169126
17 | 37:35.02 | 0:46.13 | 169127 | 172589
18 | 38:21.15 | 2:13.62 | 172590 | 182626
19 | 40:35.02 | 2:01.55 | 182627 | 191756
20 | 42:36.57 | 2:43.05 | 191757 | 203986


Range status and errors

Selected range

Filename C:\ArlegZ\John Nelson - Handel - Semele CD2.wav

Peak level 91.5 %
Extraction speed 1.7 X
Range quality 100.0 %
Test CRC 06151C09
Copy CRC 06151C09
Copy OK

No errors occurred


AccurateRip summary

Track 1 accurately ripped (confidence 2) [FA6A43D0] (AR v2)
Track 2 accurately ripped (confidence 3) [035047CF] (AR v2)
Track 3 accurately ripped (confidence 3) [8BFA89FB] (AR v2)
Track 4 accurately ripped (confidence 3) [27E0959A] (AR v2)
Track 5 accurately ripped (confidence 3) [8C98E842] (AR v2)
Track 6 accurately ripped (confidence 3) [F0606FD5] (AR v2)
Track 7 accurately ripped (confidence 3) [66C03559] (AR v2)
Track 8 accurately ripped (confidence 3) [D160A601] (AR v2)
Track 9 accurately ripped (confidence 3) [1901E4B1] (AR v2)
Track 10 accurately ripped (confidence 3) [EABC5D0A] (AR v2)
Track 11 accurately ripped (confidence 3) [AB2148D0] (AR v2)
Track 12 accurately ripped (confidence 3) [24256535] (AR v2)
Track 13 accurately ripped (confidence 3) [1DBD437A] (AR v2)
Track 14 accurately ripped (confidence 3) [D12762D2] (AR v2)
Track 15 accurately ripped (confidence 3) [E44F7523] (AR v2)
Track 16 accurately ripped (confidence 2) [C5E032B6] (AR v2)
Track 17 accurately ripped (confidence 3) [C3DBB640] (AR v2)
Track 18 accurately ripped (confidence 3) [E3FF5E20] (AR v2)
Track 19 accurately ripped (confidence 3) [80941BF5] (AR v2)
Track 20 accurately ripped (confidence 3) [69CF0196] (AR v2)

All tracks accurately ripped

End of status report

–– CUETools DB Plugin V2.1.6

[CTDB TOCID: S5Gwi4L.vR3UQjtvBleW667lNek-] found
Submit result: S5Gwi4L.vR3UQjtvBleW667lNek- has been confirmed
Track | CTDB Status
1 | (2/2) Accurately ripped
2 | (2/2) Accurately ripped
3 | (2/2) Accurately ripped
4 | (2/2) Accurately ripped
5 | (2/2) Accurately ripped
6 | (2/2) Accurately ripped
7 | (2/2) Accurately ripped
8 | (2/2) Accurately ripped
9 | (2/2) Accurately ripped
10 | (2/2) Accurately ripped
11 | (2/2) Accurately ripped
12 | (2/2) Accurately ripped
13 | (2/2) Accurately ripped
14 | (2/2) Accurately ripped
15 | (2/2) Accurately ripped
16 | (2/2) Accurately ripped
17 | (2/2) Accurately ripped
18 | (2/2) Accurately ripped
19 | (2/2) Accurately ripped
20 | (2/2) Accurately ripped


==== Log checksum 314DEA8CA11B67A95A7A62B0F260B49B67D101536B7336C20CA7831CAFEFF250 ====


Exact Audio Copy V1.5 from 20. February 2020

EAC extraction logfile from 13. September 2020, 20:52

John Nelson, Ambrosian Opera Chorus & English Chamber Orchestra / Handel - Semele CD3

Used drive : PIONEER DVD-RW DVR-218L Adapter: 1 ID: 0

Read mode : Secure
Utilize accurate stream : Yes
Defeat audio cache : Yes
Make use of C2 pointers : No

Read offset correction : 6
Overread into Lead-In and Lead-Out : No
Fill up missing offset samples with silence : Yes
Delete leading and trailing silent blocks : No
Null samples used in CRC calculations : Yes
Used interface : Native Win32 interface for Win NT & 2000

Used output format : User Defined Encoder
Selected bitrate : 128 kBit/s
Quality : High
Add ID3 tag : No
Command line compressor : C:\Program Files\Exact Audio Copy\Flac\flac.exe
Additional command line options : -V -8 -T "Date=%year%" -T "Genre=%genre%" %source%


TOC of the extracted CD

Track | Start | Length | Start sector | End sector
––––––––––––––––––––––––––––-
1 | 0:00.32 | 1:21.45 | 32 | 6151
2 | 1:22.02 | 0:31.10 | 6152 | 8486
3 | 1:53.12 | 3:07.10 | 8487 | 22521
4 | 5:00.22 | 0:40.10 | 22522 | 25531
5 | 5:40.32 | 2:14.25 | 25532 | 35606
6 | 7:54.57 | 1:22.58 | 35607 | 41814
7 | 9:17.40 | 1:52.60 | 41815 | 50274
8 | 11:10.25 | 2:53.25 | 50275 | 63274
9 | 14:03.50 | 1:13.62 | 63275 | 68811
10 | 15:17.37 | 2:40.38 | 68812 | 80849
11 | 17:58.00 | 0:19.05 | 80850 | 82279
12 | 18:17.05 | 6:39.35 | 82280 | 112239
13 | 24:56.40 | 0:37.15 | 112240 | 115029
14 | 25:33.55 | 1:27.50 | 115030 | 121604
15 | 27:01.30 | 2:13.02 | 121605 | 131581
16 | 29:14.32 | 0:31.65 | 131582 | 133971
17 | 29:46.22 | 2:57.58 | 133972 | 147304
18 | 32:44.05 | 1:42.15 | 147305 | 154969
19 | 34:26.20 | 0:14.70 | 154970 | 156089
20 | 34:41.15 | 0:26.60 | 156090 | 158099
21 | 35:08.00 | 0:33.67 | 158100 | 160641
22 | 35:41.67 | 1:11.10 | 160642 | 165976
23 | 36:53.02 | 5:13.45 | 165977 | 189496
24 | 42:06.47 | 3:01.10 | 189497 | 203081
25 | 45:07.57 | 2:21.60 | 203082 | 213716
26 | 47:29.42 | 3:44.15 | 213717 | 230531
27 | 51:13.57 | 0:21.15 | 230532 | 232121
28 | 51:34.72 | 3:55.43 | 232122 | 249789
29 | 55:30.40 | 0:59.70 | 249790 | 254284
30 | 56:30.35 | 5:03.15 | 254285 | 277024
31 | 61:33.50 | 0:17.22 | 277025 | 278321
32 | 61:50.72 | 1:28.48 | 278322 | 284969
33 | 63:19.45 | 0:56.47 | 284970 | 289216
34 | 64:16.17 | 2:56.15 | 289217 | 302431


Range status and errors

Selected range

Filename C:\ArlegZ\John Nelson - Handel - Semele CD3.wav

Peak level 99.9 %
Extraction speed 2.1 X
Range quality 100.0 %
Test CRC 2476AA48
Copy CRC 2476AA48
Copy OK

No errors occurred


AccurateRip summary

Track 1 cannot be verified as accurate (confidence 5) [60E2EE37], AccurateRip returned [E0DB1AC7] (AR v2)
Track 2 cannot be verified as accurate (confidence 5) [66FBD1A6], AccurateRip returned [1D4D44B5] (AR v2)
Track 3 cannot be verified as accurate (confidence 5) [FCA18074], AccurateRip returned [0F1F6667] (AR v2)
Track 4 cannot be verified as accurate (confidence 5) [E4452F71], AccurateRip returned [EE48696E] (AR v2)
Track 5 cannot be verified as accurate (confidence 5) [9AE0D742], AccurateRip returned [4FD213C8] (AR v2)
Track 6 cannot be verified as accurate (confidence 5) [0AEB97A3], AccurateRip returned [1903F076] (AR v2)
Track 7 cannot be verified as accurate (confidence 5) [CDB7D3EA], AccurateRip returned [E82AD999] (AR v2)
Track 8 cannot be verified as accurate (confidence 5) [DB340859], AccurateRip returned [E605B681] (AR v2)
Track 9 cannot be verified as accurate (confidence 5) [4C71C687], AccurateRip returned [CF95CEE7] (AR v2)
Track 10 cannot be verified as accurate (confidence 5) [596632F7], AccurateRip returned [CA71EB0A] (AR v2)
Track 11 cannot be verified as accurate (confidence 5) [2F0C5F88], AccurateRip returned [A51055CF] (AR v2)
Track 12 cannot be verified as accurate (confidence 5) [4A3CE9CA], AccurateRip returned [CCADC919] (AR v2)
Track 13 cannot be verified as accurate (confidence 5) [2EF3DC7D], AccurateRip returned [ED68C80B] (AR v2)
Track 14 cannot be verified as accurate (confidence 5) [F91E096E], AccurateRip returned [E4B6BDFE] (AR v2)
Track 15 cannot be verified as accurate (confidence 4) [26DCB0E6], AccurateRip returned [568FFDC6] (AR v2)
Track 16 cannot be verified as accurate (confidence 5) [3223EBF3], AccurateRip returned [344F9D05] (AR v2)
Track 17 cannot be verified as accurate (confidence 5) [2472361B], AccurateRip returned [3CBEBA54] (AR v2)
Track 18 cannot be verified as accurate (confidence 5) [052B795C], AccurateRip returned [A4886F3B] (AR v2)
Track 19 cannot be verified as accurate (confidence 5) [92B69774], AccurateRip returned [5D0ED0CB] (AR v2)
Track 20 cannot be verified as accurate (confidence 5) [8E524B78], AccurateRip returned [32DB49D1] (AR v2)
Track 21 cannot be verified as accurate (confidence 5) [7AD51395], AccurateRip returned [51596D61] (AR v2)
Track 22 cannot be verified as accurate (confidence 5) [B4F29671], AccurateRip returned [C68C87FE] (AR v2)
Track 23 cannot be verified as accurate (confidence 5) [A60D49ED], AccurateRip returned [215EFE01] (AR v2)
Track 24 cannot be verified as accurate (confidence 5) [FE6AF006], AccurateRip returned [5CABE029] (AR v2)
Track 25 cannot be verified as accurate (confidence 5) [6137C293], AccurateRip returned [8F74A960] (AR v2)
Track 26 cannot be verified as accurate (confidence 5) [E0C00FBE], AccurateRip returned [14CF5A29] (AR v2)
Track 27 cannot be verified as accurate (confidence 5) [340D2ED4], AccurateRip returned [252F10CC] (AR v2)
Track 28 cannot be verified as accurate (confidence 4) [76EF8BEC], AccurateRip returned [077CA837] (AR v2)
Track 29 cannot be verified as accurate (confidence 5) [1E2FE862], AccurateRip returned [018287F2] (AR v2)
Track 30 cannot be verified as accurate (confidence 5) [0ECBCFA7], AccurateRip returned [3DD5EEBD] (AR v2)
Track 31 cannot be verified as accurate (confidence 5) [49B5D8AD], AccurateRip returned [310D4E06] (AR v2)
Track 32 cannot be verified as accurate (confidence 5) [F5967AB5], AccurateRip returned [2916F82E] (AR v2)
Track 33 cannot be verified as accurate (confidence 5) [C157B593], AccurateRip returned [DDA927A4] (AR v2)
Track 34 cannot be verified as accurate (confidence 5) [C0A2AE50], AccurateRip returned [B941C258] (AR v2)

No tracks could be verified as accurate
You may have a different pressing from the one(s) in the database

End of status report

–– CUETools DB Plugin V2.1.6

[CTDB TOCID: 1ZOglhqR7n.ZA9uH9dYaqLEO_2g-] found
Submit result: 1ZOglhqR7n.ZA9uH9dYaqLEO_2g- has been confirmed
Track | CTDB Status
1 | (3/3) Accurately ripped
2 | (3/3) Accurately ripped
3 | (3/3) Accurately ripped
4 | (3/3) Accurately ripped
5 | (3/3) Accurately ripped
6 | (3/3) Accurately ripped
7 | (3/3) Accurately ripped
8 | (3/3) Accurately ripped
9 | (3/3) Accurately ripped
10 | (3/3) Accurately ripped
11 | (3/3) Accurately ripped
12 | (3/3) Accurately ripped
13 | (3/3) Accurately ripped
14 | (3/3) Accurately ripped
15 | (3/3) Accurately ripped
16 | (3/3) Accurately ripped
17 | (3/3) Accurately ripped
18 | (3/3) Accurately ripped
19 | (3/3) Accurately ripped
20 | (3/3) Accurately ripped
21 | (3/3) Accurately ripped
22 | (3/3) Accurately ripped
23 | (3/3) Accurately ripped
24 | (3/3) Accurately ripped
25 | (3/3) Accurately ripped
26 | (3/3) Accurately ripped
27 | (3/3) Accurately ripped
28 | (3/3) Accurately ripped
29 | (3/3) Accurately ripped
30 | (3/3) Accurately ripped
31 | (3/3) Accurately ripped
32 | (3/3) Accurately ripped
33 | (3/3) Accurately ripped
34 | (3/3) Accurately ripped


==== Log checksum D219ED858A20828A57F3EDF139F0E7F0822B942380B04F4F4763415892985F7D ====

John Nelson, English Chamber Orchertra, Ambrosian Opera Chorus - Handel: Semele (1993)