Tags
Language
Tags

John Wilson, Sinfonia of London - Escales: Chabrier, Duruflé, Saint-Saëns, Debussy, Ibert, Massenet, Ravel (2020)

Posted By: ArlegZ
John Wilson, Sinfonia of London - Escales: Chabrier, Duruflé, Saint-Saëns, Debussy, Ibert, Massenet, Ravel (2020)

John Wilson, Sinfonia of London - Escales: Chabrier, Duruflé, Saint-Saëns, Debussy, Ibert, Massenet, Ravel (2020)
EAC | FLAC | Image (Cue & Log) ~ 307 Mb | Total time: 79:05 | Scans included
Classical | Label: Naxos | # CHSA 5252 | Recorded: 2019

John Wilson and Sinfonia of London release their second album, following widespread and universal critical acclaim for their first recording, of Korngold’s Symphony in F sharp. This new recording explores the unique sound world of French orchestral music of the late nineteenth and early twentieth centuries. The programme juxtaposes well-known favourites, such as Debussy’s Prélude à l’après-midi d’un faune, Massenet’s ‘Méditation’ from Thaïs, with pieces far more rarely heard, for example Duruflé’s Trois Danses and Saint-Saëns’s Le Rouet d’Omphale. Many of these works evoke the ‘exoticism’ of Spain or North Africa (as was the fashion in French music of this era), and all share the intricate, detailed orchestration that defines the ‘Impressionist’ style. John Wilson and Sinfonia of London capture the mood and spirit of these pieces with consummate skill and outstanding musicianship. Originally formed in 1955, Sinfonia of London was re-established in 2018 by the British conductor John Wilson to devote itself, at least initially, to recording projects, of which this is the second album.

Performer:
Sinfonia of London
John Wilson, conductor

Track List:
Emmanuel Chabrier (1841 – 1894)
01. España (1883)
Maurice Duruflé (1902 – 1986)
Trois Danses, Op. 6 (1932)
02. No. 1. Divertissement
03. No. 2. Danse lente
04. No. 3. Tambourin
Camille Saint-Saëns (1835 – 1921)
05. Le Rouet d’Omphale, Op. 31 (1871)
Achille-Claude Debussy (1862 – 1918)
06. Prélude à l’après-midi d’un faune (1891–94)
Jacques Ibert (1890 – 1962)
Escales… (1922)
07. No. 1. Palermo
08. No. 2. Nefta
09. No. 3. Valencia
Jules Massenet (1842 – 1912)
10. Méditation from ‘Thaïs’ (1894)
Maurice Ravel (1875 – 1937)
Rapsodie espagnole (1907–08)
11. I. Prélude à la nuit
12. II. Malagueña
13. III. Habanera
14. IV. Feria


Exact Audio Copy V1.5 from 20. February 2020

EAC extraction logfile from 28. June 2021, 22:37

Sinfonia of London, John Wilson / Escales

Used drive : ASUS SDRW-08U7M-U Adapter: 1 ID: 0

Read mode : Secure
Utilize accurate stream : Yes
Defeat audio cache : Yes
Make use of C2 pointers : No

Read offset correction : 6
Overread into Lead-In and Lead-Out : No
Fill up missing offset samples with silence : Yes
Delete leading and trailing silent blocks : No
Null samples used in CRC calculations : Yes
Used interface : Native Win32 interface for Win NT & 2000

Used output format : User Defined Encoder
Selected bitrate : 128 kBit/s
Quality : High
Add ID3 tag : No
Command line compressor : C:\Program Files (x86)\Exact Audio Copy\Flac\flac.exe
Additional command line options : -V -8 -T "Date=%year%" -T "Genre=%genre%" %source%


TOC of the extracted CD

Track | Start | Length | Start sector | End sector
––––––––––––––––––––––––––––-
1 | 0:00.00 | 6:09.10 | 0 | 27684
2 | 6:09.10 | 7:16.10 | 27685 | 60394
3 | 13:25.20 | 8:46.55 | 60395 | 99899
4 | 22:12.00 | 5:19.00 | 99900 | 123824
5 | 27:31.00 | 7:34.20 | 123825 | 157894
6 | 35:05.20 | 9:20.55 | 157895 | 199949
7 | 44:26.00 | 6:13.10 | 199950 | 227934
8 | 50:39.10 | 2:34.10 | 227935 | 239494
9 | 53:13.20 | 5:34.40 | 239495 | 264584
10 | 58:47.60 | 5:42.65 | 264585 | 290299
11 | 64:30.50 | 3:58.45 | 290300 | 308194
12 | 68:29.20 | 2:03.40 | 308195 | 317459
13 | 70:32.60 | 2:38.55 | 317460 | 329364
14 | 73:11.40 | 5:55.35 | 329365 | 356024


Range status and errors

Selected range

Filename C:\temp\CHSA_05252 - Escales - Sinfonia of London, John Wilson - 2020\Escales.wav

Peak level 98.7 %
Extraction speed 5.4 X
Range quality 100.0 %
Test CRC E7269B07
Copy CRC E7269B07
Copy OK

No errors occurred


AccurateRip summary

Track 1 accurately ripped (confidence 3) [0EC56FE7] (AR v2)
Track 2 accurately ripped (confidence 3) [BAFC3943] (AR v2)
Track 3 accurately ripped (confidence 3) [01A59483] (AR v2)
Track 4 accurately ripped (confidence 3) [F9791008] (AR v2)
Track 5 accurately ripped (confidence 3) [32B7CD84] (AR v2)
Track 6 cannot be verified as accurate (confidence 2) [0EEF53AA], AccurateRip returned [D9C71CBB] (AR v2)
Track 7 cannot be verified as accurate (confidence 2) [86462E07], AccurateRip returned [F409C9DC] (AR v2)
Track 8 cannot be verified as accurate (confidence 2) [5DA2D2AC], AccurateRip returned [18A5AF11] (AR v2)
Track 9 cannot be verified as accurate (confidence 2) [A83E8220], AccurateRip returned [6D994046] (AR v2)
Track 10 cannot be verified as accurate (confidence 2) [42B128C4], AccurateRip returned [09C3F0C0] (AR v2)
Track 11 cannot be verified as accurate (confidence 2) [5CBD9B03], AccurateRip returned [E06C65EC] (AR v2)
Track 12 cannot be verified as accurate (confidence 2) [CBD35ECF], AccurateRip returned [F0A79B4D] (AR v2)
Track 13 cannot be verified as accurate (confidence 2) [3303998C], AccurateRip returned [5BBAC81C] (AR v2)
Track 14 cannot be verified as accurate (confidence 2) [3BF27CD6], AccurateRip returned [EA4C5926] (AR v2)

5 track(s) accurately ripped
9 track(s) could not be verified as accurate

Some tracks could not be verified as accurate

End of status report

==== Log checksum 52C31CAA2B47CA3DF67092B286BB4ABD6D8476954E8583C2E23DD43DE90CE611 ====

John Wilson, Sinfonia of London - Escales: Chabrier, Duruflé, Saint-Saëns, Debussy, Ibert, Massenet, Ravel (2020)

Thanks to the original releaser