Tags
Language
Tags

John Zorn - Nostradamus: The Death of Satan (2021) {Tzadik}

Posted By: tiburon
John Zorn - Nostradamus: The Death of Satan (2021) {Tzadik}

John Zorn - Nostradamus: The Death of Satan (2021) {Tzadik}
WEB | FLAC tracks | Front | 249MB + 5% Recovery
MP3 CBR 320 Kbps | 96MB + 5% Recovery
Genre: Avant-Garde Jazz

Nostradamus: The Death of Satan, the ninth release by Zorn’s most intense 21st century ensemble, is a triumph. In this wildly varied program ranging from the softest sacred whisper to the most heretical hysteria, Zorn brings his unique compositional blending of classical, jazz and rock to new heights. The Simulacrum band is tighter than ever and the recording is richer and more powerful. With a stunning clarity of sound, brilliance of performance and towering compositional vision, Nostradamus is Zorn at his very best.
Track List
1. Melmoth (4:37)
2. Flowers of Heaven (5:43)
3. Seven Spirits (2:33)
4. The Watchers (4:58)
5. Hail Holy Light (2:07)
6. The Stygian Pool (4:09)
7. From the Cave of Treasures (5:40)
8. Dark Angels (2:43)
9. A Mantic Stain (5:18)
10. Chaos and Eternal Light (3:53)

All music composed and conducted by John Zorn

musicians
John Medeski - Organ
Matt Hollenberg - Guitar
Kenny Grohowski - Drums

Produced by John Zorn


AUDIOCHECKER v2.0 beta (build 457) - by Dester - opdester@freemail.hu
~~~~~~~~~~~~~~~~~~~~~~~~~~~~~~~~~~
-=== DO NOT EDIT THIS FILE! ===-

Path: …\John Zorn - Nostradamus - The Death of Satan (2021) [FLAC]

01 -=- 01 Melmoth.flac -=- CDDA (100%)
02 -=- 02 Flowers Of Heaven.flac -=- CDDA (100%)
03 -=- 03 Seven Spirits.flac -=- CDDA (100%)
04 -=- 04 The Watchers.flac -=- MPEG (73%)
05 -=- 05 Hail Holy Light.flac -=- CDDA (100%)
06 -=- 06 The Stygian Pool.flac -=- CDDA (100%)
07 -=- 07 From The Cave Of Treasures.flac -=- CDDA (100%)
08 -=- 08 Dark Angels.flac -=- CDDA (100%)
09 -=- 09 A Mantic Stain.flac -=- CDDA (100%)
10 -=- 10 Chaos And Eternal Light.flac -=- CDDA (100%)

Summary 92,70% CDDA

99591108


foobar2000 1.3.13 / Dynamic Range Meter 1.1.1
log date: 2021-08-29 14:11:35

––––––––––––––––––––––––––––––––––––––––
Analyzed: John Zorn / Nostradamus: The Death Of Satan
––––––––––––––––––––––––––––––––––––––––

DR Peak RMS Duration Track
––––––––––––––––––––––––––––––––––––––––
DR8 -0.14 dB -10.76 dB 4:37 01-Melmoth
DR11 -0.44 dB -14.15 dB 5:43 02-Flowers Of Heaven
DR8 -0.23 dB -10.11 dB 2:33 03-Seven Spirits
DR11 -0.30 dB -13.24 dB 4:58 04-The Watchers
DR10 -0.94 dB -15.01 dB 2:07 05-Hail Holy Light
DR8 -0.24 dB -9.76 dB 4:09 06-The Stygian Pool
DR9 -0.09 dB -13.02 dB 5:40 07-From The Cave Of Treasures
DR11 -0.80 dB -16.04 dB 2:43 08-Dark Angels
DR9 -0.16 dB -11.73 dB 5:18 09-A Mantic Stain
DR8 -0.54 dB -10.07 dB 3:53 10-Chaos And Eternal Light
––––––––––––––––––––––––––––––––––––––––

Number of tracks: 10
Official DR value: DR9

Samplerate: 44100 Hz
Channels: 2
Bits per sample: 16
Bitrate: 803 kbps
Codec: FLAC
================================================================================