Subcategories

Jonathan Butler - Do You Love Me? (1997)

Posted By: Designol
Jonathan Butler - Do You Love Me? (1997)

Jonathan Butler - Do You Love Me? (1997)
EAC | FLAC | Tracks (Cue&Log) ~ 352 Mb | Mp3 (CBR320) ~ 139 Mb | Scans included | 00:52:58
Smooth Jazz, Crossover Jazz, Guitar Jazz, Soul, R&B | Label: N2K Encoded | # N2K-10005

On Jonathan Butler's N2K Encoded Music debut, Do You Love Me, he continues his jack-of-two-trades approach, balancing R&B-based vocal tunes with easy, acoustic guitar-based instrumentals. While it's a friendly enough listen, Butler here doesn't display a powerful enough mastery of either format. His guttural, heartfelt vocal style – reminiscent of Jon Secada – can make even the most Lionel Richie-esque lyric seem deeper than it is (even a new song with a title like "The Way You Look Tonight"), but few of the adult-oriented vocal tunes here are as memorable or hooky as his best-known hit, "Sarah Sarah." "Do You Love Me?," for instance, should be a deep, emotional moment, but comes off as a pleasant, easily dismissed conversation. Fortunately, "You Don't Belong to Me" has more lyrical bite, nicely underscored with a percussive guitar line underneath his angry tone. Butler should put more of that pointed energy into his play-it-safe instrumentals, which generally gallop along smoothly without building much steam. The best one can do with this sort of album is like Butler a lot.

Review by Jonathan Widran, Allmusic.com

Jonathan Butler - Do You Love Me? (1997)



Tracklist:

01. Song for Elizabeth (4:11)
02. Do You Love Me? (4:35)
03. The Other Side of the World (4:34)
04. Life After You (4:43)
05. New Life (4:05)
06. Dancing on the Shore (4:16)
07. You Don't Belong To Me (4:30)
08. The Way You Look Tonight (3:55)
09. Amen (4:19)
10. A Kiss (4:01)
11. Lost to Love (5:26)
12. My Only Joy (4:23)


Exact Audio Copy V1.0 beta 2 from 29. April 2011

Отчёт EAC об извлечении, выполненном 8. апреля 2017, 21:54

Jonathan Butler / Do You Love Me?

Дисковод: PLEXTOR BDDVDRPX-B330SA Adapter: 0 ID: 1

Режим чтения : Достоверность
Использование точного потока : Да
Отключение кэша аудио : Да
Использование указателей C2 : Нет

Коррекция смещения при чтении : 702
Способность читать области Lead-in и Lead-out : Нет
Заполнение пропущенных сэмплов тишиной : Да
Удаление блоков с тишиной в начале и конце : Нет
При вычислениях CRC использовались нулевые сэмплы : Да
Интерфейс : Встроенный Win32-интерфейс для Win NT/2000
Обработка зазоров : Добавлено к предыдущему треку

Выходной формат : Пользовательский кодировщик
Выбранный битрейт : 128 kBit/s
Качество : Высокий
Добавление ID3-тега : Нет
Утилита сжатия : C:\Program Files\Exact Audio Copy\FLAC\FLAC.EXE
Дополнительные параметры : -6 -V -T "ARTIST=%artist%" -T "TITLE=%title%" -T "ALBUM=%albumtitle%" -T "DATE=%year%" -T "TRACKNUMBER=%tracknr%" -T "GENRE=%genre%" -T "COMMENT=%comment%" -T "BAND=%albuminterpret%" -T "COMPOSER=%composer%" %haslyrics%–tag-from-


TOC извлечённого CD

Трек | Старт | Длительность | Начальный сектор | Конечный сектор
––––––––––––––––––––––––––––––––––-
1 | 0:00.00 | 4:10.50 | 0 | 18799
2 | 4:10.50 | 4:34.45 | 18800 | 39394
3 | 8:45.20 | 4:33.55 | 39395 | 59924
4 | 13:19.00 | 4:43.17 | 59925 | 81166
5 | 18:02.17 | 4:05.03 | 81167 | 99544
6 | 22:07.20 | 4:16.34 | 99545 | 118778
7 | 26:23.54 | 4:29.56 | 118779 | 139009
8 | 30:53.35 | 3:54.60 | 139010 | 156619
9 | 34:48.20 | 4:18.67 | 156620 | 176036
10 | 39:07.12 | 4:01.25 | 176037 | 194136
11 | 43:08.37 | 5:26.25 | 194137 | 218611
12 | 48:34.62 | 4:23.30 | 218612 | 238366


Трек 1

Имя файла D:\FLAC\01 Song for Elizabeth.wav

Длина предзазора 0:00:02.00

Пиковый уровень 96.1 %
Скорость извлечения 1.5 X
Качество трека 99.9 %
CRC теста 305E1EB0
CRC копии 305E1EB0
Точное извлечение (достоверность 18) [1B03708D] (AR v2)
Копирование… OK

Трек 2

Имя файла D:\FLAC\02 Do You Love Me.wav

Пиковый уровень 96.6 %
Скорость извлечения 2.0 X
Качество трека 100.0 %
CRC теста A39C93B3
CRC копии A39C93B3
Точное извлечение (достоверность 20) [382DD6F0] (AR v2)
Копирование… OK

Трек 3

Имя файла D:\FLAC\03 The Other Side of the World.wav

Пиковый уровень 96.6 %
Скорость извлечения 2.2 X
Качество трека 100.0 %
CRC теста 94F4F1B1
CRC копии 94F4F1B1
Точное извлечение (достоверность 19) [F4B3C17A] (AR v2)
Копирование… OK

Трек 4

Имя файла D:\FLAC\04 Life After You.wav

Длина предзазора 0:00:01.23

Пиковый уровень 96.6 %
Скорость извлечения 2.4 X
Качество трека 100.0 %
CRC теста D84BC9B7
CRC копии D84BC9B7
Точное извлечение (достоверность 20) [270E4E0F] (AR v2)
Копирование… OK

Трек 5

Имя файла D:\FLAC\05 New Life.wav

Пиковый уровень 96.6 %
Скорость извлечения 2.2 X
Качество трека 99.9 %
CRC теста 3D40FE65
CRC копии 3D40FE65
Точное извлечение (достоверность 19) [18E14E8F] (AR v2)
Копирование… OK

Трек 6

Имя файла D:\FLAC\06 Dancing on the Shore.wav

Пиковый уровень 96.6 %
Скорость извлечения 2.7 X
Качество трека 100.0 %
CRC теста A1CEF69E
CRC копии A1CEF69E
Точное извлечение (достоверность 19) [6F9A09BE] (AR v2)
Копирование… OK

Трек 7

Имя файла D:\FLAC\07 You Don't Belong To Me.wav

Пиковый уровень 96.6 %
Скорость извлечения 2.8 X
Качество трека 100.0 %
CRC теста D7BA43C7
CRC копии D7BA43C7
Точное извлечение (достоверность 19) [FD9A9B07] (AR v2)
Копирование… OK

Трек 8

Имя файла D:\FLAC\08 The Way You Look Tonight.wav

Пиковый уровень 96.4 %
Скорость извлечения 2.9 X
Качество трека 100.0 %
CRC теста 1912DC27
CRC копии 1912DC27
Точное извлечение (достоверность 20) [A310D805] (AR v2)
Копирование… OK

Трек 9

Имя файла D:\FLAC\09 Amen.wav

Пиковый уровень 96.6 %
Скорость извлечения 3.0 X
Качество трека 100.0 %
CRC теста EA095619
CRC копии EA095619
Точное извлечение (достоверность 19) [47ECC66A] (AR v2)
Копирование… OK

Трек 10

Имя файла D:\FLAC\10 A Kiss.wav

Пиковый уровень 96.6 %
Скорость извлечения 2.6 X
Качество трека 99.9 %
CRC теста 10E3D923
CRC копии 10E3D923
Точное извлечение (достоверность 19) [3F9B4877] (AR v2)
Копирование… OK

Трек 11

Имя файла D:\FLAC\11 Lost to Love.wav

Пиковый уровень 96.6 %
Скорость извлечения 3.1 X
Качество трека 99.9 %
CRC теста E404694F
CRC копии E404694F
Точное извлечение (достоверность 19) [09CBF4F8] (AR v2)
Копирование… OK

Трек 12

Имя файла D:\FLAC\12 My Only Joy.wav

Длина предзазора 0:00:01.47

Пиковый уровень 96.6 %
Скорость извлечения 2.1 X
Качество трека 100.0 %
CRC теста F506FA75
CRC копии F506FA75
Точное извлечение (достоверность 19) [6C5D5602] (AR v2)
Копирование… OK


Все треки извлечены точно

Ошибок не произошло

Конец отчёта

–– CUETools DB Plugin V2.1.4

[CTDB TOCID: cHMzvxfGhbs4mMueZm720EXzYCI-] found
Submit result: cHMzvxfGhbs4mMueZm720EXzYCI- has been confirmed
Track | CTDB Status
1 | (23/23) Accurately ripped
2 | (23/23) Accurately ripped
3 | (23/23) Accurately ripped
4 | (23/23) Accurately ripped
5 | (23/23) Accurately ripped
6 | (23/23) Accurately ripped
7 | (23/23) Accurately ripped
8 | (23/23) Accurately ripped
9 | (23/23) Accurately ripped
10 | (23/23) Accurately ripped
11 | (23/23) Accurately ripped
12 | (23/23) Accurately ripped


==== Контрольная сумма отчёта EA598DCBCD39354CABFE818C5A61CB4CD6DEBD0408640251F45ED12453C73F93 ====

foobar2000 1.2 / Dynamic Range Meter 1.1.1
log date: 2017-04-10 17:30:24

––––––––––––––––––––––––––––––––––––––––
Analyzed: Jonathan Butler / Do You Love Me?
––––––––––––––––––––––––––––––––––––––––

DR Peak RMS Duration Track
––––––––––––––––––––––––––––––––––––––––
DR10 -0.34 dB -11.82 dB 4:11 01-Song for Elizabeth
DR8 -0.30 dB -10.73 dB 4:35 02-Do You Love Me?
DR9 -0.30 dB -11.95 dB 4:34 03-The Other Side of the World
DR10 -0.30 dB -12.40 dB 4:43 04-Life After You
DR10 -0.30 dB -12.39 dB 4:05 05-New Life
DR10 -0.30 dB -12.76 dB 4:16 06-Dancing on the Shore
DR12 -0.30 dB -14.28 dB 4:30 07-You Don't Belong To Me
DR12 -0.32 dB -14.38 dB 3:55 08-The Way You Look Tonight
DR11 -0.30 dB -13.85 dB 4:19 09-Amen
DR9 -0.30 dB -12.57 dB 4:01 10-A Kiss
DR8 -0.30 dB -10.60 dB 5:26 11-Lost to Love
DR9 -0.30 dB -11.80 dB 4:23 12-My Only Joy
––––––––––––––––––––––––––––––––––––––––

Number of tracks: 12
Official DR value: DR10

Samplerate: 44100 Hz
Channels: 2
Bits per sample: 16
Bitrate: 867 kbps
Codec: FLAC
================================================================================

Jonathan Butler - Do You Love Me? (1997)

Jonathan Butler - Do You Love Me? (1997)

All thanks to original releaser - teimuraz67

More interesting music in My Blog