Tags
Language
Tags

Joni Mitchell & James Taylor - Close Your Eyes (1991) [Unofficial Release]

Posted By: Designol
Joni Mitchell & James Taylor - Close Your Eyes (1991) [Unofficial Release]

Joni Mitchell & James Taylor - Close Your Eyes (1991) [Unofficial Release]
EAC | FLAC | Image (Cue&Log) ~ 314 Mb | Mp3 (CBR320) ~ 152 Mb | Scans included | 00:51:23
Singer-Songwriter, Folk, Folk-Rock | Label: Not On Label | # MK 42520

~ Recorded at the Paris Theatre on October 29th, 1970 for BBC Radio 1's 'In Concert' series hosted by John Peel.

From 2007 issue 'The Circle Game' [Woodstock Tapes, WT 5110]

Joni Mitchell at her very peak, the simpler arrangements make some of the material here that subsequently appeared on 'Blue' even more potent to these ears. Great great music, sublimely performed.

However, earlier reviewers with Albert Hall ticket stubs face a minor let-down since this recording was no more recorded at the Albert Hall than Dylan's infamous '66 bootleg. In fact it was recorded by the BBC earlier in the year in the far more intimate setting of the Paris Theatre on London's Regent Street, and broadcast as an hour-long John Peel 'In Concert' special on Radio 1. The BBC also filmed the performance and later broadcast an edited version of that (there are plenty of clips to be found on YouTube, just note the very cheesy set).

The bootleg history becomes even more muddied because James Taylor later recorded a separate 'In Concert' session, and over the years the two performances have been repeatedly cut together by bootleggers with different track choices all supposedly from the Royal Albert Hall.

Like so many recently issued live recordings from this era, this CD appears to be scarcely more legitimate than the bootlegs from which it has been sourced, exploitative of the artists and European copyright legislation in equal measure. But the original BBC recording (and FM broadcast) was of exceptional quality, more than good enough to withstand the inevitable audio deterioration that results from repeated analogue copying of off-air tapes. Assuming you haven't long since downloaded this easily available material, and you're not uncomfortable buying some sort of glorified bootleg, you'll certainly want this. I was fortunate enough to be in the audience for both the Paris Theatre and the later Royal Albert Hall performances and take it from me, this was the better of the two.

Review by Stephen Cooper, Amazon.co.uk

Joni Mitchell & James Taylor - Close Your Eyes (1991) [Unofficial Release]

Joni Mitchell & James Taylor - Close Your Eyes (1991) [Unofficial Release]



Tracklist:

01. Song About The Midway (5:49)
02. Gallery (4:23)
03. Rainy Day Man (3:48)
04. Steam Roller (3:07)
05. Priest (5:47)
06. Carey (2:52)
07. Carolina On My Mind (3:58)
08. California (5:12)
09. He Played Real Good For Free (6:02)
10. The Circle Game (7:54)
11. You Can Close Your Eyes (2:30)


Exact Audio Copy V1.0 beta 3 from 29. August 2011

Отчёт EAC об извлечении, выполненном 15. апреля 2012, 13:14

Joni Mitchell & James Taylor / Close Your Eyes

Дисковод: Optiarc DVD RW AD-7203A Adapter: 0 ID: 0

Режим чтения : Достоверность
Использование точного потока : Да
Отключение кэша аудио : Да
Использование указателей C2 : Нет

Коррекция смещения при чтении : 48
Способность читать области Lead-in и Lead-out : Нет
Заполнение пропущенных сэмплов тишиной : Да
Удаление блоков с тишиной в начале и конце : Нет
При вычислениях CRC использовались нулевые сэмплы : Да
Интерфейс : Установленный внешний ASPI-интерфейс

Выходной формат : Пользовательский кодировщик
Выбранный битрейт : 1024 kBit/s
Качество : Высокий
Добавление ID3-тега : Нет
Утилита сжатия : C:\Program Files\Exact Audio Copy\Flac\flac.exe
Дополнительные параметры : -V -8 -T "Genre=%genre%" -T "Artist=%artist%" -T "Title=%title%" -T "Album=%albumtitle%" -T "Date=%year%" -T "Tracknumber=%tracknr%" -T "Comment=%comment%" %source%


TOC извлечённого CD

Трек | Старт | Длительность | Начальный сектор | Конечный сектор
––––––––––––––––––––––––––––––––––-
1 | 0:00.00 | 5:49.17 | 0 | 26191
2 | 5:49.17 | 4:22.65 | 26192 | 45906
3 | 10:12.07 | 3:48.30 | 45907 | 63036
4 | 14:00.37 | 3:07.25 | 63037 | 77086
5 | 17:07.62 | 5:47.13 | 77087 | 103124
6 | 22:55.00 | 2:51.50 | 103125 | 115999
7 | 25:46.50 | 3:58.32 | 116000 | 133881
8 | 29:45.07 | 5:12.03 | 133882 | 157284
9 | 34:57.10 | 6:01.40 | 157285 | 184399
10 | 40:58.50 | 7:53.62 | 184400 | 219936
11 | 48:52.37 | 2:30.13 | 219937 | 231199


Характеристики диапазона извлечения и сообщения об ошибках

Выбранный диапазон

Имя файла E:\EAC\Joni Mitchell & James Taylor - Close Your Eyes.wav

Пиковый уровень 93.9 %
Скорость извлечения 3.8 X
Качество диапазона 100.0 %
CRC теста B19DF306
CRC копии B19DF306
Копирование… OK

Ошибок не произошло


AccurateRip: сводка

Трек 1 : извлечено точно (доверие 3) [B44C005D] (AR v1)
Трек 2 : извлечено точно (доверие 3) [6F500CC6] (AR v1)
Трек 3 : извлечено точно (доверие 3) [1A10A288] (AR v1)
Трек 4 : извлечено точно (доверие 3) [1E8BC0DC] (AR v1)
Трек 5 : извлечено точно (доверие 3) [10DDE652] (AR v1)
Трек 6 : извлечено точно (доверие 3) [8D4749C9] (AR v1)
Трек 7 : извлечено точно (доверие 3) [12D470B2] (AR v1)
Трек 8 : извлечено точно (доверие 3) [A14F1450] (AR v1)
Трек 9 : извлечено точно (доверие 3) [B9AEA42A] (AR v1)
Трек 10 : извлечено точно (доверие 3) [CF806EF9] (AR v1)
Трек 11 : извлечено точно (доверие 3) [682BF7A6] (AR v1)

Все треки извлечены точно

Конец отчёта

==== Контрольная сумма отчёта 522C9956EE68C3A70D46A052E080300C6D30493BADCC7929521C67DA77FA2F2E ====

[CUETools log; Date: 07.10.2017 18:55:29; Version: 2.1.4]
[CTDB TOCID: xn5nb5_jeKKWgBr4bBygs1d1aA8-] found.
Track | CTDB Status
1 | (2/2) Accurately ripped
2 | (2/2) Accurately ripped
3 | (2/2) Accurately ripped
4 | (2/2) Accurately ripped
5 | (2/2) Accurately ripped
6 | (2/2) Accurately ripped
7 | (2/2) Accurately ripped
8 | (2/2) Accurately ripped
9 | (2/2) Accurately ripped
10 | (2/2) Accurately ripped
11 | (2/2) Accurately ripped
[AccurateRip ID: 0014b8e4-00b3ca6f-9d0c0a0b] found.
Track [ CRC | V2 ] Status
01 [b44c005d|87600ba1] (3+2/5) Accurately ripped
02 [6f500cc6|7d12986f] (3+2/5) Accurately ripped
03 [1a10a288|7627e913] (3+2/5) Accurately ripped
04 [1e8bc0dc|02f0d2b5] (3+2/5) Accurately ripped
05 [10dde652|88afa838] (3+2/5) Accurately ripped
06 [8d4749c9|87a33440] (3+2/5) Accurately ripped
07 [12d470b2|9405de19] (3+2/5) Accurately ripped
08 [a14f1450|e7e0a0ac] (3+2/5) Accurately ripped
09 [b9aea42a|23193275] (3+2/5) Accurately ripped
10 [cf806ef9|7f12321e] (3+2/5) Accurately ripped
11 [682bf7a6|22151070] (3+2/5) Accurately ripped

Track Peak [ CRC32 ] [W/O NULL] [ LOG ]
– 93,9 [B19DF306] [923FADDD] CRC32
01 90,7 [281F3579] [595BABA5]
02 81,2 [6DB0A8F0] [EC7D319F]
03 93,9 [11DCFAD1] [D98C5D1F]
04 88,2 [F9728DCE] [9DC71556]
05 76,6 [D54FB4B7] [21B6CB35]
06 77,9 [91A78F25] [9CD36533]
07 69,6 [F0AD954B] [71D9B3D1]
08 81,8 [CD63A284] [D4E7241D]
09 91,7 [DBE6D029] [5919F550]
10 89,8 [34A0E89C] [70EDCE77]
11 69,8 [0791FA12] [8CADCF39]

foobar2000 1.2 / Dynamic Range Meter 1.1.1
log date: 2017-10-07 18:40:16

––––––––––––––––––––––––––––––––––––––––
Analyzed: Joni Mitchell & James Taylor / Close Your Eyes
––––––––––––––––––––––––––––––––––––––––

DR Peak RMS Duration Track
––––––––––––––––––––––––––––––––––––––––
DR13 -0.84 dB -18.12 dB 5:49 01- Song About The Midway
DR12 -1.81 dB -18.60 dB 4:23 02- Gallery
DR13 -0.54 dB -18.94 dB 3:48 03-Rainy Day Man
DR13 -1.09 dB -16.61 dB 3:07 04-Steam Roller
DR13 -2.31 dB -19.59 dB 5:47 05-Priest
DR13 -2.16 dB -19.90 dB 2:52 06-Carey
DR12 -3.15 dB -18.81 dB 3:58 07-Carolina On My Mind
DR12 -1.73 dB -18.78 dB 5:12 08-California
DR13 -0.75 dB -19.33 dB 6:02 09-He Played Real Good For Free
DR12 -0.93 dB -19.03 dB 7:54 10-The Circle Game
DR12 -3.12 dB -20.30 dB 2:30 11-You Can Close Your Eyes
––––––––––––––––––––––––––––––––––––––––

Number of tracks: 11
Official DR value: DR13

Samplerate: 44100 Hz
Channels: 2
Bits per sample: 16
Bitrate: 759 kbps
Codec: FLAC
================================================================================


Joni Mitchell & James Taylor - Close Your Eyes (1991) [Unofficial Release]

–––––––––––-

DON'T MODIFY THIS FILE

–––––––––––-

PERFORMER: auCDtect Task Manager, ver. 1.6.0 RC1 build 1.6.0.1
Copyright © 2008-2010 y-soft. All rights reserved
http://y-soft.org

ANALYZER: auCDtect: CD records authenticity detector, version 0.8.2
Copyright © 2004 Oleg Berngardt. All rights reserved.
Copyright © 2004 Alexander Djourik. All rights reserved.


FILE: Joni Mitchell & James Taylor - Close Your Eyes.flac
Size: 292617926 Hash: 6624D7F9045130739F589BE178C1F200 Accuracy: -m0
Conclusion: CDDA 99%
Signature: 96A49BA880F80492F940148470513E7421F30B6A

Joni Mitchell & James Taylor - Close Your Eyes (1991) [Unofficial Release]

Joni Mitchell & James Taylor - Close Your Eyes (1991) [Unofficial Release]

All thanks to original releaser - Gera1957

More interesting music in My Blog