Tags
Language
Tags
June 2024
Su Mo Tu We Th Fr Sa
26 27 28 29 30 31 1
2 3 4 5 6 7 8
9 10 11 12 13 14 15
16 17 18 19 20 21 22
23 24 25 26 27 28 29
30 1 2 3 4 5 6

Joshua Redman - Compass (2009)

Posted By: gribovar
Joshua Redman - Compass (2009)

Joshua Redman - Compass (2009)
EAC Rip | FLAC (tracks+.cue+log) - 408 MB | MP3 CBR 320 kbps (LAME 3.93) - 171 MB | Covers - 44 MB
Genre: Jazz, Post-Bop | RAR 3% Rec. | Label: Nonesuch Records (7559-79923-0)

Joshua Redman's 2007 album Back East rightfully drew critical comparisons to Sonny Rollins' legendary trio date Way Out West, given everything from the mirror image implication in the title to the manner in which Redman offered the material on the set. The presence of Rollins looms large over Compass as well. Once more, Redman explores a piano-less trio, though there are some quartet and quintet numbers here. Redman is accompanied by longtime friends and collaborators, including drummers Brian Blade and Gregory Hutchinson, and bassists Larry Grenadier and Reuben Rogers. The material is with one exception - a compelling reworking of Beethoven's Moonlight Sonata (here known simply as "Moonlight") - all composed by either Redman or the group. The tunes include some beautiful ballads, such as "Little Ditty," some smoking boppers like "Round Reuben" and "Hutchhiker's Guide," and a beautiful Indo-Asian-kissed number called "Ghost." There is some stellar communication in this band - check "March" for a single but not isolated example of the intricacies of deep listening and a generous sense of flow. The doubling of rhythm players on the quintet sides doesn't bowl the listener over - though it could and is hinted at in places - but rather serves the melody and the arching sense of loose harmonics Redman places at their disposal, and uses time as a device to be toyed with rather than turned in on itself in the service of pure blowing. That said, this is one of the great ironies here, because Redman is looser and more relaxed on Compass than he has ever been on a studio recording. His usual overly studied and cautious approach is largely left at the threshold, even as his now trademark sense of melodic restraint is evident on "Faraway." This serves Redman well, and also offers another signpost to Rollins' influence, because it seems that on Compass, Redman has finally learned the greatest trick from his mentor - to walk out on the wire with his horn more, trust the fluid abilities of his incredible rhythm section(s), and let his inner sense of song and freedom take precedence over his already well-established sense of discipline.
Tracklist:
01. Uncharted
02. Faraway
03. Identity Thief
04. Just Like You
05. Hutchhiker's Guide
06. Ghost
07. Insomnomaniac
08. Moonlight
09. Un Peu Fou
10. March
11. Round Reuben
12. Little Ditty
13. Through The Valley

Total time: 01:12:42

Exact Audio Copy V1.0 beta 3 from 29. August 2011

EAC extraction logfile from 20. May 2013, 22:31

Joshua Redman / Compass

Used drive : HL-DT-STDVD-RAM GSA-H55N Adapter: 0 ID: 2

Read mode : Secure
Utilize accurate stream : Yes
Defeat audio cache : Yes
Make use of C2 pointers : No

Read offset correction : 102
Overread into Lead-In and Lead-Out : Yes
Fill up missing offset samples with silence : Yes
Delete leading and trailing silent blocks : No
Null samples used in CRC calculations : Yes
Used interface : Native Win32 interface for Win NT & 2000
Gap handling : Appended to previous track

Used output format : User Defined Encoder
Selected bitrate : 128 kBit/s
Quality : High
Add ID3 tag : No
Command line compressor : G:\Program Files\Exact Audio Copy\Encoder\flac.exe
Additional command line options : -V -8 -T "Genre=%genre%" -T "Artist=%artist%" -T "Title=%title%" -T "Album=%albumtitle%" -T "Date=%year%" -T "Tracknumber=%tracknr%" -T "Comment=EAC1.0b3 FLAC -8" %source%


TOC of the extracted CD

Track | Start | Length | Start sector | End sector
––––––––––––––––––––––––––––-
1 | 0:00.00 | 2:05.49 | 0 | 9423
2 | 2:05.49 | 6:43.59 | 9424 | 39707
3 | 8:49.33 | 6:39.14 | 39708 | 69646
4 | 15:28.47 | 7:32.66 | 69647 | 103612
5 | 23:01.38 | 5:49.20 | 103613 | 129807
6 | 28:50.58 | 3:38.63 | 129808 | 146220
7 | 32:29.46 | 8:41.45 | 146221 | 185340
8 | 41:11.16 | 5:03.36 | 185341 | 208101
9 | 46:14.52 | 5:05.15 | 208102 | 230991
10 | 51:19.67 | 3:22.44 | 230992 | 246185
11 | 54:42.36 | 6:26.64 | 246186 | 275199
12 | 61:09.25 | 8:32.60 | 275200 | 313659
13 | 69:42.10 | 2:59.51 | 313660 | 327135


Track 1

Filename F:\WAV\01 - Uncharted.wav

Pre-gap length 0:00:02.00

Peak level 85.0 %
Extraction speed 4.2 X
Track quality 100.0 %
Test CRC 889A47DC
Copy CRC 889A47DC
Accurately ripped (confidence 7) [845ADFAB] (AR v2)
Copy OK

Track 2

Filename F:\WAV\02 - Faraway.wav

Peak level 100.0 %
Extraction speed 5.5 X
Track quality 100.0 %
Test CRC 7CF35D9E
Copy CRC 7CF35D9E
Accurately ripped (confidence 8) [511DDB5A] (AR v2)
Copy OK

Track 3

Filename F:\WAV\03 - Identity Thief.wav

Peak level 99.8 %
Extraction speed 6.2 X
Track quality 100.0 %
Test CRC 0E6FD5FA
Copy CRC 0E6FD5FA
Accurately ripped (confidence 7) [C09B25E4] (AR v2)
Copy OK

Track 4

Filename F:\WAV\04 - Just Like You.wav

Peak level 99.8 %
Extraction speed 6.8 X
Track quality 100.0 %
Test CRC 6B9015BC
Copy CRC 6B9015BC
Accurately ripped (confidence 8) [B934F5DF] (AR v2)
Copy OK

Track 5

Filename F:\WAV\05 - Hutchhiker's Guide.wav

Pre-gap length 0:00:02.21

Peak level 99.8 %
Extraction speed 6.6 X
Track quality 99.9 %
Test CRC FBC5CC18
Copy CRC FBC5CC18
Accurately ripped (confidence 8) [5C19991D] (AR v2)
Copy OK

Track 6

Filename F:\WAV\06 - Ghost.wav

Pre-gap length 0:00:01.37

Peak level 99.8 %
Extraction speed 7.1 X
Track quality 100.0 %
Test CRC DB394497
Copy CRC DB394497
Accurately ripped (confidence 7) [1262ED24] (AR v2)
Copy OK

Track 7

Filename F:\WAV\07 - Insomnomaniac.wav

Peak level 99.8 %
Extraction speed 8.0 X
Track quality 100.0 %
Test CRC 45C02707
Copy CRC 45C02707
Accurately ripped (confidence 7) [F3C40434] (AR v2)
Copy OK

Track 8

Filename F:\WAV\08 - Moonlight.wav

Pre-gap length 0:00:01.53

Peak level 99.8 %
Extraction speed 8.2 X
Track quality 100.0 %
Test CRC 0672D8A8
Copy CRC 0672D8A8
Accurately ripped (confidence 8) [42236D3E] (AR v2)
Copy OK

Track 9

Filename F:\WAV\09 - Un Peu Fou.wav

Peak level 99.8 %
Extraction speed 8.4 X
Track quality 100.0 %
Test CRC 600F31A1
Copy CRC 600F31A1
Accurately ripped (confidence 7) [B9C5D657] (AR v2)
Copy OK

Track 10

Filename F:\WAV\10 - March.wav

Peak level 99.8 %
Extraction speed 8.1 X
Track quality 100.0 %
Test CRC 0D6FE157
Copy CRC 0D6FE157
Accurately ripped (confidence 7) [7A2CFBDB] (AR v2)
Copy OK

Track 11

Filename F:\WAV\11 - Round Reuben.wav

Peak level 99.8 %
Extraction speed 8.9 X
Track quality 100.0 %
Test CRC 6DF4DDFB
Copy CRC 6DF4DDFB
Accurately ripped (confidence 7) [D549E5E3] (AR v2)
Copy OK

Track 12

Filename F:\WAV\12 - Little Ditty.wav

Peak level 99.8 %
Extraction speed 9.4 X
Track quality 100.0 %
Test CRC 6438DC1E
Copy CRC 6438DC1E
Accurately ripped (confidence 8) [D00DF315] (AR v2)
Copy OK

Track 13

Filename F:\WAV\13 - Through The Valley.wav

Pre-gap length 0:00:01.62

Peak level 99.8 %
Extraction speed 5.3 X
Track quality 100.0 %
Test CRC 5041F1D1
Copy CRC 5041F1D1
Accurately ripped (confidence 8) [647387FB] (AR v2)
Copy OK


All tracks accurately ripped

No errors occurred

End of status report

==== Log checksum DC765285264A9D786DF85213F66D899AF82BAB7C00221563D5AC43FFF6310378 ====

[CUETools log; Date: 29.01.2021 13:18:17; Version: 2.1.4]
[CTDB TOCID: JNZSc0NzMsTgwORlQ9E5SnzxLpw-] found.
Track | CTDB Status
1 | (188/192) Accurately ripped
2 | (189/192) Accurately ripped
3 | (190/192) Accurately ripped
4 | (189/192) Accurately ripped
5 | (187/192) Accurately ripped
6 | (189/192) Accurately ripped
7 | (187/192) Accurately ripped
8 | (188/192) Accurately ripped
9 | (190/192) Accurately ripped
10 | (190/192) Accurately ripped
11 | (190/192) Accurately ripped
12 | (187/192) Accurately ripped
13 | (190/192) Accurately ripped
[AccurateRip ID: 0022ddee-01600735-b211090d] found.
Track [ CRC | V2 ] Status
01 [0a221451|845adfab] (078+117/195) Accurately ripped
02 [1a430a22|511ddb5a] (079+118/197) Accurately ripped
03 [bbc0cd46|c09b25e4] (079+115/194) Accurately ripped
04 [540792cc|b934f5df] (079+117/196) Accurately ripped
05 [941305d1|5c19991d] (079+117/196) Accurately ripped
06 [e0da3781|1262ed24] (079+118/197) Accurately ripped
07 [2acb1d8c|f3c40434] (078+115/193) Accurately ripped
08 [783b4258|42236d3e] (079+119/198) Accurately ripped
09 [7cd4fe2f|b9c5d657] (079+115/194) Accurately ripped
10 [4909edc5|7a2cfbdb] (079+118/197) Accurately ripped
11 [68fdac88|d549e5e3] (077+117/194) Accurately ripped
12 [12877a84|d00df315] (074+118/192) Accurately ripped
13 [359fa360|647387fb] (076+118/194) Accurately ripped

Track Peak [ CRC32 ] [W/O NULL] [ LOG ]
– 100,0 [5E54862A] [ED01267C]
01 85,0 [889A47DC] [557DB706] CRC32
02 100,0 [7CF35D9E] [F85AFE32] CRC32
03 99,8 [0E6FD5FA] [C3076A34] CRC32
04 99,8 [6B9015BC] [32CC1A3E] CRC32
05 99,8 [FBC5CC18] [285345AB] CRC32
06 99,8 [DB394497] [51CB0B00] CRC32
07 99,8 [45C02707] [937B418C] CRC32
08 99,8 [0672D8A8] [D59A0E58] CRC32
09 99,8 [600F31A1] [19E50CBD] CRC32
10 99,8 [0D6FE157] [04547CDA] CRC32
11 99,8 [6DF4DDFB] [8418A56A] CRC32
12 99,8 [6438DC1E] [66032D9E] CRC32
13 99,8 [5041F1D1] [B91ED999] CRC32

Thanks to simple.i

See also: