Subcategories

Julio Iglesias - My Life: The Greatest Hits (1998) ***RE-UP / New Rip***

Posted By: popsakov
Julio Iglesias - My Life: The Greatest Hits (1998) ***RE-UP / New Rip***

Julio Iglesias - My Life: The Greatest Hits (1998)
2CD | EAC Rip | FLAC (Img) + Cue + Log ~ 1012 Mb | MP3 CBR320 ~ 352 Mb
Scans (JPG, 600 dpi) ~ 126 Mb | RAR 5% Recovery
Pop, Latin Pop | Columbia #491090 2 / COL 491090 2 / 01-491090-10

It's a little surprising to consider that Julio Iglesias didn't have a comprehensive hits collection until My Life: The Greatest Hits was released in the fall of 1998, but the result was so strong that it made the wait worthwhile. Featuring no less than 37 songs over the course of two CDs, My Life has all of his biggest hits, most popular duets, and fan favorites, including "To All the Girls I've Loved Before," "All of You," "My Love," and "Summer Wind," a duet with Frank Sinatra. With only a couple of exceptions, the first disc is devoted to English-language hits, the second entirely to Latin hits. For some listeners, it may be too much material to digest, especially in one sitting, but there's little question that this is the definitive Julio Iglesias compilation.
~ Stephen Thomas Erlewine, All Music
Julio Iglesias - My Life: The Greatest Hits (1998) ***RE-UP / New Rip***


***************

Julio Iglesias - My Life: The Greatest Hits (1998) ***RE-UP / New Rip***

Julio Iglesias - My Life: The Greatest Hits (1998) ***RE-UP / New Rip***

Track List CD1:

01. Julio Iglesias & Willie Nelson / To All The Girls I've Loved Before [0:03:32.57]
02. Moralito (La Gota Fria) [0:03:34.40]
03. Julio Iglesias & Diana Ross / All Of You [0:03:58.73]
04. Crazy [0:03:15.47]
05. Julio Iglesias & Stevie Wonder / My Love [0:05:37.20]
06. Can't Help Falling In Love [0:03:20.63]
07. Vincent (Starry Starry Night) [0:04:19.15]
08. When I Need You [0:04:19.05]
09. Crazy In Love [0:03:34.27]
10. Julio Iglesias & Sting / Fragile [0:04:18.53]
11. Julio Iglesias & Dolly Parton / When You Tell Me That You Love Me [0:04:00.07]
12. Caruso [0:05:49.73]
13. Julio Iglesias & All 4 One / Smoke Gets In Your Eyes [0:03:35.02]
14. Julio Iglesias & Frank Sinatra / Summer Wind [0:02:31.70]
15. Por El Amor De Una Mujer [0:03:53.15]
16. Moonlight Lady [0:04:04.35]
17. Julio Iglesias & Paul Anka / My Way (A Mi Manera) [0:04:24.30]
18. Me Va Me Va [0:05:59.08]

Exact Audio Copy V1.3 from 2. September 2016

EAC extraction logfile from 30. April 2017, 19:04

Julio Iglesias / My Life: The Greatest Hits (CD1)

Used drive : PLEXTOR DVDR PX-716A Adapter: 1 ID: 0

Read mode : Secure
Utilize accurate stream : Yes
Defeat audio cache : Yes
Make use of C2 pointers : No

Read offset correction : 30
Overread into Lead-In and Lead-Out : No
Fill up missing offset samples with silence : Yes
Delete leading and trailing silent blocks : No
Null samples used in CRC calculations : Yes
Used interface : Native Win32 interface for Win NT & 2000

Used output format : User Defined Encoder
Selected bitrate : 1024 kBit/s
Quality : High
Add ID3 tag : No
Command line compressor : C:\Program Files (x86)\Exact Audio Copy\FLAC\FLAC.EXE
Additional command line options : -6 -V -T "ARTIST=%artist%" -T "TITLE=%title%" -T "ALBUM=%albumtitle%" -T "DATE=%year%" -T "TRACKNUMBER=%tracknr%" -T "GENRE=%genre%" -T "COMMENT=%comment%" -T "BAND=%albuminterpret%" -T "ALBUMARTIST=%albuminterpret%" -T "COMPOSER=%composer%" %haslyrics%–tag-from-file=LYRICS="%lyricsfile%"%haslyrics% -T "DISCNUMBER=%cdnumber%" -T "TOTALDISCS=%totalcds%" -T "TOTALTRACKS=%numtracks%" %hascover%–picture="%coverfile%"%hascover% %source% -o %dest%


TOC of the extracted CD

Track | Start | Length | Start sector | End sector
––––––––––––––––––––––––––––-
1 | 0:00.00 | 3:32.57 | 0 | 15956
2 | 3:32.57 | 3:34.40 | 15957 | 32046
3 | 7:07.22 | 3:58.73 | 32047 | 49969
4 | 11:06.20 | 3:15.47 | 49970 | 64641
5 | 14:21.67 | 5:37.20 | 64642 | 89936
6 | 19:59.12 | 3:20.63 | 89937 | 104999
7 | 23:20.00 | 4:19.15 | 105000 | 124439
8 | 27:39.15 | 4:19.05 | 124440 | 143869
9 | 31:58.20 | 3:34.27 | 143870 | 159946
10 | 35:32.47 | 4:18.53 | 159947 | 179349
11 | 39:51.25 | 4:00.07 | 179350 | 197356
12 | 43:51.32 | 5:49.73 | 197357 | 223604
13 | 49:41.30 | 3:35.02 | 223605 | 239731
14 | 53:16.32 | 2:31.70 | 239732 | 251126
15 | 55:48.27 | 3:53.15 | 251127 | 268616
16 | 59:41.42 | 4:04.35 | 268617 | 286951
17 | 63:46.02 | 4:24.30 | 286952 | 306781
18 | 68:10.32 | 5:59.08 | 306782 | 333714


Range status and errors

Selected range

Filename C:\mm\Julio Iglesias\1998 - My Life. The Greatest Hits [491090 2]\Julio Iglesias - My Life- The Greatest Hits (CD1).wav

Peak level 98.8 %
Extraction speed 3.8 X
Range quality 100.0 %
Test CRC B3EC162D
Copy CRC B3EC162D
Copy OK

No errors occurred


AccurateRip summary

Track 1 accurately ripped (confidence 13) [B24237F5] (AR v2)
Track 2 accurately ripped (confidence 14) [756AFDFF] (AR v2)
Track 3 accurately ripped (confidence 13) [1B4C06E0] (AR v2)
Track 4 accurately ripped (confidence 13) [388CBE8F] (AR v2)
Track 5 accurately ripped (confidence 13) [454F8DF0] (AR v2)
Track 6 accurately ripped (confidence 13) [A2E8FB5C] (AR v2)
Track 7 accurately ripped (confidence 13) [3C43FCFA] (AR v2)
Track 8 accurately ripped (confidence 13) [A6EC6B90] (AR v2)
Track 9 accurately ripped (confidence 13) [52221792] (AR v2)
Track 10 accurately ripped (confidence 13) [7D5846E5] (AR v2)
Track 11 accurately ripped (confidence 13) [4F811996] (AR v2)
Track 12 accurately ripped (confidence 13) [E2C7F920] (AR v2)
Track 13 accurately ripped (confidence 13) [73418A9B] (AR v2)
Track 14 accurately ripped (confidence 13) [185547E2] (AR v2)
Track 15 accurately ripped (confidence 13) [C7C52EE6] (AR v2)
Track 16 accurately ripped (confidence 13) [0B842543] (AR v2)
Track 17 accurately ripped (confidence 13) [B3448429] (AR v2)
Track 18 accurately ripped (confidence 14) [25D9A85E] (AR v2)

All tracks accurately ripped

End of status report

–– CUETools DB Plugin V2.1.6

[CTDB TOCID: BeDMH2xqMK1LKMUCOZia.DztJ38-] found
Submit result: BeDMH2xqMK1LKMUCOZia.DztJ38- has been confirmed
Track | CTDB Status
1 | (83/86) Accurately ripped
2 | (84/86) Accurately ripped
3 | (84/86) Accurately ripped
4 | (84/86) Accurately ripped
5 | (84/86) Accurately ripped
6 | (84/86) Accurately ripped
7 | (84/86) Accurately ripped
8 | (84/86) Accurately ripped
9 | (84/86) Accurately ripped
10 | (84/86) Accurately ripped
11 | (84/86) Accurately ripped
12 | (84/86) Accurately ripped
13 | (84/86) Accurately ripped
14 | (84/86) Accurately ripped
15 | (84/86) Accurately ripped
16 | (84/86) Accurately ripped
17 | (81/86) Accurately ripped
18 | (79/86) Accurately ripped, or (1/86) differs in 7362 samples @05:52:36,05:53:25-05:53:26,05:53:46,05:53:68,05:54:14-05:54:15,05:54:35-05:54:36,05:54:56-05:54:57,05:55:03-05:55:04,05:55:24-05:55:25,05:55:45-05:55:46,05:55:66-05:55:68,05:56:13-05:56:14,05:56:34-05:56:35,05:56:55-05:56:56,05:57:01-05:57:03,05:57:23-05:57:24,05:57:44-05:57:45,05:57:65-05:57:66,05:58:11-05:58:13,05:58:32-05:58:34,05:58:54-05:58:55

foobar2000 1.2.6 / Dynamic Range Meter 1.1.1
log date: 2017-05-11 00:13:35

––––––––––––––––––––––––––––––––––––––––
Analyzed: Julio Iglesias & Diana Ross / My Life: The Greatest Hits (CD1) (1)
Julio Iglesias & Dolly Parton / My Life: The Greatest Hits (CD1) (2)
Julio Iglesias & Frank Sinatra / My Life: The Greatest Hits (CD1) (3)
Julio Iglesias & Paul Anka / My Life: The Greatest Hits (CD1) (4)
––––––––––––––––––––––––––––––––––––––––

DR Peak RMS Duration Track
––––––––––––––––––––––––––––––––––––––––
DR8 -0.10 dB -10.43 dB 3:59 03-All Of You
DR7 -0.10 dB -10.19 dB 4:00 11-When You Tell Me That You Love Me
DR10 -0.10 dB -13.03 dB 2:32 14-Summer Wind
DR9 -0.40 dB -12.17 dB 4:24 17-My Way (A Mi Manera)
––––––––––––––––––––––––––––––––––––––––

Number of tracks: 4
Official DR value: DR9

Samplerate: 44100 Hz
Channels: 2
Bits per sample: 16
Bitrate: 902 kbps
Codec: FLAC
================================================================================

––––––––––––––––––––––––––––––––––––––––
Analyzed: Julio Iglesias & Stevie Wonder / My Life: The Greatest Hits (CD1) (1)
Julio Iglesias & Sting / My Life: The Greatest Hits (CD1) (2)
––––––––––––––––––––––––––––––––––––––––

DR Peak RMS Duration Track
––––––––––––––––––––––––––––––––––––––––
DR10 -0.30 dB -12.21 dB 5:37 05-My Love
DR9 -0.90 dB -12.48 dB 4:19 10-Fragile
––––––––––––––––––––––––––––––––––––––––

Number of tracks: 2
Official DR value: DR9

Samplerate: 44100 Hz
Channels: 2
Bits per sample: 16
Bitrate: 902 kbps
Codec: FLAC
================================================================================

––––––––––––––––––––––––––––––––––––––––
Analyzed: Julio Iglesias & Willie Nelson / My Life: The Greatest Hits (CD1) (1)
Julio Iglesias / My Life: The Greatest Hits (CD1) (2-11)
––––––––––––––––––––––––––––––––––––––––

DR Peak RMS Duration Track
––––––––––––––––––––––––––––––––––––––––
DR9 -0.50 dB -12.12 dB 3:33 01-To All The Girls I've Loved Before
DR11 -0.10 dB -11.95 dB 3:35 02-Moralito (La Gota Fria)
DR10 -0.10 dB -12.81 dB 3:16 04-Crazy
DR11 -0.10 dB -14.72 dB 3:21 06-Can't Help Falling In Love
DR12 -0.10 dB -16.03 dB 4:19 07-Vincent (Starry Starry Night)
DR10 -0.10 dB -13.48 dB 4:19 08-When I Need You
DR10 -0.20 dB -11.91 dB 3:34 09-Crazy In Love
DR11 -0.20 dB -13.78 dB 5:50 12-Caruso
DR11 -0.10 dB -14.26 dB 3:53 15-Por El Amor De Una Mujer
DR10 -0.10 dB -11.78 dB 4:04 16-Moonlight Lady
DR9 -0.10 dB -11.29 dB 5:59 18-Me Va Me Va
––––––––––––––––––––––––––––––––––––––––

Number of tracks: 11
Official DR value: DR10

Samplerate: 44100 Hz
Channels: 2
Bits per sample: 16
Bitrate: 902 kbps
Codec: FLAC
================================================================================

[CUETools log; Date: 11.05.2017 0:14:01; Version: 2.1.5]
[CTDB TOCID: BeDMH2xqMK1LKMUCOZia.DztJ38-] found.
Track | CTDB Status
1 | (85/88) Accurately ripped
2 | (86/88) Accurately ripped
3 | (86/88) Accurately ripped
4 | (86/88) Accurately ripped
5 | (86/88) Accurately ripped
6 | (86/88) Accurately ripped
7 | (86/88) Accurately ripped
8 | (86/88) Accurately ripped
9 | (86/88) Accurately ripped
10 | (86/88) Accurately ripped
11 | (86/88) Accurately ripped
12 | (86/88) Accurately ripped
13 | (86/88) Accurately ripped
14 | (86/88) Accurately ripped
15 | (86/88) Accurately ripped
16 | (86/88) Accurately ripped
17 | (83/88) Accurately ripped
18 | (81/88) Accurately ripped, or (1/88) differs in 7362 samples @05:52:36,05:53:25-05:53:26,05:53:46,05:53:68,05:54:14-05:54:15,05:54:35-05:54:36,05:54:56-05:54:57,05:55:03-05:55:04,05:55:24-05:55:25,05:55:45-05:55:46,05:55:66-05:55:68,05:56:13-05:56:14,05:56:34-05:56:35,05:56:55-05:56:56,05:57:01-05:57:03,05:57:23-05:57:24,05:57:44-05:57:45,05:57:65-05:57:66,05:58:11-05:58:13,05:58:32-05:58:34,05:58:54-05:58:55
[AccurateRip ID: 002ee417-02750cf1-f8116112] found.
Track [ CRC | V2 ] Status
01 [6de3df7e|b24237f5] (16+13/90) Accurately ripped
02 [3e66197b|756afdff] (16+14/94) Accurately ripped
03 [24f7f660|1b4c06e0] (16+13/93) Accurately ripped
04 [48cdea4a|388cbe8f] (16+13/92) Accurately ripped
05 [b789fc63|454f8df0] (16+13/92) Accurately ripped
06 [d887f1d1|a2e8fb5c] (16+13/92) Accurately ripped
07 [74b6d65f|3c43fcfa] (16+13/93) Accurately ripped
08 [4cb9ba62|a6ec6b90] (16+13/93) Accurately ripped
09 [247d52c7|52221792] (16+13/91) Accurately ripped
10 [afbb4039|7d5846e5] (16+13/94) Accurately ripped
11 [176fd22c|4f811996] (16+13/91) Accurately ripped
12 [4cadccd8|e2c7f920] (16+13/90) Accurately ripped
13 [56f182dc|73418a9b] (16+13/92) Accurately ripped
14 [d3a06dbd|185547e2] (16+13/90) Accurately ripped
15 [d671f6fb|c7c52ee6] (16+13/91) Accurately ripped
16 [819e142b|0b842543] (16+13/90) Accurately ripped
17 [0fe64334|b3448429] (16+13/89) Accurately ripped
18 [2ddaa39f|25d9a85e] (16+14/85) Accurately ripped
Offsetted by -599:
01 [0fa46446] (04/90) Accurately ripped
02 [d9fec616] (04/94) Accurately ripped
03 [427a9063] (03/93) Accurately ripped
04 [1b07a946] (04/92) Accurately ripped
05 [3115cfd5] (03/92) Accurately ripped
06 [058d9acb] (04/92) Accurately ripped
07 [a718e29e] (04/93) Accurately ripped
08 [769d9f1c] (04/93) Accurately ripped
09 [f24b8e8b] (03/91) Accurately ripped
10 [37abe6bd] (04/94) Accurately ripped
11 [5e421aac] (03/91) Accurately ripped
12 [7c0804fe] (03/90) Accurately ripped
13 [f4d58532] (04/92) Accurately ripped
14 [1b169384] (03/90) Accurately ripped
15 [499db10f] (03/91) Accurately ripped
16 [1147495f] (04/90) Accurately ripped
17 [1719491b] (04/89) Accurately ripped
18 [2259f323] (03/85) Accurately ripped
Offsetted by 29:
01 [1846ade6] (14/90) Accurately ripped
02 [b5cc1df2] (14/94) Accurately ripped
03 [0b2de65f] (14/93) Accurately ripped
04 [948797f6] (14/92) Accurately ripped
05 [f7be9f3d] (14/92) Accurately ripped
06 [ac0a72d3] (13/92) Accurately ripped
07 [3603b84a] (14/93) Accurately ripped
08 [23ce5224] (14/93) Accurately ripped
09 [528326db] (13/91) Accurately ripped
10 [b0d7c60d] (14/94) Accurately ripped
11 [c4f164ac] (13/91) Accurately ripped
12 [2e2deb76] (13/90) Accurately ripped
13 [30f4936a] (13/92) Accurately ripped
14 [55efc1d0] (13/90) Accurately ripped
15 [6c6f6b9f] (13/91) Accurately ripped
16 [19384a6f] (11/90) Accurately ripped
17 [6729e1e7] (10/89) Accurately ripped
18 [9a1c4673] (11/85) Accurately ripped
Offsetted by 323:
01 [64e0ec16] (05/90) Accurately ripped
02 [55c4b524] (06/94) Accurately ripped
03 [6fa8fd81] (06/93) Accurately ripped
04 [c05d931e] (06/92) Accurately ripped
05 [5f58a849] (06/92) Accurately ripped
06 [f1d4628f] (06/92) Accurately ripped
07 [6217fa14] (06/93) Accurately ripped
08 [dd3dfc60] (06/93) Accurately ripped
09 [5a0db033] (06/91) Accurately ripped
10 [2ede73e5] (06/94) Accurately ripped
11 [f3626fac] (06/91) Accurately ripped
12 [a987687a] (06/90) Accurately ripped
13 [4ebb5e8e] (06/92) Accurately ripped
14 [036c424a] (06/90) Accurately ripped
15 [fbebb1d7] (06/91) Accurately ripped
16 [9e917967] (06/90) Accurately ripped
17 [afb41921] (06/89) Accurately ripped
18 [2a3a1a4b] (04/85) Accurately ripped
Offsetted by -664:
01 [9a91f6be] (00/90) No match (V2 was not tested)
02 [bcb902b3] (00/94) No match (V2 was not tested)
03 [c2e72fd8] (00/93) No match (V2 was not tested)
04 [e40f35aa] (00/92) No match (V2 was not tested)
05 [def81c33] (00/92) No match (V2 was not tested)
06 [19d306e1] (00/92) No match (V2 was not tested)
07 [4e1d1d37] (00/93) No match (V2 was not tested)
08 [b7d96572] (00/93) No match (V2 was not tested)
09 [ae737567] (00/91) No match (V2 was not tested)
10 [2c5a50d9] (00/94) No match (V2 was not tested)
11 [0e54a62c] (00/91) No match (V2 was not tested)
12 [8b6d44c8] (00/90) No match (V2 was not tested)
13 [b3e9224c] (00/92) No match (V2 was not tested)
14 [4f4a49d5] (00/90) No match (V2 was not tested)
15 [635cc61b] (00/91) No match (V2 was not tested)
16 [15c1804b] (00/90) No match (V2 was not tested)
17 [e0bf844c] (00/89) No match (V2 was not tested)
18 [b41f1c3f] (00/85) No match (V2 was not tested)
Offsetted by -630:
01 [12e27ece] (00/90) No match (V2 was not tested)
02 [e79a8c59] (00/94) No match (V2 was not tested)
03 [2914c4ce] (00/93) No match (V2 was not tested)
04 [34036262] (00/92) No match (V2 was not tested)
05 [fe1b56b7] (00/92) No match (V2 was not tested)
06 [b0b2a6f5] (00/92) No match (V2 was not tested)
07 [16424965] (00/93) No match (V2 was not tested)
08 [76382906] (00/93) No match (V2 was not tested)
09 [a69d9a2f] (00/91) No match (V2 was not tested)
10 [7d1aa721] (00/94) No match (V2 was not tested)
11 [fd0fdf2c] (00/91) No match (V2 was not tested)
12 [445bc0f4] (00/90) No match (V2 was not tested)
13 [cdfe61d8] (00/92) No match (V2 was not tested)
14 [cd95a393] (00/90) No match (V2 was not tested)
15 [59d56083] (00/91) No match (V2 was not tested)
16 [ad038af3] (00/90) No match (V2 was not tested)
17 [4fe2a84a] (00/89) No match (V2 was not tested)
18 [8b519487] (00/85) No match (V2 was not tested)
Offsetted by -6:
01 [76c69a4e] (00/90) No match (V2 was not tested)
02 [cd6b79a9] (00/94) No match (V2 was not tested)
03 [8b68639e] (00/93) No match (V2 was not tested)
04 [76ee1ea2] (00/92) No match (V2 was not tested)
05 [df387997] (00/92) No match (V2 was not tested)
06 [547e9955] (00/92) No match (V2 was not tested)
07 [0619b075] (00/93) No match (V2 was not tested)
08 [d0c71f66] (00/93) No match (V2 was not tested)
09 [cb84f1ef] (00/91) No match (V2 was not tested)
10 [835d12e1] (00/94) No match (V2 was not tested)
11 [fc5dd72c] (00/91) No match (V2 was not tested)
12 [4a295c94] (00/90) No match (V2 was not tested)
13 [70754a78] (00/92) No match (V2 was not tested)
14 [720b9a23] (00/90) No match (V2 was not tested)
15 [c9116343] (00/91) No match (V2 was not tested)
16 [1ba17bb3] (00/90) No match (V2 was not tested)
17 [c00d3cda] (00/89) No match (V2 was not tested)
18 [ad867047] (00/85) No match (V2 was not tested)

Track Peak [ CRC32 ] [W/O NULL] [ LOG ]
– 98,8 [B3EC162D] [062AD548] CRC32
01 94,4 [F56602FF] [2996F132]
02 98,8 [A5B62837] [6F93CC06]
03 98,8 [4853749B] [C681622E]
04 98,8 [569D6FCE] [3533FB1A]
05 96,6 [3CD741CA] [77484264]
06 98,8 [DF7172F7] [C8BF858B]
07 98,8 [FC6D73F1] [EF0EA587]
08 98,8 [5095791A] [DD97EA72]
09 97,7 [89D5C910] [2EB4A36C]
10 90,1 [D7BFAAFB] [02B22892]
11 98,8 [0273B710] [79CC50B3]
12 97,7 [1C89DFF8] [3D86E6BE]
13 98,8 [7CDE83E5] [376EA554]
14 98,8 [F03437E7] [359361EF]
15 98,8 [95EC5017] [2745B6C6]
16 98,8 [066BDF18] [885D4063]
17 95,5 [BB932FE1] [09895519]
18 98,8 [DB4E8A2C] [2C0CC095]

Julio Iglesias - My Life: The Greatest Hits (1998) ***RE-UP / New Rip***

Julio Iglesias - My Life: The Greatest Hits (1998) ***RE-UP / New Rip***

Track List CD2:

01. Un Canto A Galicia [0:04:32.12]
02. Soy Un Truhan, Soy Un Seňor [0:03:01.38]
03. Hey [0:04:59.20]
04. Ou Est Passée Ma Boheme (Quiereme Mucho) [0:03:54.30]
05. Momentos [0:03:34.12]
06. Amor [0:03:20.55]
07. De Niňa A Mujer [0:03:16.45]
08. Que Nadie Sepa Mi Sufrir [0:03:20.43]
09. Volver A Empezar (Begin The Beguine) [0:04:40.62]
10. Ae, Ao [0:03:18.60]
11. Manuela [0:03:38.70]
12. Abrazame [0:03:16.65]
13. Milonga (Medley) [0:04:03.60]
14. A Media Luz [0:02:42.40]
15. Ni Te Tengo Ni Te Olvido [0:04:00.65]
16. La Carretera [0:05:06.23]
17. Bamboleo [0:04:39.67]
18. La Cumparsita [0:02:35.13]
19. Agua Dulce, Agua Sala [0:04:24.42]

Exact Audio Copy V1.3 from 2. September 2016

EAC extraction logfile from 30. April 2017, 19:49

Julio Iglesias / My Life: The Greatest Hits (CD2)

Used drive : PLEXTOR DVDR PX-716A Adapter: 1 ID: 0

Read mode : Secure
Utilize accurate stream : Yes
Defeat audio cache : Yes
Make use of C2 pointers : No

Read offset correction : 30
Overread into Lead-In and Lead-Out : No
Fill up missing offset samples with silence : Yes
Delete leading and trailing silent blocks : No
Null samples used in CRC calculations : Yes
Used interface : Native Win32 interface for Win NT & 2000

Used output format : User Defined Encoder
Selected bitrate : 1024 kBit/s
Quality : High
Add ID3 tag : No
Command line compressor : C:\Program Files (x86)\Exact Audio Copy\FLAC\FLAC.EXE
Additional command line options : -6 -V -T "ARTIST=%artist%" -T "TITLE=%title%" -T "ALBUM=%albumtitle%" -T "DATE=%year%" -T "TRACKNUMBER=%tracknr%" -T "GENRE=%genre%" -T "COMMENT=%comment%" -T "BAND=%albuminterpret%" -T "ALBUMARTIST=%albuminterpret%" -T "COMPOSER=%composer%" %haslyrics%–tag-from-file=LYRICS="%lyricsfile%"%haslyrics% -T "DISCNUMBER=%cdnumber%" -T "TOTALDISCS=%totalcds%" -T "TOTALTRACKS=%numtracks%" %hascover%–picture="%coverfile%"%hascover% %source% -o %dest%


TOC of the extracted CD

Track | Start | Length | Start sector | End sector
––––––––––––––––––––––––––––-
1 | 0:00.00 | 4:32.12 | 0 | 20411
2 | 4:32.12 | 3:01.38 | 20412 | 34024
3 | 7:33.50 | 4:59.20 | 34025 | 56469
4 | 12:32.70 | 3:54.30 | 56470 | 74049
5 | 16:27.25 | 3:34.12 | 74050 | 90111
6 | 20:01.37 | 3:20.55 | 90112 | 105166
7 | 23:22.17 | 3:16.45 | 105167 | 119911
8 | 26:38.62 | 3:20.43 | 119912 | 134954
9 | 29:59.30 | 4:40.62 | 134955 | 156016
10 | 34:40.17 | 3:18.60 | 156017 | 170926
11 | 37:59.02 | 3:38.70 | 170927 | 187346
12 | 41:37.72 | 3:16.65 | 187347 | 202111
13 | 44:54.62 | 4:03.60 | 202112 | 220396
14 | 48:58.47 | 2:42.40 | 220397 | 232586
15 | 51:41.12 | 4:00.65 | 232587 | 250651
16 | 55:42.02 | 5:06.23 | 250652 | 273624
17 | 60:48.25 | 4:39.67 | 273625 | 294616
18 | 65:28.17 | 2:35.13 | 294617 | 306254
19 | 68:03.30 | 4:24.42 | 306255 | 326096


Range status and errors

Selected range

Filename C:\mm\Julio Iglesias\1998 - My Life. The Greatest Hits [491090 2]\Julio Iglesias - My Life- The Greatest Hits (CD2).wav

Peak level 100.0 %
Extraction speed 3.8 X
Range quality 100.0 %
Test CRC 7E923DBA
Copy CRC 7E923DBA
Copy OK

No errors occurred


AccurateRip summary

Track 1 accurately ripped (confidence 7) [E76B465C] (AR v2)
Track 2 accurately ripped (confidence 7) [BEE830B9] (AR v2)
Track 3 accurately ripped (confidence 7) [7319ED58] (AR v2)
Track 4 accurately ripped (confidence 7) [7552E65F] (AR v2)
Track 5 accurately ripped (confidence 7) [E686668F] (AR v2)
Track 6 accurately ripped (confidence 7) [E92D7AFA] (AR v2)
Track 7 accurately ripped (confidence 7) [4FCE14D8] (AR v2)
Track 8 accurately ripped (confidence 7) [C0098331] (AR v2)
Track 9 accurately ripped (confidence 7) [6D285216] (AR v2)
Track 10 accurately ripped (confidence 7) [77D06F93] (AR v2)
Track 11 accurately ripped (confidence 7) [9F96F365] (AR v2)
Track 12 accurately ripped (confidence 7) [C0CF4203] (AR v2)
Track 13 accurately ripped (confidence 7) [F2D0E59A] (AR v2)
Track 14 accurately ripped (confidence 7) [DB6E0774] (AR v2)
Track 15 accurately ripped (confidence 7) [1A8F9A00] (AR v2)
Track 16 accurately ripped (confidence 7) [E6129BE4] (AR v2)
Track 17 accurately ripped (confidence 7) [DCAE6534] (AR v2)
Track 18 accurately ripped (confidence 7) [B10856FC] (AR v2)
Track 19 accurately ripped (confidence 7) [1B90093B] (AR v2)

All tracks accurately ripped

End of status report

–– CUETools DB Plugin V2.1.6

[CTDB TOCID: hMsIQZZPYOmFv5nLS7Xx0O1_bKI-] found
Submit result: hMsIQZZPYOmFv5nLS7Xx0O1_bKI- has been confirmed
Track | CTDB Status
1 | (73/77) Accurately ripped
2 | (76/77) Accurately ripped
3 | (75/77) Accurately ripped
4 | (76/77) Accurately ripped
5 | (76/77) Accurately ripped
6 | (76/77) Accurately ripped
7 | (76/77) Accurately ripped
8 | (76/77) Accurately ripped
9 | (75/77) Accurately ripped
10 | (76/77) Accurately ripped
11 | (76/77) Accurately ripped
12 | (76/77) Accurately ripped
13 | (76/77) Accurately ripped
14 | (76/77) Accurately ripped
15 | (75/77) Accurately ripped
16 | (76/77) Accurately ripped
17 | (76/77) Accurately ripped
18 | (75/77) Accurately ripped
19 | (74/77) Accurately ripped

foobar2000 1.2.6 / Dynamic Range Meter 1.1.1
log date: 2017-05-11 00:15:24

––––––––––––––––––––––––––––––––––––––––
Analyzed: Julio Iglesias / My Life: The Greatest Hits (CD2)
––––––––––––––––––––––––––––––––––––––––

DR Peak RMS Duration Track
––––––––––––––––––––––––––––––––––––––––
DR9 -0.10 dB -11.35 dB 4:32 01-Un Canto A Galicia
DR11 -0.59 dB -12.59 dB 3:02 02-Soy Un Truhan, Soy Un Senor
DR10 -0.30 dB -13.61 dB 4:59 03-Hey
DR10 -0.20 dB -12.67 dB 3:54 04-Ou Est Passee Ma Boheme (Quiereme Mucho)
DR11 -0.31 dB -14.36 dB 3:34 05-Momentos
DR11 0.00 dB -12.53 dB 3:21 06-Amor
DR10 -0.51 dB -13.51 dB 3:17 07-De Nina A Mujer
DR11 -0.21 dB -12.70 dB 3:21 08-Que Nadie Sepa Mi Sufrir
DR10 -0.38 dB -13.97 dB 4:41 09-Volver A Empezar (Begin The Beguine)
DR10 -0.20 dB -12.69 dB 3:19 10-Ae, Ao
DR9 -1.20 dB -11.96 dB 3:39 11-Manuela
DR8 -0.80 dB -11.71 dB 3:17 12-Abrazame
DR11 -0.10 dB -12.85 dB 4:04 13-Milonga (Medley)
DR10 -0.30 dB -12.49 dB 2:43 14-A Media Luz
DR11 -0.61 dB -13.73 dB 4:01 15-Ni Te Tengo Ni Te Olvido
DR9 -0.30 dB -10.93 dB 5:06 16-La Carretera
DR8 -0.50 dB -9.94 dB 4:40 17-Bamboleo
DR9 -0.10 dB -10.94 dB 2:35 18-La Cumparsita
DR8 -0.20 dB -10.21 dB 4:25 19-Agua Dulce, Agua Sala
––––––––––––––––––––––––––––––––––––––––

Number of tracks: 19
Official DR value: DR10

Samplerate: 44100 Hz
Channels: 2
Bits per sample: 16
Bitrate: 937 kbps
Codec: FLAC
================================================================================

[CUETools log; Date: 11.05.2017 0:15:27; Version: 2.1.5]
[CTDB TOCID: hMsIQZZPYOmFv5nLS7Xx0O1_bKI-] found.
Track | CTDB Status
1 | (75/79) Accurately ripped
2 | (78/79) Accurately ripped
3 | (77/79) Accurately ripped
4 | (78/79) Accurately ripped
5 | (78/79) Accurately ripped
6 | (78/79) Accurately ripped
7 | (78/79) Accurately ripped
8 | (78/79) Accurately ripped
9 | (77/79) Accurately ripped
10 | (78/79) Accurately ripped
11 | (78/79) Accurately ripped
12 | (78/79) Accurately ripped
13 | (78/79) Accurately ripped
14 | (78/79) Accurately ripped
15 | (77/79) Accurately ripped
16 | (78/79) Accurately ripped
17 | (78/79) Accurately ripped
18 | (77/79) Accurately ripped
19 | (76/79) Accurately ripped
[AccurateRip ID: 0031adb8-02b4894c-0210fb13] found.
Track [ CRC | V2 ] Status
01 [73631195|e76b465c] (08+07/92) Accurately ripped
02 [77f5cb7f|bee830b9] (08+07/93) Accurately ripped
03 [93ff7a81|7319ed58] (08+07/92) Accurately ripped
04 [ef62784e|7552e65f] (08+07/92) Accurately ripped
05 [87f75ce4|e686668f] (08+07/91) Accurately ripped
06 [f276bc54|e92d7afa] (08+07/92) Accurately ripped
07 [fa95b9ef|4fce14d8] (08+07/93) Accurately ripped
08 [54971a21|c0098331] (08+07/93) Accurately ripped
09 [12635d0e|6d285216] (08+07/93) Accurately ripped
10 [f59aa257|77d06f93] (08+07/93) Accurately ripped
11 [a8962956|9f96f365] (08+07/93) Accurately ripped
12 [ee937071|c0cf4203] (08+07/93) Accurately ripped
13 [67dd7841|f2d0e59a] (08+07/92) Accurately ripped
14 [06cb423c|db6e0774] (08+07/94) Accurately ripped
15 [98eade16|1a8f9a00] (08+07/91) Accurately ripped
16 [adceb144|e6129be4] (08+07/92) Accurately ripped
17 [6c59c9c7|dcae6534] (08+07/91) Accurately ripped
18 [b204de0f|b10856fc] (08+07/90) Accurately ripped
19 [d0e41d72|1b90093b] (07+07/91) Accurately ripped
Offsetted by -599:
01 [959f49be] (12/92) Accurately ripped
02 [06aab9b2] (13/93) Accurately ripped
03 [0e530b77] (12/92) Accurately ripped
04 [3cb6472c] (12/92) Accurately ripped
05 [c7f57433] (12/91) Accurately ripped
06 [745724c5] (12/92) Accurately ripped
07 [cbc805bc] (12/93) Accurately ripped
08 [66b9206b] (13/93) Accurately ripped
09 [50607288] (12/93) Accurately ripped
10 [d83ce4e8] (12/93) Accurately ripped
11 [083ecc60] (13/93) Accurately ripped
12 [0fcbb857] (12/93) Accurately ripped
13 [5d281c52] (12/92) Accurately ripped
14 [7a38b211] (13/94) Accurately ripped
15 [f9706636] (11/91) Accurately ripped
16 [8ffdb196] (13/92) Accurately ripped
17 [192ba5f6] (13/91) Accurately ripped
18 [a2f72338] (12/90) Accurately ripped
19 [2b793805] (12/91) Accurately ripped
Offsetted by 29:
01 [43fffe32] (21/92) Accurately ripped
02 [717a7f6e] (22/93) Accurately ripped
03 [9334462f] (22/92) Accurately ripped
04 [76f76a04] (22/92) Accurately ripped
05 [f767db1f] (22/91) Accurately ripped
06 [ef2ae8d9] (22/92) Accurately ripped
07 [97fd4800] (22/93) Accurately ripped
08 [3ca246b3] (22/93) Accurately ripped
09 [1e586490] (22/93) Accurately ripped
10 [c3501b7c] (22/93) Accurately ripped
11 [3eaaa1a8] (22/93) Accurately ripped
12 [c38309cf] (22/93) Accurately ripped
13 [a281d0e6] (21/92) Accurately ripped
14 [edf93ef5] (22/94) Accurately ripped
15 [a556f0b6] (21/91) Accurately ripped
16 [1d165a7e] (21/92) Accurately ripped
17 [4ce7c662] (19/91) Accurately ripped
18 [0b371bac] (20/90) Accurately ripped
19 [87452d41] (21/91) Accurately ripped
Offsetted by -664:
01 [7b6bb2fd] (00/92) No match (V2 was not tested)
02 [5bd0bc77] (00/93) No match (V2 was not tested)
03 [5f8d42f1] (00/92) No match (V2 was not tested)
04 [fb2aa4fe] (00/92) No match (V2 was not tested)
05 [bc868e3c] (00/91) No match (V2 was not tested)
06 [6a12c0fc] (00/92) No match (V2 was not tested)
07 [8e49d8f7] (00/93) No match (V2 was not tested)
08 [b6e6b3b1] (00/93) No match (V2 was not tested)
09 [dd4ce61e] (00/93) No match (V2 was not tested)
10 [e7db1bff] (00/93) No match (V2 was not tested)
11 [948c80e6] (00/93) No match (V2 was not tested)
12 [ae1c9e61] (00/93) No match (V2 was not tested)
13 [5e21ade9] (00/92) No match (V2 was not tested)
14 [47ec1a84] (00/94) No match (V2 was not tested)
15 [e66c8316] (00/91) No match (V2 was not tested)
16 [7c167414] (00/92) No match (V2 was not tested)
17 [7a225e1f] (00/91) No match (V2 was not tested)
18 [f5868777] (00/90) No match (V2 was not tested)
19 [1fef1d6a] (00/91) No match (V2 was not tested)

Track Peak [ CRC32 ] [W/O NULL] [ LOG ]
– 100,0 [7E923DBA] [A2C6B6D6] CRC32
01 98,8 [0EE831C3] [C2804BEB]
02 93,4 [B6874720] [8E0265CA]
03 96,6 [A8BE6AF7] [ACFA3BD7]
04 97,7 [D1E49099] [A361BA9E]
05 96,4 [C7280113] [E0A9176B]
06 100,0 [622D6673] [F19936E2]
07 94,2 [5321510B] [1F59BE23]
08 97,6 [299BC3D4] [819073C1]
09 95,7 [DA8CF222] [994C852F]
10 97,7 [509F7CC2] [2F4EB014]
11 87,0 [A74494E6] [D1D14D0C]
12 91,2 [3D32855A] [1AD8C10B]
13 98,8 [51AD4074] [08027145]
14 96,6 [BE758EFC] [0E6D6582]
15 93,2 [1F3AF139] [205CECB4]
16 96,6 [891B0D2D] [C46D7017]
17 94,4 [73CC84E1] [8603DCE1]
18 98,8 [4B8B535B] [ED9C26EA]
19 97,7 [228F14F0] [44ADAB40]

Julio Iglesias - My Life: The Greatest Hits (1998) ***RE-UP / New Rip***

All thanks go to sergych

>>> Julio Iglesias in my Blog <<<

Download from icerbox.com: