Subcategories
Tags
Language
Tags

Kanga - You And I Will Never Die (2021) {Artoffact}

Posted By: TestTickles
Kanga - You And I Will Never Die (2021) {Artoffact}

Kanga - You And I Will Never Die (2021) {Artoffact}
EAC Rip | FLAC with CUE and log | scans | 308 mb
MP3 CBR 320kbps | RAR | 102 mb
Genre: electronic, darkwave

You And I Will Never Die is the 2021 album by Los Angeles electronic pop artist, composer and music programmer Lillian Kanga Duchamp, who simply works as Kanga. This was put out by the fine folks at Artoffact.

Kanga - You And I Will Never Die (2021) {Artoffact}

01. Preface
02. Home
03. Godless
04. Touch
05. Brother
06. Interlude
07. Moscow
08. Violence
09. Ritual_city
10. Say_goodbye
11. Waiting
12. Untie

Exact Audio Copy V1.5 from 20. February 2020

EAC extraction logfile from 12. June 2021, 20:16

Kanga / You And I Will Never Die

Used drive : SlimtypeDVD A DS8A5SH Adapter: 1 ID: 0

Read mode : Secure
Utilize accurate stream : Yes
Defeat audio cache : Yes
Make use of C2 pointers : No

Read offset correction : 6
Overread into Lead-In and Lead-Out : No
Fill up missing offset samples with silence : Yes
Delete leading and trailing silent blocks : No
Null samples used in CRC calculations : Yes
Used interface : Native Win32 interface for Win NT & 2000
Gap handling : Appended to previous track

Used output format : User Defined Encoder
Selected bitrate : 1024 kBit/s
Quality : High
Add ID3 tag : No
Command line compressor : C:\Program Files (x86)\Exact Audio Copy\FLAC\FLAC.EXE
Additional command line options : -6 -V -T "ARTIST=%artist%" -T "TITLE=%title%" -T "ALBUM=%albumtitle%" -T "DATE=%year%" -T "TRACKNUMBER=%tracknr%" -T "GENRE=%genre%" -T "COMMENT=%comment%" -T "BAND=%albuminterpret%" -T "ALBUMARTIST=%albuminterpret%" -T "COMPOSER=%composer%" %haslyrics%–tag-from-file=LYRICS="%lyricsfile%"%haslyrics% -T "DISCNUMBER=%cdnumber%" -T "TOTALDISCS=%totalcds%" -T "TOTALTRACKS=%numtracks%" %hascover%–picture="%coverfile%"%hascover% %source% -o %dest%

TOC of the extracted CD

Track | Start | Length | Start sector | End sector
––––––––––––––––––––––––––––-
1 | 0:00.00 | 1:59.74 | 0 | 8998
2 | 1:59.74 | 4:14.69 | 8999 | 28117
3 | 6:14.68 | 3:42.14 | 28118 | 44781
4 | 9:57.07 | 4:11.61 | 44782 | 63667
5 | 14:08.68 | 4:02.02 | 63668 | 81819
6 | 18:10.70 | 0:32.61 | 81820 | 84280
7 | 18:43.56 | 3:49.45 | 84281 | 101500
8 | 22:33.26 | 3:58.11 | 101501 | 119361
9 | 26:31.37 | 3:50.00 | 119362 | 136611
10 | 30:21.37 | 4:56.26 | 136612 | 158837
11 | 35:17.63 | 4:34.68 | 158838 | 179455
12 | 39:52.56 | 4:54.58 | 179456 | 201563

Track 1

Filename C:\cuntfist\FLAC\Kanga - You And I Will Never Die (2021) [FLAC] {Artoffact}\01 - Preface.wav

Pre-gap length 0:00:02.00

Peak level 96.5 %
Extraction speed 0.9 X
Track quality 100.0 %
Test CRC 9508BB3E
Copy CRC 9508BB3E
Track not present in AccurateRip database
Copy OK

Track 2

Filename C:\cuntfist\FLAC\Kanga - You And I Will Never Die (2021) [FLAC] {Artoffact}\02 - Home.wav

Peak level 96.6 %
Extraction speed 1.1 X
Track quality 100.0 %
Test CRC 6821415F
Copy CRC 6821415F
Track not present in AccurateRip database
Copy OK
Track 3
Filename C:\cuntfist\FLAC\Kanga - You And I Will Never Die (2021) [FLAC] {Artoffact}\03 - Godless.wav
Peak level 96.6 %
Extraction speed 1.2 X
Track quality 100.0 %
Test CRC 7FB30BE3
Copy CRC 7FB30BE3
Track not present in AccurateRip database
Copy OK

Track 4

Filename C:\cuntfist\FLAC\Kanga - You And I Will Never Die (2021) [FLAC] {Artoffact}\04 - Touch.wav

Peak level 96.6 %
Extraction speed 1.3 X
Track quality 100.0 %
Test CRC 77DE924F
Copy CRC 77DE924F
Track not present in AccurateRip database
Copy OK

Track 5

Filename C:\cuntfist\FLAC\Kanga - You And I Will Never Die (2021) [FLAC] {Artoffact}\05 - Brother.wav

Peak level 96.6 %
Extraction speed 1.3 X
Track quality 99.9 %
Test CRC 0B873255
Copy CRC 0B873255
Track not present in AccurateRip database
Copy OK

Track 6

Filename C:\cuntfist\FLAC\Kanga - You And I Will Never Die (2021) [FLAC] {Artoffact}\06 - Interlude.wav

Peak level 96.5 %
Extraction speed 0.8 X
Track quality 100.0 %
Test CRC 72E67624
Copy CRC 72E67624
Track not present in AccurateRip database
Copy OK

Track 7

Filename C:\cuntfist\FLAC\Kanga - You And I Will Never Die (2021) [FLAC] {Artoffact}\07 - Moscow.wav

Peak level 96.6 %
Extraction speed 1.5 X
Track quality 100.0 %
Test CRC 4370DC08
Copy CRC 4370DC08
Track not present in AccurateRip database
Copy OK

Track 8

Filename C:\cuntfist\FLAC\Kanga - You And I Will Never Die (2021) [FLAC] {Artoffact}\08 - Violence.wav

Peak level 96.6 %
Extraction speed 1.6 X
Track quality 100.0 %
Test CRC E8411572
Copy CRC E8411572
Track not present in AccurateRip database
Copy OK

Track 9

Filename C:\cuntfist\FLAC\Kanga - You And I Will Never Die (2021) [FLAC] {Artoffact}\09 - Ritual City.wav

Peak level 96.6 %
Extraction speed 1.7 X
Track quality 100.0 %
Test CRC 499A8CC1
Copy CRC 499A8CC1
Track not present in AccurateRip database
Copy OK

Track 10

Filename C:\cuntfist\FLAC\Kanga - You And I Will Never Die (2021) [FLAC] {Artoffact}\10 - Say Goodbye.wav

Peak level 96.6 %
Extraction speed 1.8 X
Track quality 100.0 %
Test CRC 02900635
Copy CRC 02900635
Track not present in AccurateRip database
Copy OK

Track 11

Filename C:\cuntfist\FLAC\Kanga - You And I Will Never Die (2021) [FLAC] {Artoffact}\11 - Waiting.wav

Peak level 96.6 %
Extraction speed 1.7 X
Track quality 99.9 %
Test CRC 879ECF56
Copy CRC 879ECF56
Track not present in AccurateRip database
Copy OK

Track 12

Filename C:\cuntfist\FLAC\Kanga - You And I Will Never Die (2021) [FLAC] {Artoffact}\12 - Untie.wav

Peak level 96.6 %
Extraction speed 2.0 X
Track quality 100.0 %
Test CRC 7DB8F41C
Copy CRC 7DB8F41C
Track not present in AccurateRip database
Copy OK

None of the tracks are present in the AccurateRip database

No errors occurred

End of status report

–– CUETools DB Plugin V2.1.6

[CTDB TOCID: ejfAVX9xT4xiw4i3fbETvMwMGH4-] found
Submit result: The underlying connection was closed: A connection that was expected to be kept alive was closed by the server.
Track | CTDB Status
1 | (2/2) Accurately ripped
2 | (2/2) Accurately ripped
3 | (2/2) Accurately ripped
4 | (2/2) Accurately ripped
5 | (2/2) Accurately ripped
6 | (2/2) Accurately ripped
7 | (2/2) Accurately ripped
8 | (2/2) Accurately ripped
9 | (2/2) Accurately ripped
10 | (2/2) Accurately ripped
11 | (2/2) Accurately ripped
12 | (2/2) Accurately ripped

==== Log checksum F4FA9CAD242CCFF9AF7320CC8CEAFE6FBB77B728F0FD0FE2D059A6497890A486 ====


Kanga - You And I Will Never Die (2021) {Artoffact}


Thank you to the original uploader.