Tags
Language
Tags

Kalev Kuljus, Lithuanian Chamber Orchestra - Vivaldi, Marcello, Telemann, J.S. Bach: Concertos for oboe & oboe d'amore (2018)

Posted By: Designol
Kalev Kuljus, Lithuanian Chamber Orchestra - Vivaldi, Marcello, Telemann, J.S. Bach: Concertos for oboe & oboe d'amore (2018)

Vivaldi, Marcello, Telemann, J.S. Bach: Concertos for oboe & oboe d'amore (2018)
Kalev Kuljus, oboe, oboe d'amore, conductor; Lithuanian Chamber Orchestra

EAC | FLAC | Image (Cue&Log) ~ 242 Mb | Scans included | Time: 00:55:00
Classical, Baroque | Label: Alba Records | # ABCD 411

Hamburg-based Estonian oboist Kalev Kuljus earned his music degrees from the Estonian Academy of Music, the Lyon National Conservatory, and the Music University Karlsruhe. He has performed alongside many renowned orchestras, including the Tallinn Chamber Orchestra and the Estonian National Symphony Orchestra. Kuljus’s repertoire covers music from Baroque to Contemporary, and many Estonian composers have dedicated works to him. This album, Kuljus’s debut, includes some of the most loved oboe concertos from the Baroque era from Vivaldi, Telemann, Bach, and Marcello. Working alongside the Lithuanian Chamber Orchestra, Kuljus sounds at his very best in these recordings.

Kalev Kuljus, Lithuanian Chamber Orchestra - Vivaldi, Marcello, Telemann, J.S. Bach: Concertos for oboe & oboe d'amore (2018)



Kalev Kuljus oboe, oboe d'amore, conductor
Lithuanian Chamber Orchestra

Tracklist:

Antonio Vivaldi (1678-1741)
Concerto for oboe, strings & continuo in C major, RV 447
01. I. Allegro non molto (5:02)
02. II. Larghetto (3:26)
03. III. Minuetto (5:39)

Alessandro Marcello (1673-1747)
Concerto for oboe, strings & continuo in D minor, SF. 935
04. I. Andante e spiccato (3:21)
05. II. Adagio (3:40)
06. III. Presto (4:00)

Georg Philipp Telemann (1681-1767)
Concerto for oboe d'amore, strings & continuo in G major, TWV 51:G3
07. I. Soave (3:07)
08. II. Allegro (5:02)
09. III. Adagio (2:41)
10. IV. Vivace (5:36)

Johann Sebastian Bach (1685-1750)
Concerto for oboe d'amore, strings & continuo in A major, BWV 1055R
11. I. Allegro (4:19)
12. II. Larghetto (4:40)
13. III. Allegro ma non tanto (4:27)


Exact Audio Copy V1.3 from 2. September 2016

EAC extraction logfile from 18. January 2018, 21:53

Kalev Kuljus, Lithuanian Chamber Orchestra / Vivaldi, Marcello, Telemann, Bach - Concertos for oboe & oboe d'amore

Used drive : PLDS DVD-RW DU8A6SH Adapter: 1 ID: 0

Read mode : Secure
Utilize accurate stream : Yes
Defeat audio cache : Yes
Make use of C2 pointers : No

Read offset correction : 6
Overread into Lead-In and Lead-Out : No
Fill up missing offset samples with silence : Yes
Delete leading and trailing silent blocks : No
Null samples used in CRC calculations : Yes
Used interface : Native Win32 interface for Win NT & 2000

Used output format : User Defined Encoder
Selected bitrate : 128 kBit/s
Quality : High
Add ID3 tag : No
Command line compressor : C:\Program Files (x86)\Exact Audio Copy\Flac\flac.exe
Additional command line options : -V -8 -T "Date=%year%" -T "Genre=%genre%" %source%


TOC of the extracted CD

Track | Start | Length | Start sector | End sector
––––––––––––––––––––––––––––-
1 | 0:00.00 | 5:01.46 | 0 | 22620
2 | 5:01.46 | 3:25.60 | 22621 | 38055
3 | 8:27.31 | 5:38.72 | 38056 | 63477
4 | 14:06.28 | 3:21.05 | 63478 | 78557
5 | 17:27.33 | 3:39.49 | 78558 | 95031
6 | 21:07.07 | 4:00.29 | 95032 | 113060
7 | 25:07.36 | 3:07.15 | 113061 | 127100
8 | 28:14.51 | 5:02.12 | 127101 | 149762
9 | 33:16.63 | 2:40.56 | 149763 | 161818
10 | 35:57.44 | 5:36.37 | 161819 | 187055
11 | 41:34.06 | 4:19.17 | 187056 | 206497
12 | 45:53.23 | 4:40.05 | 206498 | 227502
13 | 50:33.28 | 4:26.57 | 227503 | 247509


Range status and errors

Selected range

Filename C:\temp\Vivaldi, Marcello, Telemann, Bach - Concertos for oboe & oboe d'amore\Vivaldi, Marcello, Telemann, Bach - Concertos for oboe & oboe d'amore.wav

Peak level 91.2 %
Extraction speed 3.9 X
Range quality 100.0 %
Test CRC D47A5F94
Copy CRC D47A5F94
Copy OK

No errors occurred


AccurateRip summary

Track 1 not present in database
Track 2 not present in database
Track 3 not present in database
Track 4 not present in database
Track 5 not present in database
Track 6 not present in database
Track 7 not present in database
Track 8 not present in database
Track 9 not present in database
Track 10 not present in database
Track 11 not present in database
Track 12 not present in database
Track 13 not present in database

None of the tracks are present in the AccurateRip database

End of status report

==== Log checksum 0D5F399C38B3208C9C21CCA69C2E61C13656C10B67445216E81883769B8E2925 ====

[CUETools log; Date: 23.11.2018 4:43:30; Version: 2.1.4]
[CTDB TOCID: VBAPleH2lB9LwCw_yisabDxTLbA-] found.
Track | CTDB Status
1 | (1/1) Accurately ripped
2 | (1/1) Accurately ripped
3 | (1/1) Accurately ripped
4 | (1/1) Accurately ripped
5 | (1/1) Accurately ripped
6 | (1/1) Accurately ripped
7 | (1/1) Accurately ripped
8 | (1/1) Accurately ripped
9 | (1/1) Accurately ripped
10 | (1/1) Accurately ripped
11 | (1/1) Accurately ripped
12 | (1/1) Accurately ripped
13 | (1/1) Accurately ripped
[AccurateRip ID: 001a3728-01050f84-ce0ce40d] disk not present in database.

Track Peak [ CRC32 ] [W/O NULL] [ LOG ]
– 91,2 [D47A5F94] [394DA3CB] CRC32
01 68,1 [78527A1B] [7AA9A87F]
02 68,1 [0C154BBD] [439F2086]
03 78,0 [0A379127] [1A08F81D]
04 74,8 [B19B63B8] [8EE0361E]
05 57,0 [46806C7B] [6D647FA1]
06 91,2 [A1395B8D] [15945C78]
07 66,2 [0AB5B54E] [9173BBE5]
08 74,9 [A6FBE893] [D467DBEE]
09 68,9 [8FFB25CF] [EB3889CC]
10 89,5 [FFF92432] [178BEF8D]
11 74,2 [6F609B69] [ACE997B3]
12 59,8 [4A3524A7] [8A038E11]
13 65,0 [11B6892A] [38B4D061]

foobar2000 1.2 / Dynamic Range Meter 1.1.1
log date: 2018-11-23 04:41:05

––––––––––––––––––––––––––––––––––––––––
Analyzed: Kalev Kuljus, Lithuanian Chamber Orchestra / Vivaldi, Marcello, Telemann, Bach - Concertos for oboe & oboe d'amore
––––––––––––––––––––––––––––––––––––––––

DR Peak RMS Duration Track
––––––––––––––––––––––––––––––––––––––––
DR13 -3.33 dB -21.57 dB 5:02 01-Vivaldi: Concerto for oboe, strings & continuo in C major, RV 447 - I. Allegro non molto
DR14 -3.33 dB -22.65 dB 3:26 02-Vivaldi: Concerto for oboe, strings & continuo in C major, RV 447 - II. Larghetto
DR15 -2.16 dB -20.81 dB 5:39 03-Vivaldi: Concerto for oboe, strings & continuo in C major, RV 447 - III. Minuetto
DR13 -2.51 dB -19.41 dB 3:21 04-Marcello: Concerto for oboe, strings & continuo in D minor, SF. 935 - I. Andante e spiccato
DR11 -4.88 dB -20.77 dB 3:40 05-Marcello: Concerto for oboe, strings & continuo in D minor, SF. 935 - II. Adagio
DR15 -0.79 dB -19.95 dB 4:00 06-Marcello: Concerto for oboe, strings & continuo in D minor, SF. 935 - III. Presto
DR11 -3.58 dB -20.83 dB 3:07 07-Telemann: Concerto for oboe d'amore, strings & continuo in G major, TWV 51:G3 - I. Soave
DR13 -2.50 dB -20.51 dB 5:02 08-Telemann: Concerto for oboe d'amore, strings & continuo in G major, TWV 51:G3 - II. Allegro
DR10 -3.23 dB -19.81 dB 2:41 09-Telemann: Concerto for oboe d'amore, strings & continuo in G major, TWV 51:G3 - III. Adagio
DR13 -0.96 dB -18.62 dB 5:36 10-Telemann: Concerto for oboe d'amore, strings & continuo in G major, TWV 51:G3 - IV. Vivace
DR13 -2.59 dB -20.24 dB 4:19 11-Bach: Concerto for oboe d'amore, strings & continuo in A major, BWV 1055R - I. Allegro
DR12 -4.45 dB -19.96 dB 4:40 12-Bach: Concerto for oboe d'amore, strings & continuo in A major, BWV 1055R - II. Larghetto
DR13 -3.73 dB -20.11 dB 4:27 13-Bach: Concerto for oboe d'amore, strings & continuo in A major, BWV 1055R - III. Allegro ma non tanto
––––––––––––––––––––––––––––––––––––––––

Number of tracks: 13
Official DR value: DR13

Samplerate: 44100 Hz
Channels: 2
Bits per sample: 16
Bitrate: 596 kbps
Codec: FLAC
================================================================================

Kalev Kuljus, Lithuanian Chamber Orchestra - Vivaldi, Marcello, Telemann, J.S. Bach: Concertos for oboe & oboe d'amore (2018)

All thanks to original releaser

More interesting music in My Blog