Tags
Language
Tags

Kasey Chambers - The Captain (Special Bonus Edition) (2000)

Posted By: Rtax
Kasey Chambers - The Captain (Special Bonus Edition) (2000)

Kasey Chambers - The Captain (Special Bonus Edition) (2000)
EAC Rip | FLAC (tracks, cue, log, scans) - 537 MB | 1:10:48
Country-Rock, Folk-Rock | Label: EMI 7243 5 29281 2 5

In "Southern Kind of Life," a song on her debut album, The Captain, Kasey Chambers convincingly describes a rural Southern upbringing – poverty stricken and Bible dominated – and since she performs in a style associated with the Appalachians as developed into commercial country music, it's easy to assume she's singing about the American South.

But she isn't; she's singing about the Nullarbor Plain in south-central Australia, where she grew up, apparently listening to a lot of country records. The result is a style that will remind some listeners of Dolly Parton and others of Lucinda Williams, as Chambers, backed by her father and produced by her brother, both of them members of the family's Dead Ringer Band, sings in a breathy voice that breaks expressively. Her tunes tend to be either "I am" songs of self-description like "Southern Kind of Life" and "Cry Like a Baby," accounts of romantic difficulties, or celebrations of life on the road. Though she has a gift for wordplay that favors internal rhyme, her imagery can be trite ("You got the car and I got the break"), and her compositions are less interesting in themselves than in the performances she gives them. Like many young artists, she is still a compendium of her influences rather than a distinct figure unto herself, but The Captain is a sincere effort steeped in the kind of country/folk/rock style that made Lucinda Williams a critical success in the late '90s, and it is likely to attract similar attention.

Tracklist

CD1:
01 - Cry Like A Baby
02 - The Captain
03 - This Flower
04 - You Got The Car
05 - These Pines
06 - Don't Talk Back
07 - Southern Kind Of Life
08 - Mr Baylis
09 - The Hard Way
10 - Last Hard Bible
11 - Don't Go
12 - We're All Gonna Die Someday
Exact Audio Copy V1.0 beta 3 from 29. August 2011

EAC extraction logfile from 6. May 2014, 18:47

Kasey Chambers / The Captain

Used drive : TSSTcorpCDDVDW SH-224DB Adapter: 0 ID: 0

Read mode : Secure
Utilize accurate stream : Yes
Defeat audio cache : Yes
Make use of C2 pointers : No

Read offset correction : 6
Overread into Lead-In and Lead-Out : No
Fill up missing offset samples with silence : Yes
Delete leading and trailing silent blocks : No
Null samples used in CRC calculations : Yes
Used interface : Native Win32 interface for Win NT & 2000
Gap handling : Appended to previous track

Used output format : User Defined Encoder
Selected bitrate : 1024 kBit/s
Quality : High
Add ID3 tag : No
Command line compressor : C:\Program Files (x86)\Exact Audio Copy\Flac\flac.exe
Additional command line options : -8 -V -T "ARTIST=%artist%" -T "TITLE=%title%" -T "ALBUM=%albumtitle%" -T "DATE=%year%" -T "TRACKNUMBER=%tracknr%" -T "TOTALTRACKS=%numtracks%" -T "GENRE=%genre%" -T "ALBUMARTIST=%albumartist%" -T "ALBUM ARTIST=%albumartist%" -T "COMMENT=EAC Secure Mode, Test & Copy, AccurateRip, FLAC -8" %source%


TOC of the extracted CD

Track | Start | Length | Start sector | End sector
––––––––––––––––––––––––––––-
1 | 0:00.00 | 4:00.67 | 0 | 18066
2 | 4:00.67 | 4:32.43 | 18067 | 38509
3 | 8:33.35 | 2:50.70 | 38510 | 51329
4 | 11:24.30 | 4:05.15 | 51330 | 69719
5 | 15:29.45 | 4:04.42 | 69720 | 88061
6 | 19:34.12 | 4:48.48 | 88062 | 109709
7 | 24:22.60 | 4:01.02 | 109710 | 127786
8 | 28:23.62 | 3:47.00 | 127787 | 144811
9 | 32:10.62 | 2:55.10 | 144812 | 157946
10 | 35:05.72 | 2:23.65 | 157947 | 168736
11 | 37:29.62 | 3:01.65 | 168737 | 182376
12 | 40:31.52 | 2:09.05 | 182377 | 192056


Track 1

Filename C:\Users\Ian\Music\Kasey Chambers - The Captain (2000) [FLAC]\CD1\01 - Cry Like A Baby.wav

Pre-gap length 0:00:02.00

Peak level 94.2 %
Extraction speed 1.7 X
Track quality 100.0 %
Test CRC C3AE1AD1
Copy CRC C3AE1AD1
Accurately ripped (confidence 10) [437837AF] (AR v2)
Copy OK

Track 2

Filename C:\Users\Ian\Music\Kasey Chambers - The Captain (2000) [FLAC]\CD1\02 - The Captain.wav

Pre-gap length 0:00:01.28

Peak level 90.7 %
Extraction speed 1.7 X
Track quality 99.9 %
Test CRC E2EB19C2
Copy CRC E2EB19C2
Accurately ripped (confidence 11) [9B9CA2A3] (AR v2)
Copy OK

Track 3

Filename C:\Users\Ian\Music\Kasey Chambers - The Captain (2000) [FLAC]\CD1\03 - This Flower.wav

Pre-gap length 0:00:01.16

Peak level 90.9 %
Extraction speed 1.9 X
Track quality 100.0 %
Test CRC 36A0943A
Copy CRC 36A0943A
Accurately ripped (confidence 11) [FB5B77BF] (AR v2)
Copy OK

Track 4

Filename C:\Users\Ian\Music\Kasey Chambers - The Captain (2000) [FLAC]\CD1\04 - You Got The Car.wav

Pre-gap length 0:00:02.13

Peak level 92.3 %
Extraction speed 2.2 X
Track quality 100.0 %
Test CRC C02BD3FD
Copy CRC C02BD3FD
Accurately ripped (confidence 10) [42DDA1AD] (AR v2)
Copy OK

Track 5

Filename C:\Users\Ian\Music\Kasey Chambers - The Captain (2000) [FLAC]\CD1\05 - These Pines.wav

Pre-gap length 0:00:01.21

Peak level 91.3 %
Extraction speed 2.4 X
Track quality 100.0 %
Test CRC EAC13862
Copy CRC EAC13862
Accurately ripped (confidence 11) [EE735706] (AR v2)
Copy OK

Track 6

Filename C:\Users\Ian\Music\Kasey Chambers - The Captain (2000) [FLAC]\CD1\06 - Don't Talk Back.wav

Pre-gap length 0:00:03.53

Peak level 93.2 %
Extraction speed 2.6 X
Track quality 100.0 %
Test CRC 7A35637B
Copy CRC 7A35637B
Accurately ripped (confidence 11) [FAE42096] (AR v2)
Copy OK

Track 7

Filename C:\Users\Ian\Music\Kasey Chambers - The Captain (2000) [FLAC]\CD1\07 - Southern Kind Of Life.wav

Pre-gap length 0:00:02.38

Peak level 91.4 %
Extraction speed 2.2 X
Track quality 99.9 %
Test CRC 27753DCE
Copy CRC 27753DCE
Accurately ripped (confidence 10) [88065E6D] (AR v2)
Copy OK

Track 8

Filename C:\Users\Ian\Music\Kasey Chambers - The Captain (2000) [FLAC]\CD1\08 - Mr Baylis.wav

Pre-gap length 0:00:03.18

Peak level 92.8 %
Extraction speed 2.7 X
Track quality 100.0 %
Test CRC 4FC997D1
Copy CRC 4FC997D1
Accurately ripped (confidence 11) [6AC74773] (AR v2)
Copy OK

Track 9

Filename C:\Users\Ian\Music\Kasey Chambers - The Captain (2000) [FLAC]\CD1\09 - The Hard Way.wav

Pre-gap length 0:00:05.00

Peak level 92.3 %
Extraction speed 2.7 X
Track quality 100.0 %
Test CRC D8B79238
Copy CRC D8B79238
Accurately ripped (confidence 11) [9E12CC92] (AR v2)
Copy OK

Track 10

Filename C:\Users\Ian\Music\Kasey Chambers - The Captain (2000) [FLAC]\CD1\10 - Last Hard Bible.wav

Pre-gap length 0:00:01.53

Peak level 93.5 %
Extraction speed 2.7 X
Track quality 100.0 %
Test CRC CEF6C793
Copy CRC CEF6C793
Accurately ripped (confidence 11) [514E463F] (AR v2)
Copy OK

Track 11

Filename C:\Users\Ian\Music\Kasey Chambers - The Captain (2000) [FLAC]\CD1\11 - Don't Go.wav

Pre-gap length 0:00:01.08

Peak level 89.6 %
Extraction speed 2.9 X
Track quality 100.0 %
Test CRC 5BEE98BB
Copy CRC 5BEE98BB
Accurately ripped (confidence 10) [9DADC4D3] (AR v2)
Copy OK

Track 12

Filename C:\Users\Ian\Music\Kasey Chambers - The Captain (2000) [FLAC]\CD1\12 - We're All Gonna Die Someday.wav

Pre-gap length 0:00:03.65

Peak level 92.9 %
Extraction speed 2.7 X
Track quality 100.0 %
Test CRC 9C99B9BB
Copy CRC 9C99B9BB
Accurately ripped (confidence 11) [F5805F54] (AR v2)
Copy OK


All tracks accurately ripped

No errors occurred

End of status report

==== Log checksum B58F50FF4C766E55737FB5E53D2E14BD919DA17588640ADBC7EA505F4321BE86 ====


CD2
01 - I Still Pray
02 - Dam
03 - Freight Train
04 - Water In The Fuel
05 - Another Lonely Day
06 - Better Be Home Soon
07 - Heartbreak Heartmend
Exact Audio Copy V1.0 beta 3 from 29. August 2011

EAC extraction logfile from 6. May 2014, 19:22

Kasey Chambers / The Captain (Bonus Disc)

Used drive : TSSTcorpCDDVDW SH-224DB Adapter: 0 ID: 0

Read mode : Secure
Utilize accurate stream : Yes
Defeat audio cache : Yes
Make use of C2 pointers : No

Read offset correction : 6
Overread into Lead-In and Lead-Out : No
Fill up missing offset samples with silence : Yes
Delete leading and trailing silent blocks : No
Null samples used in CRC calculations : Yes
Used interface : Native Win32 interface for Win NT & 2000
Gap handling : Appended to previous track

Used output format : User Defined Encoder
Selected bitrate : 1024 kBit/s
Quality : High
Add ID3 tag : No
Command line compressor : C:\Program Files (x86)\Exact Audio Copy\Flac\flac.exe
Additional command line options : -8 -V -T "ARTIST=%artist%" -T "TITLE=%title%" -T "ALBUM=%albumtitle%" -T "DATE=%year%" -T "TRACKNUMBER=%tracknr%" -T "TOTALTRACKS=%numtracks%" -T "GENRE=%genre%" -T "ALBUMARTIST=%albumartist%" -T "ALBUM ARTIST=%albumartist%" -T "COMMENT=EAC Secure Mode, Test & Copy, AccurateRip, FLAC -8" %source%


TOC of the extracted CD

Track | Start | Length | Start sector | End sector
––––––––––––––––––––––––––––-
1 | 0:00.00 | 4:30.55 | 0 | 20304
2 | 4:30.55 | 5:34.02 | 20305 | 45356
3 | 10:04.57 | 2:46.60 | 45357 | 57866
4 | 12:51.42 | 4:48.73 | 57867 | 79539
5 | 17:40.40 | 4:03.25 | 79540 | 97789
6 | 21:43.65 | 3:18.72 | 97790 | 112711
7 | 25:02.62 | 3:04.13 | 112712 | 126524


Track 1

Filename C:\Users\Ian\Music\Kasey Chambers - The Captain (2000) [FLAC]\CD2\01 - I Still Pray.wav

Pre-gap length 0:00:02.00

Peak level 99.8 %
Extraction speed 1.8 X
Track quality 100.0 %
Test CRC 8C91000A
Copy CRC 8C91000A
Accurately ripped (confidence 3) [75743FA9] (AR v2)
Copy OK

Track 2

Filename C:\Users\Ian\Music\Kasey Chambers - The Captain (2000) [FLAC]\CD2\02 - Dam.wav

Pre-gap length 0:00:02.38

Peak level 100.0 %
Extraction speed 2.0 X
Track quality 100.0 %
Test CRC B89ED621
Copy CRC B89ED621
Accurately ripped (confidence 3) [2D6D88F1] (AR v2)
Copy OK

Track 3

Filename C:\Users\Ian\Music\Kasey Chambers - The Captain (2000) [FLAC]\CD2\03 - Freight Train.wav

Pre-gap length 0:00:02.37

Peak level 100.0 %
Extraction speed 2.0 X
Track quality 100.0 %
Test CRC FEBDB757
Copy CRC FEBDB757
Accurately ripped (confidence 3) [E357080B] (AR v2)
Copy OK

Track 4

Filename C:\Users\Ian\Music\Kasey Chambers - The Captain (2000) [FLAC]\CD2\04 - Water In The Fuel.wav

Pre-gap length 0:00:02.53

Peak level 97.1 %
Extraction speed 2.3 X
Track quality 100.0 %
Test CRC BA6F1728
Copy CRC BA6F1728
Accurately ripped (confidence 3) [13F42365] (AR v2)
Copy OK

Track 5

Filename C:\Users\Ian\Music\Kasey Chambers - The Captain (2000) [FLAC]\CD2\05 - Another Lonely Day.wav

Pre-gap length 0:00:02.38

Peak level 100.0 %
Extraction speed 2.0 X
Track quality 99.9 %
Test CRC 28589365
Copy CRC 28589365
Accurately ripped (confidence 3) [98BCBBB3] (AR v2)
Copy OK

Track 6

Filename C:\Users\Ian\Music\Kasey Chambers - The Captain (2000) [FLAC]\CD2\06 - Better Be Home Soon.wav

Pre-gap length 0:00:03.33

Peak level 100.0 %
Extraction speed 2.5 X
Track quality 100.0 %
Test CRC 9FE900E8
Copy CRC 9FE900E8
Accurately ripped (confidence 3) [D71322F9] (AR v2)
Copy OK

Track 7

Filename C:\Users\Ian\Music\Kasey Chambers - The Captain (2000) [FLAC]\CD2\07 - Heartbreak Heartmend.wav

Pre-gap length 0:00:02.47

Peak level 99.8 %
Extraction speed 2.6 X
Track quality 100.0 %
Test CRC 259423E8
Copy CRC 259423E8
Accurately ripped (confidence 3) [513A8A40] (AR v2)
Copy OK


All tracks accurately ripped

No errors occurred

End of status report

==== Log checksum EB20F0E520DEFBE0FB990441C90F8038F3E64D1599262FF3CF64171D17EB0187 ====