Tags
Language
Tags

Kate Bush - Remastered Part 2 (11CD Edition) (2018)

Posted By: Pisulik
Kate Bush - Remastered Part 2 (11CD Edition) (2018)

Kate Bush - Remastered Part 2 (11CD Edition) (2018)
EAC Rip | FLAC (Tracks) +cue, log - 2.42 GB | 08:09:31
Pop, Pop Rock | Label: Fish People

Kate Bush's Kate Bush Remastered Part 2. Remastered and available here on Six-CD Box Set. Includes Aerial, Director's Cut, 50 Words for Snow, Before the Dawn (Original Mastering) 12" Mixes, The Other Side 1, The Other Side 2, and In Others' Words. The art-rock icon personally remastered the material with producer/engineer James Guthrie, who previously worked on Bush’s 1985 LP, Hounds of Love. The singer’s 10 albums are spread across the two CD boxes. Many of the records have been unavailable for decades. CDx6 - Remastered Six-CD Box Set. Includes Aerial, Director's Cut, 50 Words for Snow, Before the Dawn (Original Mastering) 12" Mixes, The Other Side 1, The Other Side 2, and In Others' Words.

TRACKLIST

Discs 1 + 2
AERIAL (2005)
1-1. King of the Mountain
1-2. Pi
1-3. Bertie
1-4. Mrs. Bartolozzi
1-5. How to be Invisible
1-6. Joanni
1-7. A Coral Room

Exact Audio Copy V1.3 from 2. September 2016

EAC extraction logfile from 30. November 2018, 16:33

Kate Bush / Aerial: A Sea of Honey (Disc 1)

Used drive : PIONEER BD-RW BDR-XD05 Adapter: 1 ID: 1

Read mode : Secure
Utilize accurate stream : Yes
Defeat audio cache : Yes
Make use of C2 pointers : No

Read offset correction : 667
Overread into Lead-In and Lead-Out : No
Fill up missing offset samples with silence : Yes
Delete leading and trailing silent blocks : No
Null samples used in CRC calculations : Yes
Used interface : Native Win32 interface for Win NT & 2000
Gap handling : Appended to previous track

Used output format : User Defined Encoder
Selected bitrate : 1024 kBit/s
Quality : High
Add ID3 tag : No
Command line compressor : C:\Program Files (x86)\Exact Audio Copy\FLAC\FLAC.EXE
Additional command line options : -8 -e -p -V -T "ARTIST=%artist%" -T "TITLE=%title%" -T "ALBUM=%albumtitle%" -T "DATE=%year%" -T "TRACKNUMBER=%tracknr%" -T "GENRE=%genre%" -T "PERFORMER=%albuminterpret%" -T "COMPOSER=%composer%" %haslyrics%–tag-from-file=LYRICS="%lyricsfile%"%haslyrics% -T "ALBUMARTIST=%albumartist%" -T "DISCNUMBER=%cdnumber%" -T "TOTALDISCS=%totalcds%" -T "TOTALTRACKS=%numtracks%" -T "COMMENT=%comment%" %source% -o %dest%


TOC of the extracted CD

Track | Start | Length | Start sector | End sector
––––––––––––––––––––––––––––-
1 | 0:00.00 | 4:53.53 | 0 | 22027
2 | 4:53.53 | 6:09.40 | 22028 | 49742
3 | 11:03.18 | 4:19.10 | 49743 | 69177
4 | 15:22.28 | 5:58.72 | 69178 | 96099
5 | 21:21.25 | 5:32.23 | 96100 | 121022
6 | 26:53.48 | 4:56.13 | 121023 | 143235
7 | 31:49.61 | 6:14.40 | 143236 | 171325


Track 1

Filename E:\Music Collection 2018-2019\Kate Bush - Remastered Part II (2018) [FLAC]\Kate Bush - Aerial (2005) [FLAC] {2018}\Disc 1\01 - King of the Mountain.wav

Pre-gap length 0:00:02.00

Peak level 100.0 %
Extraction speed 3.0 X
Track quality 100.0 %
Test CRC 6F7F26A3
Copy CRC 6F7F26A3
Track not present in AccurateRip database
Copy OK

Track 2

Filename E:\Music Collection 2018-2019\Kate Bush - Remastered Part II (2018) [FLAC]\Kate Bush - Aerial (2005) [FLAC] {2018}\Disc 1\02 - Pi.wav

Peak level 100.0 %
Extraction speed 3.1 X
Track quality 99.9 %
Test CRC 55DF2830
Copy CRC 55DF2830
Track not present in AccurateRip database
Copy OK

Track 3

Filename E:\Music Collection 2018-2019\Kate Bush - Remastered Part II (2018) [FLAC]\Kate Bush - Aerial (2005) [FLAC] {2018}\Disc 1\03 - Bertie.wav

Peak level 87.2 %
Extraction speed 3.6 X
Track quality 100.0 %
Test CRC F8997F53
Copy CRC F8997F53
Track not present in AccurateRip database
Copy OK

Track 4

Filename E:\Music Collection 2018-2019\Kate Bush - Remastered Part II (2018) [FLAC]\Kate Bush - Aerial (2005) [FLAC] {2018}\Disc 1\04 - Mrs. Bartolozzi.wav

Peak level 91.5 %
Extraction speed 4.0 X
Track quality 100.0 %
Test CRC 1A5E846B
Copy CRC 1A5E846B
Track not present in AccurateRip database
Copy OK

Track 5

Filename E:\Music Collection 2018-2019\Kate Bush - Remastered Part II (2018) [FLAC]\Kate Bush - Aerial (2005) [FLAC] {2018}\Disc 1\05 - How to Be Invisible.wav

Peak level 100.0 %
Extraction speed 3.9 X
Track quality 99.9 %
Test CRC 607308B6
Copy CRC 607308B6
Track not present in AccurateRip database
Copy OK

Track 6

Filename E:\Music Collection 2018-2019\Kate Bush - Remastered Part II (2018) [FLAC]\Kate Bush - Aerial (2005) [FLAC] {2018}\Disc 1\06 - Joanni.wav

Peak level 100.0 %
Extraction speed 4.4 X
Track quality 100.0 %
Test CRC F33943CB
Copy CRC F33943CB
Track not present in AccurateRip database
Copy OK

Track 7

Filename E:\Music Collection 2018-2019\Kate Bush - Remastered Part II (2018) [FLAC]\Kate Bush - Aerial (2005) [FLAC] {2018}\Disc 1\07 - A Coral Room.wav

Peak level 91.5 %
Extraction speed 4.4 X
Track quality 99.9 %
Test CRC 05AE68A3
Copy CRC 05AE68A3
Track not present in AccurateRip database
Copy OK


None of the tracks are present in the AccurateRip database

No errors occurred

End of status report

–– CUETools DB Plugin V2.1.6

[CTDB TOCID: HfRURu2Y4Oy0PXnUjhmJHx1Oxag-] found
Submit result: HfRURu2Y4Oy0PXnUjhmJHx1Oxag- has been confirmed
Track | CTDB Status
1 | (7/7) Accurately ripped
2 | (7/7) Accurately ripped
3 | (7/7) Accurately ripped
4 | (7/7) Accurately ripped
5 | (7/7) Accurately ripped
6 | (7/7) Accurately ripped
7 | (7/7) Accurately ripped


==== Log checksum CF9842D483CAD4F8C0BE2C04EE02A020316EE1CA1C8732E021BA6A5156CCBD9C ====


2-1. Prelude
2-2. Prologue
2-3. An Architect's Dream
2-4. The Painter's Link
2-5. Sunset
2-6. Aerial Tal
2-7. Somewhere in Between
2-8. Nocturn
2-9. Aerial

Exact Audio Copy V1.3 from 2. September 2016

EAC extraction logfile from 30. November 2018, 16:04

Kate Bush / Aerial: A Sky of Honey (Disc 2)

Used drive : PIONEER BD-RW BDR-XD05 Adapter: 1 ID: 1

Read mode : Secure
Utilize accurate stream : Yes
Defeat audio cache : Yes
Make use of C2 pointers : No

Read offset correction : 667
Overread into Lead-In and Lead-Out : No
Fill up missing offset samples with silence : Yes
Delete leading and trailing silent blocks : No
Null samples used in CRC calculations : Yes
Used interface : Native Win32 interface for Win NT & 2000
Gap handling : Appended to previous track

Used output format : User Defined Encoder
Selected bitrate : 1024 kBit/s
Quality : High
Add ID3 tag : No
Command line compressor : C:\Program Files (x86)\Exact Audio Copy\FLAC\FLAC.EXE
Additional command line options : -8 -e -p -V -T "ARTIST=%artist%" -T "TITLE=%title%" -T "ALBUM=%albumtitle%" -T "DATE=%year%" -T "TRACKNUMBER=%tracknr%" -T "GENRE=%genre%" -T "PERFORMER=%albuminterpret%" -T "COMPOSER=%composer%" %haslyrics%–tag-from-file=LYRICS="%lyricsfile%"%haslyrics% -T "ALBUMARTIST=%albumartist%" -T "DISCNUMBER=%cdnumber%" -T "TOTALDISCS=%totalcds%" -T "TOTALTRACKS=%numtracks%" -T "COMMENT=%comment%" %source% -o %dest%


TOC of the extracted CD

Track | Start | Length | Start sector | End sector
––––––––––––––––––––––––––––-
1 | 0:00.00 | 1:26.55 | 0 | 6504
2 | 1:26.55 | 5:41.23 | 6505 | 32102
3 | 7:08.03 | 4:54.64 | 32103 | 54216
4 | 12:02.67 | 1:35.59 | 54217 | 61400
5 | 13:38.51 | 5:58.42 | 61401 | 88292
6 | 19:37.18 | 1:01.40 | 88293 | 92907
7 | 20:38.58 | 5:04.23 | 92908 | 115730
8 | 25:43.06 | 8:29.15 | 115731 | 153920
9 | 34:12.21 | 7:56.25 | 153921 | 189645


Track 1

Filename E:\Music Collection 2018-2019\Kate Bush - Remastered Part II (2018) [FLAC]\Kate Bush - Aerial (2005) [FLAC] {2018}\Disc 2\01 - Prelude.wav

Pre-gap length 0:00:02.00

Peak level 21.0 %
Extraction speed 2.2 X
Track quality 100.0 %
Test CRC D7922E17
Copy CRC D7922E17
Track not present in AccurateRip database
Copy OK

Track 2

Filename E:\Music Collection 2018-2019\Kate Bush - Remastered Part II (2018) [FLAC]\Kate Bush - Aerial (2005) [FLAC] {2018}\Disc 2\02 - Prologue.wav

Peak level 70.3 %
Extraction speed 2.9 X
Track quality 99.9 %
Test CRC ACAEF3DA
Copy CRC ACAEF3DA
Track not present in AccurateRip database
Copy OK

Track 3

Filename E:\Music Collection 2018-2019\Kate Bush - Remastered Part II (2018) [FLAC]\Kate Bush - Aerial (2005) [FLAC] {2018}\Disc 2\03 - An Architect's Dream.wav

Peak level 60.2 %
Extraction speed 3.3 X
Track quality 100.0 %
Test CRC 39125FC4
Copy CRC 39125FC4
Track not present in AccurateRip database
Copy OK

Track 4

Filename E:\Music Collection 2018-2019\Kate Bush - Remastered Part II (2018) [FLAC]\Kate Bush - Aerial (2005) [FLAC] {2018}\Disc 2\04 - The Painter's Link.wav

Peak level 34.8 %
Extraction speed 2.8 X
Track quality 100.0 %
Test CRC 8ED17015
Copy CRC 8ED17015
Track not present in AccurateRip database
Copy OK

Track 5

Filename E:\Music Collection 2018-2019\Kate Bush - Remastered Part II (2018) [FLAC]\Kate Bush - Aerial (2005) [FLAC] {2018}\Disc 2\05 - Sunset.wav

Peak level 100.0 %
Extraction speed 3.6 X
Track quality 99.9 %
Test CRC 568F0A39
Copy CRC 568F0A39
Track not present in AccurateRip database
Copy OK

Track 6

Filename E:\Music Collection 2018-2019\Kate Bush - Remastered Part II (2018) [FLAC]\Kate Bush - Aerial (2005) [FLAC] {2018}\Disc 2\06 - Aerial Tal.wav

Peak level 25.6 %
Extraction speed 2.7 X
Track quality 100.0 %
Test CRC AA6D5C13
Copy CRC AA6D5C13
Track not present in AccurateRip database
Copy OK

Track 7

Filename E:\Music Collection 2018-2019\Kate Bush - Remastered Part II (2018) [FLAC]\Kate Bush - Aerial (2005) [FLAC] {2018}\Disc 2\07 - Somewhere in Between.wav

Peak level 85.6 %
Extraction speed 4.1 X
Track quality 100.0 %
Test CRC B87AAADE
Copy CRC B87AAADE
Track not present in AccurateRip database
Copy OK

Track 8

Filename E:\Music Collection 2018-2019\Kate Bush - Remastered Part II (2018) [FLAC]\Kate Bush - Aerial (2005) [FLAC] {2018}\Disc 2\08 - Nocturn.wav

Peak level 86.1 %
Extraction speed 4.7 X
Track quality 100.0 %
Test CRC 3DEA7FDE
Copy CRC 3DEA7FDE
Track not present in AccurateRip database
Copy OK

Track 9

Filename E:\Music Collection 2018-2019\Kate Bush - Remastered Part II (2018) [FLAC]\Kate Bush - Aerial (2005) [FLAC] {2018}\Disc 2\09 - Aerial.wav

Peak level 100.0 %
Extraction speed 5.0 X
Track quality 100.0 %
Test CRC A80BD6D4
Copy CRC A80BD6D4
Track not present in AccurateRip database
Copy OK


None of the tracks are present in the AccurateRip database

No errors occurred

End of status report

–– CUETools DB Plugin V2.1.6

[CTDB TOCID: BhMihiyfUid7y9fKxtoFO6xYu74-] found
Submit result: BhMihiyfUid7y9fKxtoFO6xYu74- has been confirmed
Track | CTDB Status
1 | (5/6) Accurately ripped
2 | (6/6) Accurately ripped
3 | (6/6) Accurately ripped
4 | (6/6) Accurately ripped
5 | (6/6) Accurately ripped
6 | (6/6) Accurately ripped
7 | (6/6) Accurately ripped
8 | (6/6) Accurately ripped
9 | (6/6) Accurately ripped


==== Log checksum 7AC2F456915B8D93232580B30B7A4D8E85B81855B848B54880886F1245A40E18 ====


Disc 3
DIRECTOR'S CUT (2011)
3-1. Flower of the Mountain
3-2. Song of Solomon
3-3. Lily
3-4. Deeper Understanding
3-5. The Red Shoes
3-6. This Woman's Work
3-7. Moments of Pleasure
3-8. Never Be Mine
3-9. Top of the City
3-10. And So is Love
3-11. Rubberband Girl

Exact Audio Copy V1.3 from 2. September 2016

EAC extraction logfile from 30. November 2018, 19:59

Kate Bush / Director's Cut

Used drive : PIONEER BD-RW BDR-XD05 Adapter: 1 ID: 1

Read mode : Secure
Utilize accurate stream : Yes
Defeat audio cache : Yes
Make use of C2 pointers : No

Read offset correction : 667
Overread into Lead-In and Lead-Out : No
Fill up missing offset samples with silence : Yes
Delete leading and trailing silent blocks : No
Null samples used in CRC calculations : Yes
Used interface : Native Win32 interface for Win NT & 2000
Gap handling : Appended to previous track

Used output format : User Defined Encoder
Selected bitrate : 1024 kBit/s
Quality : High
Add ID3 tag : No
Command line compressor : C:\Program Files (x86)\Exact Audio Copy\FLAC\FLAC.EXE
Additional command line options : -8 -e -p -V -T "ARTIST=%artist%" -T "TITLE=%title%" -T "ALBUM=%albumtitle%" -T "DATE=%year%" -T "TRACKNUMBER=%tracknr%" -T "GENRE=%genre%" -T "PERFORMER=%albuminterpret%" -T "COMPOSER=%composer%" %haslyrics%–tag-from-file=LYRICS="%lyricsfile%"%haslyrics% -T "ALBUMARTIST=%albumartist%" -T "DISCNUMBER=%cdnumber%" -T "TOTALDISCS=%totalcds%" -T "TOTALTRACKS=%numtracks%" -T "COMMENT=%comment%" %source% -o %dest%


TOC of the extracted CD

Track | Start | Length | Start sector | End sector
––––––––––––––––––––––––––––-
1 | 0:00.00 | 5:15.06 | 0 | 23630
2 | 5:15.06 | 4:45.48 | 23631 | 45053
3 | 10:00.54 | 4:03.09 | 45054 | 63287
4 | 14:03.63 | 6:33.45 | 63288 | 92807
5 | 20:37.33 | 4:57.72 | 92808 | 115154
6 | 25:35.30 | 6:28.33 | 115155 | 144287
7 | 32:03.63 | 6:33.15 | 144288 | 173777
8 | 38:37.03 | 5:04.60 | 173778 | 196637
9 | 43:41.63 | 4:23.60 | 196638 | 216422
10 | 48:05.48 | 4:20.45 | 216423 | 235967
11 | 52:26.18 | 4:38.58 | 235968 | 256875


Track 1

Filename E:\Music Collection 2018-2019\Kate Bush - Remastered Part II (2018) [FLAC]\Kate Bush - Director's Cut (2011) [FLAC] {2018}\01 - Flower of the Mountain.wav

Pre-gap length 0:00:02.00

Peak level 86.3 %
Extraction speed 2.7 X
Track quality 99.9 %
Test CRC F4E26CB4
Copy CRC F4E26CB4
Track not present in AccurateRip database
Copy OK

Track 2

Filename E:\Music Collection 2018-2019\Kate Bush - Remastered Part II (2018) [FLAC]\Kate Bush - Director's Cut (2011) [FLAC] {2018}\02 - The Song of Solomon.wav

Peak level 85.5 %
Extraction speed 3.3 X
Track quality 100.0 %
Test CRC FFEEA82F
Copy CRC FFEEA82F
Track not present in AccurateRip database
Copy OK

Track 3

Filename E:\Music Collection 2018-2019\Kate Bush - Remastered Part II (2018) [FLAC]\Kate Bush - Director's Cut (2011) [FLAC] {2018}\03 - Lily.wav

Peak level 95.3 %
Extraction speed 3.5 X
Track quality 100.0 %
Test CRC C40C6585
Copy CRC C40C6585
Track not present in AccurateRip database
Copy OK

Track 4

Filename E:\Music Collection 2018-2019\Kate Bush - Remastered Part II (2018) [FLAC]\Kate Bush - Director's Cut (2011) [FLAC] {2018}\04 - Deeper Understanding.wav

Peak level 95.7 %
Extraction speed 3.8 X
Track quality 100.0 %
Test CRC 04BE9A96
Copy CRC 04BE9A96
Track not present in AccurateRip database
Copy OK

Track 5

Filename E:\Music Collection 2018-2019\Kate Bush - Remastered Part II (2018) [FLAC]\Kate Bush - Director's Cut (2011) [FLAC] {2018}\05 - The Red Shoes.wav

Peak level 91.8 %
Extraction speed 4.2 X
Track quality 100.0 %
Test CRC 4016F260
Copy CRC 4016F260
Track not present in AccurateRip database
Copy OK

Track 6

Filename E:\Music Collection 2018-2019\Kate Bush - Remastered Part II (2018) [FLAC]\Kate Bush - Director's Cut (2011) [FLAC] {2018}\06 - This Woman's Work.wav

Peak level 71.5 %
Extraction speed 4.2 X
Track quality 99.9 %
Test CRC 21EEF08D
Copy CRC 21EEF08D
Track not present in AccurateRip database
Copy OK

Track 7

Filename E:\Music Collection 2018-2019\Kate Bush - Remastered Part II (2018) [FLAC]\Kate Bush - Director's Cut (2011) [FLAC] {2018}\07 - Moments of Pleasure.wav

Peak level 61.5 %
Extraction speed 4.4 X
Track quality 100.0 %
Test CRC FC7B53C9
Copy CRC FC7B53C9
Track not present in AccurateRip database
Copy OK

Track 8

Filename E:\Music Collection 2018-2019\Kate Bush - Remastered Part II (2018) [FLAC]\Kate Bush - Director's Cut (2011) [FLAC] {2018}\08 - Never Be Mine.wav

Peak level 82.7 %
Extraction speed 4.2 X
Track quality 99.9 %
Test CRC 0EBC05EF
Copy CRC 0EBC05EF
Track not present in AccurateRip database
Copy OK

Track 9

Filename E:\Music Collection 2018-2019\Kate Bush - Remastered Part II (2018) [FLAC]\Kate Bush - Director's Cut (2011) [FLAC] {2018}\09 - Top of the City.wav

Peak level 94.5 %
Extraction speed 4.5 X
Track quality 100.0 %
Test CRC 734EADDA
Copy CRC 734EADDA
Track not present in AccurateRip database
Copy OK

Track 10

Filename E:\Music Collection 2018-2019\Kate Bush - Remastered Part II (2018) [FLAC]\Kate Bush - Director's Cut (2011) [FLAC] {2018}\10 - And So Is Love.wav

Peak level 89.9 %
Extraction speed 4.1 X
Track quality 99.9 %
Test CRC 8ADCD8AD
Copy CRC 8ADCD8AD
Track not present in AccurateRip database
Copy OK

Track 11

Filename E:\Music Collection 2018-2019\Kate Bush - Remastered Part II (2018) [FLAC]\Kate Bush - Director's Cut (2011) [FLAC] {2018}\11 - Rubberband Girl.wav

Peak level 85.5 %
Extraction speed 4.7 X
Track quality 100.0 %
Test CRC 14D91658
Copy CRC 14D91658
Track not present in AccurateRip database
Copy OK


None of the tracks are present in the AccurateRip database

No errors occurred

End of status report

–– CUETools DB Plugin V2.1.6

[CTDB TOCID: SSi10D7nyp1IGtXfBkRokxJM5PM-] found
Submit result: SSi10D7nyp1IGtXfBkRokxJM5PM- has been confirmed
Track | CTDB Status
1 | (7/7) Accurately ripped
2 | (7/7) Accurately ripped
3 | (7/7) Accurately ripped
4 | (7/7) Accurately ripped
5 | (7/7) Accurately ripped
6 | (7/7) Accurately ripped
7 | (7/7) Accurately ripped
8 | (7/7) Accurately ripped
9 | (7/7) Accurately ripped
10 | (7/7) Accurately ripped
11 | (7/7) Accurately ripped


==== Log checksum 4267AEFF21F6FA1400715F880F9CFECBF82E3E781CB9BD2F311F3713CA71C5AF ====


Disc 4
50 WORDS FOR SNOW (2011)
4-1. Snowflake
4-2. Lake Tahoe
4-3. Misty
4-4. Wild Man
4-5. Snowed In at Wheeler Street
4-6. 50 Words for Snow
4-7. Among Angels

Exact Audio Copy V1.3 from 2. September 2016

EAC extraction logfile from 30. November 2018, 19:16

Kate Bush / 50 Words for Snow

Used drive : PIONEER BD-RW BDR-XD05 Adapter: 1 ID: 1

Read mode : Secure
Utilize accurate stream : Yes
Defeat audio cache : Yes
Make use of C2 pointers : No

Read offset correction : 667
Overread into Lead-In and Lead-Out : No
Fill up missing offset samples with silence : Yes
Delete leading and trailing silent blocks : No
Null samples used in CRC calculations : Yes
Used interface : Native Win32 interface for Win NT & 2000
Gap handling : Appended to previous track

Used output format : User Defined Encoder
Selected bitrate : 1024 kBit/s
Quality : High
Add ID3 tag : No
Command line compressor : C:\Program Files (x86)\Exact Audio Copy\FLAC\FLAC.EXE
Additional command line options : -8 -e -p -V -T "ARTIST=%artist%" -T "TITLE=%title%" -T "ALBUM=%albumtitle%" -T "DATE=%year%" -T "TRACKNUMBER=%tracknr%" -T "GENRE=%genre%" -T "PERFORMER=%albuminterpret%" -T "COMPOSER=%composer%" %haslyrics%–tag-from-file=LYRICS="%lyricsfile%"%haslyrics% -T "ALBUMARTIST=%albumartist%" -T "DISCNUMBER=%cdnumber%" -T "TOTALDISCS=%totalcds%" -T "TOTALTRACKS=%numtracks%" -T "COMMENT=%comment%" %source% -o %dest%


TOC of the extracted CD

Track | Start | Length | Start sector | End sector
––––––––––––––––––––––––––––-
1 | 0:00.00 | 9:47.63 | 0 | 44087
2 | 9:47.63 | 11:08.33 | 44088 | 94220
3 | 20:56.21 | 13:32.12 | 94221 | 155132
4 | 34:28.33 | 7:15.30 | 155133 | 187787
5 | 41:43.63 | 8:06.12 | 187788 | 224249
6 | 49:50.00 | 8:31.03 | 224250 | 262577
7 | 58:21.03 | 6:50.40 | 262578 | 293367


Track 1

Filename E:\Music Collection 2018-2019\Kate Bush - Remastered Part II (2018) [FLAC]\Kate Bush - 50 Words for Snow (2011) [FLAC] {2018}\01 - Snowflake.wav

Pre-gap length 0:00:02.00

Peak level 66.8 %
Extraction speed 2.9 X
Track quality 99.9 %
Test CRC 1ADDF5F2
Copy CRC 1ADDF5F2
Track not present in AccurateRip database
Copy OK

Track 2

Filename E:\Music Collection 2018-2019\Kate Bush - Remastered Part II (2018) [FLAC]\Kate Bush - 50 Words for Snow (2011) [FLAC] {2018}\02 - Lake Tahoe.wav

Peak level 99.1 %
Extraction speed 4.1 X
Track quality 100.0 %
Test CRC 2E380646
Copy CRC 2E380646
Track not present in AccurateRip database
Copy OK

Track 3

Filename E:\Music Collection 2018-2019\Kate Bush - Remastered Part II (2018) [FLAC]\Kate Bush - 50 Words for Snow (2011) [FLAC] {2018}\03 - Misty.wav

Peak level 82.7 %
Extraction speed 4.7 X
Track quality 100.0 %
Test CRC 172B546C
Copy CRC 172B546C
Track not present in AccurateRip database
Copy OK

Track 4

Filename E:\Music Collection 2018-2019\Kate Bush - Remastered Part II (2018) [FLAC]\Kate Bush - 50 Words for Snow (2011) [FLAC] {2018}\04 - Wild Man.wav

Peak level 100.0 %
Extraction speed 4.8 X
Track quality 100.0 %
Test CRC 3E93EE8C
Copy CRC 3E93EE8C
Track not present in AccurateRip database
Copy OK

Track 5

Filename E:\Music Collection 2018-2019\Kate Bush - Remastered Part II (2018) [FLAC]\Kate Bush - 50 Words for Snow (2011) [FLAC] {2018}\05 - Snowed In at Wheeler Street.wav

Peak level 100.0 %
Extraction speed 4.9 X
Track quality 100.0 %
Test CRC FF657181
Copy CRC FF657181
Track not present in AccurateRip database
Copy OK

Track 6

Filename E:\Music Collection 2018-2019\Kate Bush - Remastered Part II (2018) [FLAC]\Kate Bush - 50 Words for Snow (2011) [FLAC] {2018}\06 - 50 Words for Snow.wav

Peak level 78.8 %
Extraction speed 4.8 X
Track quality 100.0 %
Test CRC 455A6655
Copy CRC 455A6655
Track not present in AccurateRip database
Copy OK

Track 7

Filename E:\Music Collection 2018-2019\Kate Bush - Remastered Part II (2018) [FLAC]\Kate Bush - 50 Words for Snow (2011) [FLAC] {2018}\07 - Among Angels.wav

Peak level 63.5 %
Extraction speed 5.0 X
Track quality 100.0 %
Test CRC 8A13FD2E
Copy CRC 8A13FD2E
Track not present in AccurateRip database
Copy OK


None of the tracks are present in the AccurateRip database

No errors occurred

End of status report

–– CUETools DB Plugin V2.1.6

[CTDB TOCID: KGZPU6OxRVp8AIx1zJtypWxNdYc-] found
Submit result: KGZPU6OxRVp8AIx1zJtypWxNdYc- has been confirmed
Track | CTDB Status
1 | (5/6) Accurately ripped
2 | (6/6) Accurately ripped
3 | (6/6) Accurately ripped
4 | (6/6) Accurately ripped
5 | (6/6) Accurately ripped
6 | (6/6) Accurately ripped
7 | (6/6) Accurately ripped


==== Log checksum 452A852AA76499BDC4A5EBBE65D02F91C828F06EFA12A98FDE6B1C93B3F33BDB ====


Discs 5-7
BEFORE THE DAWN (2016) [LIVE]
5-1. Lily
5-2. Hounds of Love
5-3. Joanni
5-4. Top of the City
5-5. Never be Mine
5-6. Running Up That Hill (A Deal with God)
5-7. King of the Mountain

Exact Audio Copy V1.3 from 2. September 2016

EAC extraction logfile from 30. November 2018, 17:04

Kate Bush / Before the Dawn (Disc 1)

Used drive : PIONEER BD-RW BDR-XD05 Adapter: 1 ID: 1

Read mode : Secure
Utilize accurate stream : Yes
Defeat audio cache : Yes
Make use of C2 pointers : No

Read offset correction : 667
Overread into Lead-In and Lead-Out : No
Fill up missing offset samples with silence : Yes
Delete leading and trailing silent blocks : No
Null samples used in CRC calculations : Yes
Used interface : Native Win32 interface for Win NT & 2000
Gap handling : Appended to previous track

Used output format : User Defined Encoder
Selected bitrate : 1024 kBit/s
Quality : High
Add ID3 tag : No
Command line compressor : C:\Program Files (x86)\Exact Audio Copy\FLAC\FLAC.EXE
Additional command line options : -8 -e -p -V -T "ARTIST=%artist%" -T "TITLE=%title%" -T "ALBUM=%albumtitle%" -T "DATE=%year%" -T "TRACKNUMBER=%tracknr%" -T "GENRE=%genre%" -T "PERFORMER=%albuminterpret%" -T "COMPOSER=%composer%" %haslyrics%–tag-from-file=LYRICS="%lyricsfile%"%haslyrics% -T "ALBUMARTIST=%albumartist%" -T "DISCNUMBER=%cdnumber%" -T "TOTALDISCS=%totalcds%" -T "TOTALTRACKS=%numtracks%" -T "COMMENT=%comment%" %source% -o %dest%


TOC of the extracted CD

Track | Start | Length | Start sector | End sector
––––––––––––––––––––––––––––-
1 | 0:00.00 | 4:48.21 | 0 | 21620
2 | 4:48.21 | 3:33.14 | 21621 | 37609
3 | 8:21.35 | 6:07.09 | 37610 | 65143
4 | 14:28.44 | 5:24.00 | 65144 | 89443
5 | 19:52.44 | 5:55.00 | 89444 | 116068
6 | 25:47.44 | 5:40.70 | 116069 | 141638
7 | 31:28.39 | 8:05.62 | 141639 | 178075


Track 1

Filename E:\Music Collection 2018-2019\Kate Bush - Remastered Part II (2018) [FLAC]\Kate Bush - Before the Dawn (2016) [FLAC] {2018}\Disc 1\01 - Lily.wav

Pre-gap length 0:00:02.00

Peak level 89.1 %
Extraction speed 2.9 X
Track quality 100.0 %
Test CRC 0622D55A
Copy CRC 0622D55A
Accurately ripped (confidence 200) [CFA963F3] (AR v2)
Copy OK

Track 2

Filename E:\Music Collection 2018-2019\Kate Bush - Remastered Part II (2018) [FLAC]\Kate Bush - Before the Dawn (2016) [FLAC] {2018}\Disc 1\02 - Hounds of Love.wav

Peak level 100.0 %
Extraction speed 3.1 X
Track quality 100.0 %
Test CRC 35011D3E
Copy CRC 35011D3E
Accurately ripped (confidence 200) [C7C80D40] (AR v2)
Copy OK

Track 3

Filename E:\Music Collection 2018-2019\Kate Bush - Remastered Part II (2018) [FLAC]\Kate Bush - Before the Dawn (2016) [FLAC] {2018}\Disc 1\03 - Joanni.wav

Pre-gap length 0:00:00.01

Peak level 91.8 %
Extraction speed 3.6 X
Track quality 100.0 %
Test CRC 61501B0D
Copy CRC 61501B0D
Accurately ripped (confidence 200) [B2E629F5] (AR v2)
Copy OK

Track 4

Filename E:\Music Collection 2018-2019\Kate Bush - Remastered Part II (2018) [FLAC]\Kate Bush - Before the Dawn (2016) [FLAC] {2018}\Disc 1\04 - Top of the City.wav

Pre-gap length 0:00:00.01

Peak level 93.8 %
Extraction speed 3.5 X
Track quality 99.9 %
Test CRC FE95FC3E
Copy CRC FE95FC3E
Accurately ripped (confidence 200) [B713310F] (AR v2)
Copy OK

Track 5

Filename E:\Music Collection 2018-2019\Kate Bush - Remastered Part II (2018) [FLAC]\Kate Bush - Before the Dawn (2016) [FLAC] {2018}\Disc 1\05 - Never Be Mine.wav

Pre-gap length 0:00:00.01

Peak level 67.1 %
Extraction speed 4.2 X
Track quality 100.0 %
Test CRC DBD2E1C6
Copy CRC DBD2E1C6
Accurately ripped (confidence 200) [E25A081D] (AR v2)
Copy OK

Track 6

Filename E:\Music Collection 2018-2019\Kate Bush - Remastered Part II (2018) [FLAC]\Kate Bush - Before the Dawn (2016) [FLAC] {2018}\Disc 1\06 - Running Up That Hill (A Deal with God).wav

Pre-gap length 0:00:00.01

Peak level 91.0 %
Extraction speed 4.1 X
Track quality 99.9 %
Test CRC 15A77F10
Copy CRC 15A77F10
Accurately ripped (confidence 200) [7DE6F098] (AR v2)
Copy OK

Track 7

Filename E:\Music Collection 2018-2019\Kate Bush - Remastered Part II (2018) [FLAC]\Kate Bush - Before the Dawn (2016) [FLAC] {2018}\Disc 1\07 - King of the Mountain.wav

Pre-gap length 0:00:00.01

Peak level 100.0 %
Extraction speed 4.9 X
Track quality 100.0 %
Test CRC 945A9020
Copy CRC 945A9020
Accurately ripped (confidence 200) [C021A03B] (AR v2)
Copy OK


All tracks accurately ripped

No errors occurred

End of status report

–– CUETools DB Plugin V2.1.6

[CTDB TOCID: qpYgzpTorcRi7mEOQSfGk9bRQf0-] found
Submit result: already submitted
Track | CTDB Status
1 | (948/952) Accurately ripped
2 | (948/952) Accurately ripped
3 | (947/952) Accurately ripped
4 | (946/952) Accurately ripped
5 | (944/952) Accurately ripped
6 | (943/952) Accurately ripped
7 | (940/952) Accurately ripped


==== Log checksum C4523F9447DB354E5D53C4C84FCF3E879DC8EC1D00968FF83CEB5C80B559BFA6 ====


6-1. Astronomer's Call (Spoken Monologue)
6-2. And Dream of Sheep
6-3. Under Ice
6-4. Waking the Witch
6-5. Watching Them Without Her (Dialogue)
6-6. Watching You Without Me
6-7. Little Light
6-8. Jig of Life
6-9. Hello Earth
6-10. The Morning Fog

Exact Audio Copy V1.3 from 2. September 2016

EAC extraction logfile from 30. November 2018, 17:38

Kate Bush / Before the Dawn (Disc 2)

Used drive : PIONEER BD-RW BDR-XD05 Adapter: 1 ID: 1

Read mode : Secure
Utilize accurate stream : Yes
Defeat audio cache : Yes
Make use of C2 pointers : No

Read offset correction : 667
Overread into Lead-In and Lead-Out : No
Fill up missing offset samples with silence : Yes
Delete leading and trailing silent blocks : No
Null samples used in CRC calculations : Yes
Used interface : Native Win32 interface for Win NT & 2000
Gap handling : Appended to previous track

Used output format : User Defined Encoder
Selected bitrate : 1024 kBit/s
Quality : High
Add ID3 tag : No
Command line compressor : C:\Program Files (x86)\Exact Audio Copy\FLAC\FLAC.EXE
Additional command line options : -8 -e -p -V -T "ARTIST=%artist%" -T "TITLE=%title%" -T "ALBUM=%albumtitle%" -T "DATE=%year%" -T "TRACKNUMBER=%tracknr%" -T "GENRE=%genre%" -T "PERFORMER=%albuminterpret%" -T "COMPOSER=%composer%" %haslyrics%–tag-from-file=LYRICS="%lyricsfile%"%haslyrics% -T "ALBUMARTIST=%albumartist%" -T "DISCNUMBER=%cdnumber%" -T "TOTALDISCS=%totalcds%" -T "TOTALTRACKS=%numtracks%" -T "COMMENT=%comment%" %source% -o %dest%


TOC of the extracted CD

Track | Start | Length | Start sector | End sector
––––––––––––––––––––––––––––-
1 | 0:00.00 | 2:44.27 | 0 | 12326
2 | 2:44.27 | 3:37.30 | 12327 | 28631
3 | 6:21.57 | 3:04.27 | 28632 | 42458
4 | 9:26.09 | 6:38.54 | 42459 | 72362
5 | 16:04.63 | 1:57.54 | 72363 | 81191
6 | 18:02.42 | 4:23.48 | 81192 | 100964
7 | 22:26.15 | 2:08.03 | 100965 | 110567
8 | 24:34.18 | 4:11.62 | 110568 | 129454
9 | 28:46.05 | 7:55.28 | 129455 | 165107
10 | 36:41.33 | 5:23.69 | 165108 | 189401


Track 1

Filename E:\Music Collection 2018-2019\Kate Bush - Remastered Part II (2018) [FLAC]\Kate Bush - Before the Dawn (2016) [FLAC] {2018}\Disc 2\01 - Astronomer's Call (Spoken Monologue).wav

Pre-gap length 0:00:02.00

Peak level 55.4 %
Extraction speed 2.2 X
Track quality 99.9 %
Test CRC 93FBA98D
Copy CRC 93FBA98D
Accurately ripped (confidence 200) [177E7641] (AR v2)
Copy OK

Track 2

Filename E:\Music Collection 2018-2019\Kate Bush - Remastered Part II (2018) [FLAC]\Kate Bush - Before the Dawn (2016) [FLAC] {2018}\Disc 2\02 - And Dream of Sheep.wav

Peak level 60.4 %
Extraction speed 3.0 X
Track quality 100.0 %
Test CRC CF0702B6
Copy CRC CF0702B6
Accurately ripped (confidence 200) [8D2B97B2] (AR v2)
Copy OK

Track 3

Filename E:\Music Collection 2018-2019\Kate Bush - Remastered Part II (2018) [FLAC]\Kate Bush - Before the Dawn (2016) [FLAC] {2018}\Disc 2\03 - Under Ice.wav

Peak level 63.2 %
Extraction speed 3.0 X
Track quality 100.0 %
Test CRC BC8E3CBA
Copy CRC BC8E3CBA
Accurately ripped (confidence 200) [D73E5A9E] (AR v2)
Copy OK

Track 4

Filename E:\Music Collection 2018-2019\Kate Bush - Remastered Part II (2018) [FLAC]\Kate Bush - Before the Dawn (2016) [FLAC] {2018}\Disc 2\04 - Waking the Witch.wav

Peak level 100.0 %
Extraction speed 3.4 X
Track quality 99.9 %
Test CRC 8CF3D0F1
Copy CRC 8CF3D0F1
Accurately ripped (confidence 200) [13FEEB3C] (AR v2)
Copy OK

Track 5

Filename E:\Music Collection 2018-2019\Kate Bush - Remastered Part II (2018) [FLAC]\Kate Bush - Before the Dawn (2016) [FLAC] {2018}\Disc 2\05 - Watching Them Without Her (Dialogue).wav

Peak level 16.9 %
Extraction speed 3.3 X
Track quality 100.0 %
Test CRC EE1357D6
Copy CRC EE1357D6
Accurately ripped (confidence 200) [15C244F5] (AR v2)
Copy OK

Track 6

Filename E:\Music Collection 2018-2019\Kate Bush - Remastered Part II (2018) [FLAC]\Kate Bush - Before the Dawn (2016) [FLAC] {2018}\Disc 2\06 - Watching You Without Me.wav

Peak level 99.6 %
Extraction speed 3.8 X
Track quality 100.0 %
Test CRC ADE5FEF1
Copy CRC ADE5FEF1
Accurately ripped (confidence 200) [57C699A0] (AR v2)
Copy OK

Track 7

Filename E:\Music Collection 2018-2019\Kate Bush - Remastered Part II (2018) [FLAC]\Kate Bush - Before the Dawn (2016) [FLAC] {2018}\Disc 2\07 - Little Light.wav

Peak level 55.4 %
Extraction speed 3.5 X
Track quality 100.0 %
Test CRC 9D4B583A
Copy CRC 9D4B583A
Accurately ripped (confidence 200) [9DAA49EC] (AR v2)
Copy OK

Track 8

Filename E:\Music Collection 2018-2019\Kate Bush - Remastered Part II (2018) [FLAC]\Kate Bush - Before the Dawn (2016) [FLAC] {2018}\Disc 2\08 - Jig of Life.wav

Peak level 87.0 %
Extraction speed 4.2 X
Track quality 100.0 %
Test CRC 9E46B839
Copy CRC 9E46B839
Accurately ripped (confidence 200) [36EF727B] (AR v2)
Copy OK

Track 9

Filename E:\Music Collection 2018-2019\Kate Bush - Remastered Part II (2018) [FLAC]\Kate Bush - Before the Dawn (2016) [FLAC] {2018}\Disc 2\09 - Hello Earth.wav

Peak level 81.3 %
Extraction speed 4.7 X
Track quality 100.0 %
Test CRC 1E2D0644
Copy CRC 1E2D0644
Accurately ripped (confidence 200) [1A682DC3] (AR v2)
Copy OK

Track 10

Filename E:\Music Collection 2018-2019\Kate Bush - Remastered Part II (2018) [FLAC]\Kate Bush - Before the Dawn (2016) [FLAC] {2018}\Disc 2\10 - The Morning Fog.wav

Peak level 56.4 %
Extraction speed 4.6 X
Track quality 100.0 %
Test CRC 53B83759
Copy CRC 53B83759
Accurately ripped (confidence 200) [496DE69F] (AR v2)
Copy OK


All tracks accurately ripped

No errors occurred

End of status report

–– CUETools DB Plugin V2.1.6

[CTDB TOCID: 3LjqE15s.OSyt4BSnlpHTET5Rd8-] found
Submit result: already submitted
Track | CTDB Status
1 | (919/924) Accurately ripped
2 | (920/924) Accurately ripped
3 | (912/924) Accurately ripped, or (5/924) differs in 175 samples @01:32:12, or (2/924) differs in 249 samples @01:32:11-01:32:13
4 | (916/924) Accurately ripped
5 | (918/924) Accurately ripped
6 | (920/924) Accurately ripped
7 | (921/924) Accurately ripped
8 | (917/924) Accurately ripped
9 | (919/924) Accurately ripped
10 | (918/924) Accurately ripped


==== Log checksum E8AA4508DE88B67851CAC1A15A34EF83EBE6927BD3D723D73094B891D23FBEE9 ====


7-1. Prelude
7-2. Prologue
7-3. An Architect's Dream
7-4. The Painter's Link
7-5. Sunset
7-6. Aerial Tal
7-7. Somewhere in Between
7-8. Tawny Moon
7-9. Nocturn
7-10. Aerial
7-11. Among Angels
7-12. Cloudbusting

Exact Audio Copy V1.3 from 2. September 2016

EAC extraction logfile from 30. November 2018, 18:31

Kate Bush / Before the Dawn (Disc 3)

Used drive : PIONEER BD-RW BDR-XD05 Adapter: 1 ID: 1

Read mode : Secure
Utilize accurate stream : Yes
Defeat audio cache : Yes
Make use of C2 pointers : No

Read offset correction : 667
Overread into Lead-In and Lead-Out : No
Fill up missing offset samples with silence : Yes
Delete leading and trailing silent blocks : No
Null samples used in CRC calculations : Yes
Used interface : Native Win32 interface for Win NT & 2000
Gap handling : Appended to previous track

Used output format : User Defined Encoder
Selected bitrate : 1024 kBit/s
Quality : High
Add ID3 tag : No
Command line compressor : C:\Program Files (x86)\Exact Audio Copy\FLAC\FLAC.EXE
Additional command line options : -8 -e -p -V -T "ARTIST=%artist%" -T "TITLE=%title%" -T "ALBUM=%albumtitle%" -T "DATE=%year%" -T "TRACKNUMBER=%tracknr%" -T "GENRE=%genre%" -T "PERFORMER=%albuminterpret%" -T "COMPOSER=%composer%" %haslyrics%–tag-from-file=LYRICS="%lyricsfile%"%haslyrics% -T "ALBUMARTIST=%albumartist%" -T "DISCNUMBER=%cdnumber%" -T "TOTALDISCS=%totalcds%" -T "TOTALTRACKS=%numtracks%" -T "COMMENT=%comment%" %source% -o %dest%


TOC of the extracted CD

Track | Start | Length | Start sector | End sector
––––––––––––––––––––––––––––-
1 | 0:00.00 | 1:55.65 | 0 | 8689
2 | 1:55.65 | 10:10.00 | 8690 | 54439
3 | 12:05.65 | 5:22.28 | 54440 | 78617
4 | 17:28.18 | 1:39.47 | 78618 | 86089
5 | 19:07.65 | 8:00.50 | 86090 | 122139
6 | 27:08.40 | 1:30.53 | 122140 | 128942
7 | 28:39.18 | 6:59.17 | 128943 | 160384
8 | 35:38.35 | 6:08.15 | 160385 | 187999
9 | 41:46.50 | 8:51.67 | 188000 | 227891
10 | 50:38.42 | 9:43.60 | 227892 | 271676
11 | 60:22.27 | 5:48.71 | 271677 | 297847
12 | 66:11.23 | 7:16.52 | 297848 | 330599


Track 1

Filename E:\Music Collection 2018-2019\Kate Bush - Remastered Part II (2018) [FLAC]\Kate Bush - Before the Dawn (2016) [FLAC] {2018}\Disc 3\01 - Prelude.wav

Pre-gap length 0:00:02.00

Peak level 8.7 %
Extraction speed 2.0 X
Track quality 99.9 %
Test CRC 0394ACCC
Copy CRC 0394ACCC
Accurately ripped (confidence 200) [46249280] (AR v2)
Copy OK

Track 2

Filename E:\Music Collection 2018-2019\Kate Bush - Remastered Part II (2018) [FLAC]\Kate Bush - Before the Dawn (2016) [FLAC] {2018}\Disc 3\02 - Prologue.wav

Peak level 77.8 %
Extraction speed 3.5 X
Track quality 100.0 %
Test CRC BBFF4613
Copy CRC BBFF4613
Accurately ripped (confidence 200) [1F443E8B] (AR v2)
Copy OK

Track 3

Filename E:\Music Collection 2018-2019\Kate Bush - Remastered Part II (2018) [FLAC]\Kate Bush - Before the Dawn (2016) [FLAC] {2018}\Disc 3\03 - An Architect's Dream.wav

Peak level 66.0 %
Extraction speed 3.4 X
Track quality 99.9 %
Test CRC C42C985B
Copy CRC C42C985B
Accurately ripped (confidence 200) [B355B362] (AR v2)
Copy OK

Track 4

Filename E:\Music Collection 2018-2019\Kate Bush - Remastered Part II (2018) [FLAC]\Kate Bush - Before the Dawn (2016) [FLAC] {2018}\Disc 3\04 - The Painter's Link.wav

Peak level 33.8 %
Extraction speed 3.2 X
Track quality 100.0 %
Test CRC E5EA8F99
Copy CRC E5EA8F99
Accurately ripped (confidence 200) [D4177A14] (AR v2)
Copy OK

Track 5

Filename E:\Music Collection 2018-2019\Kate Bush - Remastered Part II (2018) [FLAC]\Kate Bush - Before the Dawn (2016) [FLAC] {2018}\Disc 3\05 - Sunset.wav

Peak level 95.7 %
Extraction speed 4.3 X
Track quality 100.0 %
Test CRC 0F76B1C2
Copy CRC 0F76B1C2
Accurately ripped (confidence 200) [E9B3DB28] (AR v2)
Copy OK

Track 6

Filename E:\Music Collection 2018-2019\Kate Bush - Remastered Part II (2018) [FLAC]\Kate Bush - Before the Dawn (2016) [FLAC] {2018}\Disc 3\06 - Aerial Tal.wav

Peak level 33.9 %
Extraction speed 3.5 X
Track quality 100.0 %
Test CRC 020076ED
Copy CRC 020076ED
Accurately ripped (confidence 200) [E19BD9D2] (AR v2)
Copy OK

Track 7

Filename E:\Music Collection 2018-2019\Kate Bush - Remastered Part II (2018) [FLAC]\Kate Bush - Before the Dawn (2016) [FLAC] {2018}\Disc 3\07 - Somewhere in Between.wav

Peak level 84.7 %
Extraction speed 4.7 X
Track quality 100.0 %
Test CRC 33C2ABC9
Copy CRC 33C2ABC9
Accurately ripped (confidence 200) [0B87E2AB] (AR v2)
Copy OK

Track 8

Filename E:\Music Collection 2018-2019\Kate Bush - Remastered Part II (2018) [FLAC]\Kate Bush - Before the Dawn (2016) [FLAC] {2018}\Disc 3\08 - Tawny Moon.wav

Peak level 96.3 %
Extraction speed 4.3 X
Track quality 99.9 %
Test CRC E14A5A49
Copy CRC E14A5A49
Accurately ripped (confidence 200) [5D1B9B61] (AR v2)
Copy OK

Track 9

Filename E:\Music Collection 2018-2019\Kate Bush - Remastered Part II (2018) [FLAC]\Kate Bush - Before the Dawn (2016) [FLAC] {2018}\Disc 3\09 - Nocturn.wav

Peak level 80.3 %
Extraction speed 4.9 X
Track quality 100.0 %
Test CRC D11F74BE
Copy CRC D11F74BE
Accurately ripped (confidence 200) [F4F22123] (AR v2)
Copy OK

Track 10

Filename E:\Music Collection 2018-2019\Kate Bush - Remastered Part II (2018) [FLAC]\Kate Bush - Before the Dawn (2016) [FLAC] {2018}\Disc 3\10 - Aerial.wav

Peak level 100.0 %
Extraction speed 5.0 X
Track quality 100.0 %
Test CRC 0AD2E0DF
Copy CRC 0AD2E0DF
Accurately ripped (confidence 200) [C13BDCD6] (AR v2)
Copy OK

Track 11

Filename E:\Music Collection 2018-2019\Kate Bush - Remastered Part II (2018) [FLAC]\Kate Bush - Before the Dawn (2016) [FLAC] {2018}\Disc 3\11 - Among Angels.wav

Peak level 50.3 %
Extraction speed 4.3 X
Track quality 99.9 %
Test CRC 34A5D332
Copy CRC 34A5D332
Accurately ripped (confidence 200) [A7B58518] (AR v2)
Copy OK

Track 12

Filename E:\Music Collection 2018-2019\Kate Bush - Remastered Part II (2018) [FLAC]\Kate Bush - Before the Dawn (2016) [FLAC] {2018}\Disc 3\12 - Cloudbusting.wav

Peak level 95.4 %
Extraction speed 4.9 X
Track quality 100.0 %
Test CRC 4B9E91FC
Copy CRC 4B9E91FC
Accurately ripped (confidence 200) [60040073] (AR v2)
Copy OK


All tracks accurately ripped

No errors occurred

End of status report

–– CUETools DB Plugin V2.1.6

[CTDB TOCID: UYOcL.tSINfyL16PIk1kgOTGz6k-] found
Submit result: already submitted
Track | CTDB Status
1 | (886/896) Accurately ripped, or (3/896) differs in 172 samples @01:08:05
2 | (892/896) Accurately ripped
3 | (888/896) Accurately ripped
4 | (892/896) Accurately ripped
5 | (885/896) Accurately ripped, or (3/896) differs in 180 samples @07:06:21
6 | (892/896) Accurately ripped
7 | (891/896) Accurately ripped
8 | (891/896) Accurately ripped
9 | (889/896) Accurately ripped
10 | (891/896) Accurately ripped
11 | (892/896) Accurately ripped
12 | (884/896) Accurately ripped


==== Log checksum AD32D1211E8646C9CD3E898177D0AC2F621ED39E02B2EA32AD48EFEEB6D98D77 ====


DISCS 8-11
THE OTHER SIDES

12" MIXES
8-1. Running Up That Hill (A Deal With God) (12" Mix)
8-2. The Big Sky (Meteorological Mix)
8-3. Cloudbusting (The Orgonon Mix)
8-4. Hounds of Love (Alternative Mix)
8-5. Experiment IV (Extended Mix)

Exact Audio Copy V1.3 from 2. September 2016

EAC extraction logfile from 30. November 2018, 13:33

Kate Bush / The Other Sides: 12" Mixes

Used drive : PIONEER BD-RW BDR-XD05 Adapter: 1 ID: 1

Read mode : Secure
Utilize accurate stream : Yes
Defeat audio cache : Yes
Make use of C2 pointers : No

Read offset correction : 667
Overread into Lead-In and Lead-Out : No
Fill up missing offset samples with silence : Yes
Delete leading and trailing silent blocks : No
Null samples used in CRC calculations : Yes
Used interface : Native Win32 interface for Win NT & 2000
Gap handling : Appended to previous track

Used output format : User Defined Encoder
Selected bitrate : 1024 kBit/s
Quality : High
Add ID3 tag : No
Command line compressor : C:\Program Files (x86)\Exact Audio Copy\FLAC\FLAC.EXE
Additional command line options : -8 -e -p -V -T "ARTIST=%artist%" -T "TITLE=%title%" -T "ALBUM=%albumtitle%" -T "DATE=%year%" -T "TRACKNUMBER=%tracknr%" -T "GENRE=%genre%" -T "PERFORMER=%albuminterpret%" -T "COMPOSER=%composer%" %haslyrics%–tag-from-file=LYRICS="%lyricsfile%"%haslyrics% -T "ALBUMARTIST=%albumartist%" -T "DISCNUMBER=%cdnumber%" -T "TOTALDISCS=%totalcds%" -T "TOTALTRACKS=%numtracks%" -T "COMMENT=%comment%" %source% -o %dest%


TOC of the extracted CD

Track | Start | Length | Start sector | End sector
––––––––––––––––––––––––––––-
1 | 0:00.00 | 5:49.63 | 0 | 26237
2 | 5:49.63 | 7:46.00 | 26238 | 61187
3 | 13:35.63 | 6:33.00 | 61188 | 90662
4 | 20:08.63 | 3:49.00 | 90663 | 107837
5 | 23:57.63 | 6:45.13 | 107838 | 138225


Track 1

Filename E:\Music Collection 2018-2019\Kate Bush - Remastered Part II (2018) [FLAC]\Kate Bush - The Other Sides (2018) [FLAC]\Disc 1\01 - Running Up That Hill (A Deal With God) (12'' Mix).wav

Pre-gap length 0:00:02.00

Peak level 94.9 %
Extraction speed 3.1 X
Track quality 100.0 %
Test CRC 6179729E
Copy CRC 6179729E
Track not present in AccurateRip database
Copy OK

Track 2

Filename E:\Music Collection 2018-2019\Kate Bush - Remastered Part II (2018) [FLAC]\Kate Bush - The Other Sides (2018) [FLAC]\Disc 1\02 - The Big Sky (Meteorological Mix).wav

Peak level 89.6 %
Extraction speed 3.6 X
Track quality 100.0 %
Test CRC 4DB76AC0
Copy CRC 4DB76AC0
Track not present in AccurateRip database
Copy OK

Track 3

Filename E:\Music Collection 2018-2019\Kate Bush - Remastered Part II (2018) [FLAC]\Kate Bush - The Other Sides (2018) [FLAC]\Disc 1\03 - Cloudbusting (The Orgonon Mix).wav

Peak level 95.2 %
Extraction speed 4.0 X
Track quality 100.0 %
Test CRC 33474C5B
Copy CRC 33474C5B
Track not present in AccurateRip database
Copy OK

Track 4

Filename E:\Music Collection 2018-2019\Kate Bush - Remastered Part II (2018) [FLAC]\Kate Bush - The Other Sides (2018) [FLAC]\Disc 1\04 - Hounds of Love (Alternative Mix).wav

Peak level 85.4 %
Extraction speed 4.0 X
Track quality 100.0 %
Test CRC 5C8E946B
Copy CRC 5C8E946B
Track not present in AccurateRip database
Copy OK

Track 5

Filename E:\Music Collection 2018-2019\Kate Bush - Remastered Part II (2018) [FLAC]\Kate Bush - The Other Sides (2018) [FLAC]\Disc 1\05 - Experiment IV (Extended Mix).wav

Peak level 84.0 %
Extraction speed 4.5 X
Track quality 100.0 %
Test CRC 2D9BA8C6
Copy CRC 2D9BA8C6
Track not present in AccurateRip database
Copy OK


None of the tracks are present in the AccurateRip database

No errors occurred

End of status report

–– CUETools DB Plugin V2.1.6

[CTDB TOCID: YbqTNP2kwidYCts3OcA2wXBNxQY-] found
Submit result: YbqTNP2kwidYCts3OcA2wXBNxQY- has been confirmed
Track | CTDB Status
1 | (3/4) Accurately ripped
2 | (4/4) Accurately ripped
3 | (4/4) Accurately ripped
4 | (4/4) Accurately ripped
5 | (4/4) Accurately ripped


==== Log checksum D9222B0EFAFF00D184C6287B490D8E5263B9583D38BCA67545170FE73EB231F7 ====


THE OTHER SIDE 1
9-1. Walk Straight Down the Middle
9-2. You Want Alchemy
9-3. Be Kind to My Mistakes
9-4. Lyra
9-5. Under the Ivy
9-6. Experiment IV
9-7. Ne T'Enfuis Pas
9-8. Un Baiser D'Enfant
9-9. Burning Bridge
9-10. Running Up That Hill (A Deal with God) (2012 Remix)

Exact Audio Copy V1.3 from 2. September 2016

EAC extraction logfile from 30. November 2018, 14:04

Kate Bush / The Other Sides: The Other Side 1

Used drive : PIONEER BD-RW BDR-XD05 Adapter: 1 ID: 1

Read mode : Secure
Utilize accurate stream : Yes
Defeat audio cache : Yes
Make use of C2 pointers : No

Read offset correction : 667
Overread into Lead-In and Lead-Out : No
Fill up missing offset samples with silence : Yes
Delete leading and trailing silent blocks : No
Null samples used in CRC calculations : Yes
Used interface : Native Win32 interface for Win NT & 2000
Gap handling : Appended to previous track

Used output format : User Defined Encoder
Selected bitrate : 1024 kBit/s
Quality : High
Add ID3 tag : No
Command line compressor : C:\Program Files (x86)\Exact Audio Copy\FLAC\FLAC.EXE
Additional command line options : -8 -e -p -V -T "ARTIST=%artist%" -T "TITLE=%title%" -T "ALBUM=%albumtitle%" -T "DATE=%year%" -T "TRACKNUMBER=%tracknr%" -T "GENRE=%genre%" -T "PERFORMER=%albuminterpret%" -T "COMPOSER=%composer%" %haslyrics%–tag-from-file=LYRICS="%lyricsfile%"%haslyrics% -T "ALBUMARTIST=%albumartist%" -T "DISCNUMBER=%cdnumber%" -T "TOTALDISCS=%totalcds%" -T "TOTALTRACKS=%numtracks%" -T "COMMENT=%comment%" %source% -o %dest%


TOC of the extracted CD

Track | Start | Length | Start sector | End sector
––––––––––––––––––––––––––––-
1 | 0:00.00 | 3:49.63 | 0 | 17237
2 | 3:49.63 | 4:21.00 | 17238 | 36812
3 | 8:10.63 | 3:02.45 | 36813 | 50507
4 | 11:13.33 | 3:18.60 | 50508 | 65417
5 | 14:32.18 | 2:10.30 | 65418 | 75197
6 | 16:42.48 | 4:49.60 | 75198 | 96932
7 | 21:32.33 | 2:34.30 | 96933 | 108512
8 | 24:06.63 | 3:02.45 | 108513 | 122207
9 | 27:09.33 | 4:12.00 | 122208 | 141107
10 | 31:21.33 | 5:36.13 | 141108 | 166320


Track 1

Filename E:\Music Collection 2018-2019\Kate Bush - Remastered Part II (2018) [FLAC]\Kate Bush - The Other Sides (2018) [FLAC]\Disc 2\01 - Walk Straight Down the Middle.wav

Pre-gap length 0:00:02.00

Peak level 97.4 %
Extraction speed 2.8 X
Track quality 100.0 %
Test CRC 7F82F357
Copy CRC 7F82F357
Track not present in AccurateRip database
Copy OK

Track 2

Filename E:\Music Collection 2018-2019\Kate Bush - Remastered Part II (2018) [FLAC]\Kate Bush - The Other Sides (2018) [FLAC]\Disc 2\02 - You Want Alchemy.wav

Peak level 96.5 %
Extraction speed 3.2 X
Track quality 100.0 %
Test CRC B79A9603
Copy CRC B79A9603
Track not present in AccurateRip database
Copy OK

Track 3

Filename E:\Music Collection 2018-2019\Kate Bush - Remastered Part II (2018) [FLAC]\Kate Bush - The Other Sides (2018) [FLAC]\Disc 2\03 - Be Kind to My Mistakes.wav

Peak level 67.8 %
Extraction speed 2.7 X
Track quality 99.9 %
Test CRC E45F8140
Copy CRC E45F8140
Track not present in AccurateRip database
Copy OK

Track 4

Filename E:\Music Collection 2018-2019\Kate Bush - Remastered Part II (2018) [FLAC]\Kate Bush - The Other Sides (2018) [FLAC]\Disc 2\04 - Lyra.wav

Peak level 57.5 %
Extraction speed 3.5 X
Track quality 100.0 %
Test CRC F8BEADE3
Copy CRC F8BEADE3
Track not present in AccurateRip database
Copy OK

Track 5

Filename E:\Music Collection 2018-2019\Kate Bush - Remastered Part II (2018) [FLAC]\Kate Bush - The Other Sides (2018) [FLAC]\Disc 2\05 - Under the Ivy.wav

Peak level 87.4 %
Extraction speed 3.3 X
Track quality 100.0 %
Test CRC F80BCB4B
Copy CRC F80BCB4B
Track not present in AccurateRip database
Copy OK

Track 6

Filename E:\Music Collection 2018-2019\Kate Bush - Remastered Part II (2018) [FLAC]\Kate Bush - The Other Sides (2018) [FLAC]\Disc 2\06 - Experiment IV.wav

Peak level 98.1 %
Extraction speed 3.7 X
Track quality 99.9 %
Test CRC 3C886768
Copy CRC 3C886768
Track not present in AccurateRip database
Copy OK

Track 7

Filename E:\Music Collection 2018-2019\Kate Bush - Remastered Part II (2018) [FLAC]\Kate Bush - The Other Sides (2018) [FLAC]\Disc 2\07 - Ne T'Enfuis Pas.wav

Peak level 55.0 %
Extraction speed 3.8 X
Track quality 100.0 %
Test CRC 329A03B4
Copy CRC 329A03B4
Track not present in AccurateRip database
Copy OK

Track 8

Filename E:\Music Collection 2018-2019\Kate Bush - Remastered Part II (2018) [FLAC]\Kate Bush - The Other Sides (2018) [FLAC]\Disc 2\08 - Un Baiser D'Enfant.wav

Peak level 70.7 %
Extraction speed 3.5 X
Track quality 99.9 %
Test CRC 2D8EBDC6
Copy CRC 2D8EBDC6
Track not present in AccurateRip database
Copy OK

Track 9

Filename E:\Music Collection 2018-2019\Kate Bush - Remastered Part II (2018) [FLAC]\Kate Bush - The Other Sides (2018) [FLAC]\Disc 2\09 - Burning Bridge.wav

Peak level 92.4 %
Extraction speed 3.9 X
Track quality 99.9 %
Test CRC 869A1F9B
Copy CRC 869A1F9B
Track not present in AccurateRip database
Copy OK

Track 10

Filename E:\Music Collection 2018-2019\Kate Bush - Remastered Part II (2018) [FLAC]\Kate Bush - The Other Sides (2018) [FLAC]\Disc 2\10 - Running Up That Hill (A Deal With God) (2012 Remix).wav

Peak level 100.0 %
Extraction speed 4.7 X
Track quality 100.0 %
Test CRC FC62B7C2
Copy CRC FC62B7C2
Track not present in AccurateRip database
Copy OK


None of the tracks are present in the AccurateRip database

No errors occurred

End of status report

–– CUETools DB Plugin V2.1.6

[CTDB TOCID: uO4l4yj7jA7VBDSdAGZs9nPYD8g-] found
Submit result: uO4l4yj7jA7VBDSdAGZs9nPYD8g- has been confirmed
Track | CTDB Status
1 | (4/4) Accurately ripped
2 | (4/4) Accurately ripped
3 | (4/4) Accurately ripped
4 | (4/4) Accurately ripped
5 | (4/4) Accurately ripped
6 | (4/4) Accurately ripped
7 | (4/4) Accurately ripped
8 | (4/4) Accurately ripped
9 | (4/4) Accurately ripped
10 | (4/4) Accurately ripped


==== Log checksum 0951CC1A34C97549211E658D1F252DDC16472D83532189ECB90E67E311DFDE3B ====


THE OTHER SIDE 2
10-1. Home for Christmas
10-2. One Last Look Around the House Before We Go
10-3. I'm Still Waiting
10-4. Warm and Soothing
10-5. Show a Little Devotion
10-6. Passing Through Air
10-7. Humming
10-8. Ran Tan Waltz
10-9. December Will Be Magic Again
10-10. Wuthering Heights (Remix/New Vocal)

Exact Audio Copy V1.3 from 2. September 2016

EAC extraction logfile from 30. November 2018, 14:33

Kate Bush / The Other Sides: The Other Side 2

Used drive : PIONEER BD-RW BDR-XD05 Adapter: 1 ID: 1

Read mode : Secure
Utilize accurate stream : Yes
Defeat audio cache : Yes
Make use of C2 pointers : No

Read offset correction : 667
Overread into Lead-In and Lead-Out : No
Fill up missing offset samples with silence : Yes
Delete leading and trailing silent blocks : No
Null samples used in CRC calculations : Yes
Used interface : Native Win32 interface for Win NT & 2000
Gap handling : Appended to previous track

Used output format : User Defined Encoder
Selected bitrate : 1024 kBit/s
Quality : High
Add ID3 tag : No
Command line compressor : C:\Program Files (x86)\Exact Audio Copy\FLAC\FLAC.EXE
Additional command line options : -8 -e -p -V -T "ARTIST=%artist%" -T "TITLE=%title%" -T "ALBUM=%albumtitle%" -T "DATE=%year%" -T "TRACKNUMBER=%tracknr%" -T "GENRE=%genre%" -T "PERFORMER=%albuminterpret%" -T "COMPOSER=%composer%" %haslyrics%–tag-from-file=LYRICS="%lyricsfile%"%haslyrics% -T "ALBUMARTIST=%albumartist%" -T "DISCNUMBER=%cdnumber%" -T "TOTALDISCS=%totalcds%" -T "TOTALTRACKS=%numtracks%" -T "COMMENT=%comment%" %source% -o %dest%


TOC of the extracted CD

Track | Start | Length | Start sector | End sector
––––––––––––––––––––––––––––-
1 | 0:00.00 | 1:48.33 | 0 | 8132
2 | 1:48.33 | 1:04.00 | 8133 | 12932
3 | 2:52.33 | 4:28.30 | 12933 | 33062
4 | 7:20.63 | 2:44.45 | 33063 | 45407
5 | 10:05.33 | 4:18.30 | 45408 | 64787
6 | 14:23.63 | 2:04.00 | 64788 | 74087
7 | 16:27.63 | 3:16.00 | 74088 | 88787
8 | 19:43.63 | 2:47.00 | 88788 | 101312
9 | 22:30.63 | 4:52.00 | 101313 | 123212
10 | 27:22.63 | 5:05.13 | 123213 | 146100


Track 1

Filename E:\Music Collection 2018-2019\Kate Bush - Remastered Part II (2018) [FLAC]\Kate Bush - The Other Sides (2018) [FLAC]\Disc 3\01 - Home for Christmas.wav

Pre-gap length 0:00:02.00

Peak level 67.9 %
Extraction speed 2.3 X
Track quality 100.0 %
Test CRC 1EFD67F5
Copy CRC 1EFD67F5
Track not present in AccurateRip database
Copy OK

Track 2

Filename E:\Music Collection 2018-2019\Kate Bush - Remastered Part II (2018) [FLAC]\Kate Bush - The Other Sides (2018) [FLAC]\Disc 3\02 - One Last Look Around the House Before We Go.wav

Peak level 52.9 %
Extraction speed 2.1 X
Track quality 100.0 %
Test CRC 35D31007
Copy CRC 35D31007
Track not present in AccurateRip database
Copy OK

Track 3

Filename E:\Music Collection 2018-2019\Kate Bush - Remastered Part II (2018) [FLAC]\Kate Bush - The Other Sides (2018) [FLAC]\Disc 3\03 - I'm Still Waiting.wav

Peak level 100.0 %
Extraction speed 3.1 X
Track quality 100.0 %
Test CRC 72403E54
Copy CRC 72403E54
Track not present in AccurateRip database
Copy OK

Track 4

Filename E:\Music Collection 2018-2019\Kate Bush - Remastered Part II (2018) [FLAC]\Kate Bush - The Other Sides (2018) [FLAC]\Disc 3\04 - Warm and Soothing.wav

Peak level 57.7 %
Extraction speed 3.1 X
Track quality 100.0 %
Test CRC 8D1FB1BD
Copy CRC 8D1FB1BD
Track not present in AccurateRip database
Copy OK

Track 5

Filename E:\Music Collection 2018-2019\Kate Bush - Remastered Part II (2018) [FLAC]\Kate Bush - The Other Sides (2018) [FLAC]\Disc 3\05 - Show a Little Devotion.wav

Peak level 100.0 %
Extraction speed 3.6 X
Track quality 100.0 %
Test CRC 757E6EA6
Copy CRC 757E6EA6
Track not present in AccurateRip database
Copy OK

Track 6

Filename E:\Music Collection 2018-2019\Kate Bush - Remastered Part II (2018) [FLAC]\Kate Bush - The Other Sides (2018) [FLAC]\Disc 3\06 - Passing Through Air.wav

Peak level 94.9 %
Extraction speed 3.2 X
Track quality 100.0 %
Test CRC 731A2594
Copy CRC 731A2594
Track not present in AccurateRip database
Copy OK

Track 7

Filename E:\Music Collection 2018-2019\Kate Bush - Remastered Part II (2018) [FLAC]\Kate Bush - The Other Sides (2018) [FLAC]\Disc 3\07 - Humming.wav

Peak level 84.7 %
Extraction speed 3.7 X
Track quality 100.0 %
Test CRC A68FAE8E
Copy CRC A68FAE8E
Track not present in AccurateRip database
Copy OK

Track 8

Filename E:\Music Collection 2018-2019\Kate Bush - Remastered Part II (2018) [FLAC]\Kate Bush - The Other Sides (2018) [FLAC]\Disc 3\08 - Ran Tan Waltz.wav

Peak level 90.6 %
Extraction speed 3.1 X
Track quality 99.9 %
Test CRC 8A3D9766
Copy CRC 8A3D9766
Track not present in AccurateRip database
Copy OK

Track 9

Filename E:\Music Collection 2018-2019\Kate Bush - Remastered Part II (2018) [FLAC]\Kate Bush - The Other Sides (2018) [FLAC]\Disc 3\09 - December Will Be Magic Again.wav

Peak level 89.3 %
Extraction speed 4.2 X
Track quality 100.0 %
Test CRC 7DAA0649
Copy CRC 7DAA0649
Track not present in AccurateRip database
Copy OK

Track 10

Filename E:\Music Collection 2018-2019\Kate Bush - Remastered Part II (2018) [FLAC]\Kate Bush - The Other Sides (2018) [FLAC]\Disc 3\10 - Wuthering Heights (Remix,New Vocal).wav

Peak level 81.1 %
Extraction speed 4.5 X
Track quality 100.0 %
Test CRC 4DA5A775
Copy CRC 4DA5A775
Track not present in AccurateRip database
Copy OK


None of the tracks are present in the AccurateRip database

No errors occurred

End of status report

–– CUETools DB Plugin V2.1.6

[CTDB TOCID: d971h4DZlzDQBAU5Q_tRvP84yf8-] found
Submit result: d971h4DZlzDQBAU5Q_tRvP84yf8- has been confirmed
Track | CTDB Status
1 | (4/4) Accurately ripped
2 | (4/4) Accurately ripped
3 | (4/4) Accurately ripped
4 | (4/4) Accurately ripped
5 | (4/4) Accurately ripped
6 | (4/4) Accurately ripped
7 | (4/4) Accurately ripped
8 | (4/4) Accurately ripped
9 | (4/4) Accurately ripped
10 | (4/4) Accurately ripped


==== Log checksum 46DEF2E58C084030A1C61506A493BB5A18435CFC1F2A81D536A4297DB4CEBFDA ====


IN OTHERS' WORDS
11-1. Rocket Man
11-2. Sexual Healing
11-3. Mna na Heireann
11-4. My Lagan Love
11-5. The Man I Love
11-6. Brazil (Sam Lowry's First Dream)
11-7. The Handsome Cabin Boy
11-8. Lord of the Reedy River
11-9. Candle in the Wind

Exact Audio Copy V1.3 from 2. September 2016

EAC extraction logfile from 30. November 2018, 15:30

Kate Bush / The Other Sides: In Others' Words

Used drive : PIONEER BD-RW BDR-XD05 Adapter: 1 ID: 1

Read mode : Secure
Utilize accurate stream : Yes
Defeat audio cache : Yes
Make use of C2 pointers : No

Read offset correction : 667
Overread into Lead-In and Lead-Out : No
Fill up missing offset samples with silence : Yes
Delete leading and trailing silent blocks : No
Null samples used in CRC calculations : Yes
Used interface : Native Win32 interface for Win NT & 2000
Gap handling : Appended to previous track

Used output format : User Defined Encoder
Selected bitrate : 1024 kBit/s
Quality : High
Add ID3 tag : No
Command line compressor : C:\Program Files (x86)\Exact Audio Copy\FLAC\FLAC.EXE
Additional command line options : -8 -e -p -V -T "ARTIST=%artist%" -T "TITLE=%title%" -T "ALBUM=%albumtitle%" -T "DATE=%year%" -T "TRACKNUMBER=%tracknr%" -T "GENRE=%genre%" -T "PERFORMER=%albuminterpret%" -T "COMPOSER=%composer%" %haslyrics%–tag-from-file=LYRICS="%lyricsfile%"%haslyrics% -T "ALBUMARTIST=%albumartist%" -T "DISCNUMBER=%cdnumber%" -T "TOTALDISCS=%totalcds%" -T "TOTALTRACKS=%numtracks%" -T "COMMENT=%comment%" %source% -o %dest%


TOC of the extracted CD

Track | Start | Length | Start sector | End sector
––––––––––––––––––––––––––––-
1 | 0:00.00 | 5:01.63 | 0 | 22637
2 | 5:01.63 | 5:55.00 | 22638 | 49262
3 | 10:56.63 | 2:57.45 | 49263 | 62582
4 | 13:54.33 | 2:30.51 | 62583 | 73883
5 | 16:25.09 | 3:18.54 | 73884 | 88787
6 | 19:43.63 | 2:15.30 | 88788 | 98942
7 | 21:59.18 | 3:14.45 | 98943 | 113537
8 | 25:13.63 | 2:42.15 | 113538 | 125702
9 | 27:56.03 | 4:32.40 | 125703 | 146142


Track 1

Filename E:\Music Collection 2018-2019\Kate Bush - Remastered Part II (2018) [FLAC]\Kate Bush - The Other Sides (2018) [FLAC]\Disc 4\01 - Rocket Man.wav

Pre-gap length 0:00:02.00

Peak level 92.9 %
Extraction speed 3.0 X
Track quality 100.0 %
Test CRC A07AC9F6
Copy CRC A07AC9F6
Track not present in AccurateRip database
Copy OK

Track 2

Filename E:\Music Collection 2018-2019\Kate Bush - Remastered Part II (2018) [FLAC]\Kate Bush - The Other Sides (2018) [FLAC]\Disc 4\02 - Sexual Healing.wav

Peak level 91.7 %
Extraction speed 3.4 X
Track quality 100.0 %
Test CRC 9F683103
Copy CRC 9F683103
Track not present in AccurateRip database
Copy OK

Track 3

Filename E:\Music Collection 2018-2019\Kate Bush - Remastered Part II (2018) [FLAC]\Kate Bush - The Other Sides (2018) [FLAC]\Disc 4\03 - Mna ná hÉireann.wav

Peak level 81.0 %
Extraction speed 2.9 X
Track quality 99.9 %
Test CRC 7AE657C7
Copy CRC 7AE657C7
Track not present in AccurateRip database
Copy OK

Track 4

Filename E:\Music Collection 2018-2019\Kate Bush - Remastered Part II (2018) [FLAC]\Kate Bush - The Other Sides (2018) [FLAC]\Disc 4\04 - My Lagan Love.wav

Peak level 40.6 %
Extraction speed 3.5 X
Track quality 100.0 %
Test CRC 4DAE9D9B
Copy CRC 4DAE9D9B
Track not present in AccurateRip database
Copy OK

Track 5

Filename E:\Music Collection 2018-2019\Kate Bush - Remastered Part II (2018) [FLAC]\Kate Bush - The Other Sides (2018) [FLAC]\Disc 4\05 - The Man I Love.wav

Peak level 65.8 %
Extraction speed 3.8 X
Track quality 100.0 %
Test CRC B55B02F7
Copy CRC B55B02F7
Track not present in AccurateRip database
Copy OK

Track 6

Filename E:\Music Collection 2018-2019\Kate Bush - Remastered Part II (2018) [FLAC]\Kate Bush - The Other Sides (2018) [FLAC]\Disc 4\06 - Brazil (Sam Lowry's First Dream).wav

Peak level 47.4 %
Extraction speed 3.6 X
Track quality 100.0 %
Test CRC A71B40AF
Copy CRC A71B40AF
Track not present in AccurateRip database
Copy OK

Track 7

Filename E:\Music Collection 2018-2019\Kate Bush - Remastered Part II (2018) [FLAC]\Kate Bush - The Other Sides (2018) [FLAC]\Disc 4\07 - The Handsome Cabin Boy.wav

Peak level 51.7 %
Extraction speed 4.0 X
Track quality 100.0 %
Test CRC 2B3CCB18
Copy CRC 2B3CCB18
Track not present in AccurateRip database
Copy OK

Track 8

Filename E:\Music Collection 2018-2019\Kate Bush - Remastered Part II (2018) [FLAC]\Kate Bush - The Other Sides (2018) [FLAC]\Disc 4\08 - Lord of the Reedy River.wav

Peak level 52.2 %
Extraction speed 4.0 X
Track quality 100.0 %
Test CRC 643FE214
Copy CRC 643FE214
Track not present in AccurateRip database
Copy OK

Track 9

Filename E:\Music Collection 2018-2019\Kate Bush - Remastered Part II (2018) [FLAC]\Kate Bush - The Other Sides (2018) [FLAC]\Disc 4\09 - Candle in the Wind.wav

Peak level 66.9 %
Extraction speed 4.5 X
Track quality 100.0 %
Test CRC 08682977
Copy CRC 08682977
Track not present in AccurateRip database
Copy OK


None of the tracks are present in the AccurateRip database

No errors occurred

End of status report

–– CUETools DB Plugin V2.1.6

[CTDB TOCID: YOlc1dx8I3LCpCXQZ5ndPwESEfE-] found
Submit result: already submitted
Track | CTDB Status
1 | (5/6) Accurately ripped
2 | (6/6) Accurately ripped
3 | (6/6) Accurately ripped
4 | (6/6) Accurately ripped
5 | (6/6) Accurately ripped
6 | (6/6) Accurately ripped
7 | (6/6) Accurately ripped
8 | (6/6) Accurately ripped
9 | (6/6) Accurately ripped


==== Log checksum 9A5CEF0F60AD702EEEB36CC07FC95B368C8672B314CED8733F751627FBA09A00 ====


Kate Bush - Remastered Part 2 (11CD Edition) (2018)


All thanks go to the original releaser