Tags
Language
Tags

Kim Carnes - Just To Spend Tonight With You [CD-Single] (1988)

Posted By: BlondStyle
Kim Carnes - Just To Spend Tonight With You [CD-Single] (1988)

Kim Carnes - Just To Spend Tonight With You [CD-Single] (1988)
Pop/Rock, Country, Adult Contemporary | EAC Rip | FLAC, Img+CUE+LOG+Scans (PNG) | 12:24 | 180,77 Mb
Label: MCA Records (UK) | Cat.# DMCA 1290 | Released: 1988

The 3rd single, "Just to Spend Tonight with You" from Kim's 11th studio album "View from the House" (1988), was released in the United Kingdom only, though did not chart.
Kim Carnes - Just To Spend Tonight With You [CD-Single] (1988)

Kim Carnes - Just To Spend Tonight With You [CD-Single] (1988)




Release of this CD-Single: 1988 [CD MCA Records (UK), Cat.# DMCA 1290 / UPC: 5011781129021]
Original sound recordings made by MCA Records Inc.
MCA Records Ltd. are the exclusive licensees for the U.K.
℗&© 1988 MCA Records Inc.
Made in England

Credits:

Producer – Jimmy Bowen, Kim Carnes

Tracklist:

01. Just To Spend Tonight With You (04:52)
(Kim Carnes, Donna Weiss)
02. Willie And The Hand Jive (04:11)
(Johnny Otis)
03. Blood From The Bandit (03:21)
(Kim Carnes, Donna Weiss)

Exact Audio Copy V1.3 from 2. September 2016

EAC extraction logfile from 27. November 2019, 23:15

Kim Carnes / Just To Spend Tonight With You (CD Single)

Used drive : PIONEER BD-RW BDR-208D Adapter: 1 ID: 0

Read mode : Secure
Utilize accurate stream : Yes
Defeat audio cache : Yes
Make use of C2 pointers : No

Read offset correction : 667
Overread into Lead-In and Lead-Out : No
Fill up missing offset samples with silence : Yes
Delete leading and trailing silent blocks : No
Null samples used in CRC calculations : Yes
Used interface : Native Win32 interface for Win NT & 2000

Used output format : Internal WAV Routines
Sample format : 44.100 Hz; 16 Bit; Stereo


TOC of the extracted CD

Track | Start | Length | Start sector | End sector
––––––––––––––––––––––––––––-
1 | 0:00.33 | 4:51.70 | 33 | 21927
2 | 4:52.28 | 4:10.47 | 21928 | 40724
3 | 9:03.00 | 3:21.05 | 40725 | 55804


Range status and errors

Selected range

Filename D:\BlondStyle\Kim Carnes - Just To Spend Tonight With You (CD Single).wav

Peak level 80.9 %
Extraction speed 4.9 X
Range quality 99.9 %
Test CRC 88DBBCEA
Copy CRC 88DBBCEA
Copy OK

No errors occurred


AccurateRip summary

Track 1 not present in database
Track 2 not present in database
Track 3 not present in database

None of the tracks are present in the AccurateRip database

End of status report

–– CUETools DB Plugin V2.1.6

[CTDB TOCID: hIHUSOfg7RLaX3uT47wfKV_.Eww-] disk not present in database
Submit result: hIHUSOfg7RLaX3uT47wfKV_.Eww- has been uploaded


==== Log checksum 78CE382CA7FDD01CB9AA1F32DAFC86AFCD93DBC4C7FF89F478E5A069E7BB013F ====

––––––––––––––––––––––––––––––––––––––––
Analyzed: Kim Carnes / Just To Spend Tonight With You (CD Single)
––––––––––––––––––––––––––––––––––––––––

DR Peak RMS Duration Track
––––––––––––––––––––––––––––––––––––––––
DR12 -1.84 dB -15.92 dB 4:52 01-Just To Spend Tonight With You
DR13 -2.32 dB -16.50 dB 4:11 02-Willie And The Hand Jive
DR12 -2.38 dB -18.62 dB 3:21 03-Blood From The Bandit
––––––––––––––––––––––––––––––––––––––––

Number of tracks: 3
Official DR value: DR12

Samplerate: 44100 Hz
Channels: 2
Bits per sample: 16
Bitrate: 790 kbps
Codec: FLAC
================================================================================

See also:

♫~Welcome To My Blog~♫

password: BlondStyle