Tags
Language
Tags

King Crimson - The Collectors' King Crimson Volume Six (2002)

Posted By:
King Crimson - The Collectors' King Crimson Volume Six (2002)

King Crimson - The Collectors' King Crimson Volume Six (2002)
EAC | Flac(Image) + Cue + Log & MP3 CBR 320Kbps
3CD | Pony Canyon, PCCY-01583 | Japan | ~ 1345 or 494 Mb | Artwork -> 86 Mb
Progressive Rock

~ ProjeKct Two - Live In Northampton 1998; King Crimson - Live In Detroit 1971 & Live In Nashville 2001 ~

This box set contains three consecutive volumes from the King Crimson Collector's Club: Projekct Two: Live in Northampton, MA July 1, 1998, Live in Detroit, MI 1971, and Live in Nashville, TN. The first disc features instrumental improvisations from ProjeKct Two – the second fraKctilization of the double-trio – consisting of Robert Fripp (guitar), Adrian Belew (V-drums), and Trey Gunn (touch guitar/talker), captured in performance in Northampton, MA, at the Pearl Street Club on July 1, 1998. This combo is fuelled by some of the most chilling soundscape techniques and patterns Fripp has incorporated into any of his recordings. The various "Vector Shifts" act as bridges as well as textural indicators of things to come. Belew relegates himself to a decidedly more percussive role in this context and Fripp's unmistakably pungent solo guitar lines weave hypnotically throughout the intricately funky double- and triple-time signatures of "X-Chayn-JiZ." Belew's incorporation of the electronic or "virtual" drums is often more akin to the Synclavier compositions and performances of Frank Zappa than an over-clocked Casio keyboard. Using a pastiche of sound effects and sampled percussive beats, his unrelenting electro rhythms propel Fripp and Gunn into startling sonic topography during the preamble of "Light ConstruKction" and the denser and seething "Heavy ConstruKction." Next up are portions of a 90-minute live King Crimson set derived from the East Towne Theater in Detroit, MI, on November 11, 1971. The band embarked upon their fall 1971 North American tour in support of the Islands album – which was still a month away from release at the time of this show. This mini-tour would be the last to involve founding member Peter Sinfield. His work with the band included significant lyrical contributions in the studio, as well as their sound and lights on the road. The Islands-era track "Formentera Lady" and instrumental counterpart "Sailor's Tale" are of particular note, as the loose structure encourages primal contributions from Robert Fripp (guitar) and Ian Wallace(drums). Their clever timing and cacophonous exchanges raise the stakes higher and higher until they become buried in a sonic tidal wave of white noise from a VCS3 synthesizer manipulated off-stage by Sinfield. The 12-bar blues reading of "In the Court of the Crimson King" is unfathomable until heard. Additionally, Fripp and Wallace's on-stage banter before the encore reveals a few witty gems. The quality of the mixing-desk [read: soundboard] tape is remarkable for its time. Finally, Live in Nashville, TN features the talents of Adrian Belew (guitar/vocals), Robert Fripp (guitar), Trey Gunn (Warr guitar), and Pat Mastelotto (percussion). The band is captured here during the opening performances of the Level Five North America tour, which took place in November and December of 2001. The standard practice and methodology of recording an album first and then touring to support it has been abandoned in favor of what Belew calls "risky listening," which involves working through new material in front of a live audience night after night prior to taking it into the studio. Although the tour's typical 90-minute performance has been truncated to necessitate a single CD, the track list for Live in Nashville, TN accurately represents the resonant fusion of road-tested warhorses such as "Red" and "Thela Hun Ginjeet" as well as the debut performance of the instrumental "eleKtriK." Indeed, it is a glowing testament to the astounding musicality and discipline of this unit to be able to pull off a challenging endeavor with such aplomb. This is especially evident when considering that this 21st century schizoid band is as musically informed by cutting-edge industrial artists Rammstein or Tool. The Collectors' King Crimson box sets are specifically designed for the Australian market and have been slightly edited with respect to each title's mail-order configurations. As such, the partial "Lady of the Dancing Water" from Live in Detroit, MI 1971 and "Red" off of Live in Nashville, TN have been excised for use in this volume.

by Lindsay Planer, allmusic
King Crimson - The Collectors' King Crimson Volume Six (2002):

King Crimson - The Collectors' King Crimson Volume Six (2002)

Tracklist CD1. ProjeKct Two - Live In Northampton 1998:

01. Vector Shift (10:44)
02. X-Chayn-JiZ (05:54)
03. Vector Shift (02:03)
04. Vector Shift To Planet Belewbeloid (00:28)
05. Light ConstruKction (05:29)
06. Heavy ConstruKction (06:01)
07. The Deception Of The Thrush (08:31)
08. Sus-Tayn-Z (06:41)
09. Vector Shift (07:38)
10. Contrary ConstruKction (07:23)

Exact Audio Copy V1.0 beta 3 from 29. August 2011

EAC extraction logfile from 3. May 2014, 8:32

ProjeKct Two / Live In Northampton, MA, July 1, 1998

Used drive : LITE-ON DVDRW LH-20A1L Adapter: 6 ID: 0

Read mode : Secure
Utilize accurate stream : Yes
Defeat audio cache : Yes
Make use of C2 pointers : No

Read offset correction : 6
Overread into Lead-In and Lead-Out : No
Fill up missing offset samples with silence : Yes
Delete leading and trailing silent blocks : No
Null samples used in CRC calculations : Yes
Used interface : Installed external ASPI interface

Used output format : Internal WAV Routines
Sample format : 44.100 Hz; 16 Bit; Stereo


TOC of the extracted CD

Track | Start | Length | Start sector | End sector
––––––––––––––––––––––––––––-
1 | 0:00.00 | 10:44.42 | 0 | 48341
2 | 10:44.42 | 5:54.45 | 48342 | 74936
3 | 16:39.12 | 2:03.68 | 74937 | 84229
4 | 18:43.05 | 0:28.60 | 84230 | 86389
5 | 19:11.65 | 5:29.20 | 86390 | 111084
6 | 24:41.10 | 6:01.65 | 111085 | 138224
7 | 30:43.00 | 8:31.57 | 138225 | 176606
8 | 39:14.57 | 6:41.03 | 176607 | 206684
9 | 45:55.60 | 7:38.70 | 206685 | 241104
10 | 53:34.55 | 7:23.22 | 241105 | 274351


Range status and errors

Selected range

Filename Z:\data\hexonut\Seeding\King Crimson\2002-The Collectors' King Crimson Volume Six\2002-ProjeKct Two - Live In Northampton, MA, July 1, 1998\Live In Northampton, MA, July 1, 1998.wav

Peak level 95.5 %
Extraction speed 9.0 X
Range quality 100.0 %
Test CRC DC3AB597
Copy CRC DC3AB597
Copy OK

No errors occurred


AccurateRip summary

Track 1 accurately ripped (confidence 2) [278A6D9A] (AR v2)
Track 2 accurately ripped (confidence 2) [3F363B63] (AR v2)
Track 3 accurately ripped (confidence 2) [136165E2] (AR v2)
Track 4 accurately ripped (confidence 2) [C184EAC4] (AR v2)
Track 5 accurately ripped (confidence 2) [142E5F30] (AR v2)
Track 6 accurately ripped (confidence 2) [F39E43C4] (AR v2)
Track 7 accurately ripped (confidence 2) [1BC86B53] (AR v2)
Track 8 accurately ripped (confidence 2) [EA296AF2] (AR v2)
Track 9 accurately ripped (confidence 2) [8F26145A] (AR v2)
Track 10 accurately ripped (confidence 2) [0364C260] (AR v2)

All tracks accurately ripped

End of status report

==== Log checksum 7B20DCE4C3BA105B58B3B3080C2F41FD043ED79D6892293B4F613074292C431A ====


[CUETools log; Date: 29.05.2014 3:39:44; Version: 2.1.4]
[CTDB TOCID: PjdXMk9Sx.3uBMZ5QsYIHTtiJH0-] found.
Track | CTDB Status
1 | (3/3) Accurately ripped
2 | (3/3) Accurately ripped
3 | (3/3) Accurately ripped
4 | (3/3) Accurately ripped
5 | (3/3) Accurately ripped
6 | (3/3) Accurately ripped
7 | (3/3) Accurately ripped
8 | (3/3) Accurately ripped
9 | (3/3) Accurately ripped
10 | (3/3) Accurately ripped
[AccurateRip ID: 001600a6-00ae5a5a-7a0e4a0a] found.
Track [ CRC | V2 ] Status
01 [e9a1c5fe|278a6d9a] (2+2/7) Accurately ripped
02 [66fd34c4|3f363b63] (2+2/7) Accurately ripped
03 [dd02ca11|136165e2] (2+2/7) Accurately ripped
04 [6260bd6e|c184eac4] (2+2/7) Accurately ripped
05 [1a9e614d|142e5f30] (2+2/7) Accurately ripped
06 [554a0836|f39e43c4] (2+2/7) Accurately ripped
07 [d249c841|1bc86b53] (2+2/7) Accurately ripped
08 [08976872|ea296af2] (2+2/7) Accurately ripped
09 [a50787db|8f26145a] (2+2/7) Accurately ripped
10 [ad1c6105|0364c260] (2+2/7) Accurately ripped
Offsetted by -676:
01 [fbd6f320] (3/7) Accurately ripped
02 [0f020b57] (3/7) Accurately ripped
03 [a12d1d26] (3/7) Accurately ripped
04 [631d290e] (3/7) Accurately ripped
05 [9bc8969b] (3/7) Accurately ripped
06 [ca3d939f] (3/7) Accurately ripped
07 [eda43731] (3/7) Accurately ripped
08 [749986ee] (3/7) Accurately ripped
09 [a475c281] (3/7) Accurately ripped
10 [88fa01f2] (3/7) Accurately ripped

Track Peak [ CRC32 ] [W/O NULL] [ LOG ]
– 95,5 [DC3AB597] [FB82D55D] CRC32
01 92,6 [A1471703] [09A12D1D]
02 91,6 [76B94240] [2602DDB9]
03 88,0 [068FD457] [7610E969]
04 61,4 [20569367] [931E8F7F]
05 95,3 [D89096ED] [4E70C68E]
06 94,7 [D54F62F7] [7AFB5169]
07 94,4 [D1AAE75A] [F586BFEA]
08 93,1 [A88F5BDB] [B6F045DF]
09 93,4 [E443436A] [5CD0722D]
10 95,5 [0E815933] [7B3E8FC7]


King Crimson - The Collectors' King Crimson Volume Six (2002)

Tracklist CD2. Live In Detroit 1971:

01. Pictures Of A City (09:03)
02. Formentera Lady (08:59)
03. Sailor's Tale (06:08)
04. Cirkus (09:14)
05. Ladies Of The Road (07:55)
06. Groon (08:02)
07. 21st Century Schizoid Man (13:17)
08. Mars (11:02)
09. In The Court Of The Crimson King (03:34)

Exact Audio Copy V1.0 beta 3 from 29. August 2011

EAC extraction logfile from 3. May 2014, 8:43

King Crimson / Live In Detroit, MI, December 13, 1971

Used drive : PLEXTOR CD-R PX-240A Adapter: 6 ID: 1

Read mode : Secure
Utilize accurate stream : Yes
Defeat audio cache : Yes
Make use of C2 pointers : No

Read offset correction : 6
Overread into Lead-In and Lead-Out : No
Fill up missing offset samples with silence : Yes
Delete leading and trailing silent blocks : No
Null samples used in CRC calculations : Yes
Used interface : Installed external ASPI interface

Used output format : Internal WAV Routines
Sample format : 44.100 Hz; 16 Bit; Stereo


TOC of the extracted CD

Track | Start | Length | Start sector | End sector
––––––––––––––––––––––––––––-
1 | 0:00.00 | 9:03.05 | 0 | 40729
2 | 9:03.05 | 8:59.07 | 40730 | 81161
3 | 18:02.12 | 6:08.15 | 81162 | 108776
4 | 24:10.27 | 9:14.10 | 108777 | 150336
5 | 33:24.37 | 7:55.08 | 150337 | 185969
6 | 41:19.45 | 8:02.47 | 185970 | 222166
7 | 49:22.17 | 13:17.53 | 222167 | 281994
8 | 62:39.70 | 11:02.67 | 281995 | 331711
9 | 73:42.62 | 3:34.15 | 331712 | 347776


Range status and errors

Selected range

Filename Z:\data\hexonut\Seeding\King Crimson\2002-The Collectors' King Crimson Volume Six\2002-Live In Detroit, MI, December 13, 1971\Live In Detroit, MI, December 13, 1971.wav

Peak level 80.4 %
Extraction speed 10.5 X
Range quality 99.9 %
Test CRC 66FAB2FB
Copy CRC 66FAB2FB
Copy OK

No errors occurred


AccurateRip summary

Track 1 accurately ripped (confidence 2) [8EAC43AB] (AR v2)
Track 2 accurately ripped (confidence 2) [80F24FFA] (AR v2)
Track 3 accurately ripped (confidence 2) [11F50848] (AR v2)
Track 4 accurately ripped (confidence 2) [5D514A7F] (AR v2)
Track 5 accurately ripped (confidence 2) [6FC5F54C] (AR v2)
Track 6 accurately ripped (confidence 2) [9CF6AC4B] (AR v1)
Track 7 accurately ripped (confidence 2) [175C24B6] (AR v2)
Track 8 accurately ripped (confidence 2) [2B8F1F0E] (AR v2)
Track 9 accurately ripped (confidence 2) [FC746AEA] (AR v2)

All tracks accurately ripped

End of status report

==== Log checksum 267260B9474AD8FD284C9022F28B50D261BCD1B1CE14956AB721B543EA9CF591 ====


[CUETools log; Date: 29.05.2014 3:40:32; Version: 2.1.4]
[CTDB TOCID: Bcn8LTVKW6eQQCyNYcWykBdENao-] found.
Track | CTDB Status
1 | (1/1) Accurately ripped
2 | (1/1) Accurately ripped
3 | (1/1) Accurately ripped
4 | (1/1) Accurately ripped
5 | (1/1) Accurately ripped
6 | (1/1) Accurately ripped
7 | (1/1) Accurately ripped
8 | (1/1) Accurately ripped
9 | (1/1) Accurately ripped
[AccurateRip ID: 001ab663-00c4ddeb-74121d09] found.
Track [ CRC | V2 ] Status
01 [3ee54f77|8eac43ab] (2+2/6) Accurately ripped
02 [ca67a728|80f24ffa] (2+2/4) Accurately ripped
03 [6852a7fa|11f50848] (2+2/6) Accurately ripped
04 [0ceb0a39|5d514a7f] (2+2/6) Accurately ripped
05 [833c0983|6fc5f54c] (2+2/6) Accurately ripped
06 [9cf6ac4b|56c5e9c6] (2+0/4) Accurately ripped
07 [306882f2|175c24b6] (2+2/6) Accurately ripped
08 [33a9e409|2b8f1f0e] (2+2/6) Accurately ripped
09 [3143787e|fc746aea] (2+2/4) Accurately ripped
Offsetted by -669:
01 [3546c6f1] (0/6) No match (V2 was not tested)
02 [9627d301] (0/4) No match (V2 was not tested)
03 [c0d4fccf] (0/6) No match (V2 was not tested)
04 [16bfb2df] (0/6) No match (V2 was not tested)
05 [c165878a] (0/6) No match (V2 was not tested)
06 [20e1ead5] (0/4) No match (V2 was not tested)
07 [c7301843] (0/6) No match (V2 was not tested)
08 [09c6732d] (0/6) No match (V2 was not tested)
09 [6921af65] (0/4) No match (V2 was not tested)

Track Peak [ CRC32 ] [W/O NULL] [ LOG ]
– 80,4 [66FAB2FB] [7E60E332] CRC32
01 80,4 [E000F28B] [C24A6F94]
02 62,5 [47D36838] [E741E8D0]
03 63,2 [45525E97] [179A5DD1]
04 63,5 [519D7ED9] [2D29CA65]
05 78,7 [ABC67E1D] [A7286314]
06 63,2 [E0E06071] [69BF4BDC]
07 72,6 [CC7765C0] [052EA28A]
08 79,9 [08186FBE] [F7BAAF66]
09 74,5 [C09E1058] [5D3C90A7]


King Crimson - The Collectors' King Crimson Volume Six (2002)

Tracklist CD3. Live In Nashville 2001:

01. Dangerous Curves (04:34)
02. Level Five (07:51)
03. The ConstruKction Of Light (08:49)
04. ProzaKc Blues (05:57)
05. EleKtriK (08:14)
06. Thela Hun Ginjeet (05:45)
07. Virtuous Circle (07:04)
08. Elephant Talk (04:16)
09. Larks' Tongues In Aspic: Part IV (10:40)
10. The Deception Of The Thrush (07:53)

Exact Audio Copy V1.0 beta 3 from 29. August 2011

EAC extraction logfile from 3. May 2014, 8:53

King Crimson / Live In Nashville, TN, November 9 & 10, 2001

Used drive : LITE-ON DVDRW LH-20A1L Adapter: 6 ID: 0

Read mode : Secure
Utilize accurate stream : Yes
Defeat audio cache : Yes
Make use of C2 pointers : No

Read offset correction : 6
Overread into Lead-In and Lead-Out : No
Fill up missing offset samples with silence : Yes
Delete leading and trailing silent blocks : No
Null samples used in CRC calculations : Yes
Used interface : Installed external ASPI interface

Used output format : Internal WAV Routines
Sample format : 44.100 Hz; 16 Bit; Stereo


TOC of the extracted CD

Track | Start | Length | Start sector | End sector
––––––––––––––––––––––––––––-
1 | 0:00.00 | 4:34.07 | 0 | 20556
2 | 4:34.07 | 7:51.00 | 20557 | 55881
3 | 12:25.07 | 8:49.30 | 55882 | 95586
4 | 21:14.37 | 5:57.13 | 95587 | 122374
5 | 27:11.50 | 8:14.05 | 122375 | 159429
6 | 35:25.55 | 5:45.60 | 159430 | 185364
7 | 41:11.40 | 7:04.17 | 185365 | 217181
8 | 48:15.57 | 4:16.28 | 217182 | 236409
9 | 52:32.10 | 10:40.05 | 236410 | 284414
10 | 63:12.15 | 7:54.15 | 284415 | 319979


Range status and errors

Selected range

Filename Z:\data\hexonut\Seeding\King Crimson\2002-The Collectors' King Crimson Volume Six\2002-Live In Nashville, TN, November 9 & 10, 2001\Live In Nashville, TN, November 9 & 10, 2001.wav

Peak level 100.0 %
Extraction speed 9.4 X
Range quality 100.0 %
Test CRC 63813178
Copy CRC 63813178
Copy OK

No errors occurred


AccurateRip summary

Track 1 accurately ripped (confidence 2) [80E2C319] (AR v2)
Track 2 accurately ripped (confidence 2) [E53C730B] (AR v2)
Track 3 accurately ripped (confidence 2) [67023C3D] (AR v2)
Track 4 accurately ripped (confidence 2) [0A5995B0] (AR v2)
Track 5 accurately ripped (confidence 2) [474D6718] (AR v2)
Track 6 accurately ripped (confidence 2) [85B9981E] (AR v2)
Track 7 accurately ripped (confidence 2) [91F6208A] (AR v2)
Track 8 accurately ripped (confidence 2) [449FB331] (AR v2)
Track 9 accurately ripped (confidence 2) [A710B6B2] (AR v2)
Track 10 accurately ripped (confidence 2) [BD22D1C6] (AR v2)

All tracks accurately ripped

End of status report

==== Log checksum 0F43AA3C5BB1ADC40BF0277D10789B3253B579844E4C9CAA6DF51E5F9D09D464 ====


[CUETools log; Date: 29.05.2014 3:41:20; Version: 2.1.4]
[CTDB TOCID: 52yPXahBJS9Xm4keEyTgmg2YvY8-] found.
Track | CTDB Status
1 | (1/1) Accurately ripped
2 | (1/1) Accurately ripped
3 | (1/1) Accurately ripped
4 | (1/1) Accurately ripped
5 | (1/1) Accurately ripped
6 | (1/1) Accurately ripped
7 | (1/1) Accurately ripped
8 | (1/1) Accurately ripped
9 | (1/1) Accurately ripped
10 | (1/1) Accurately ripped
[AccurateRip ID: 0019e59f-00d0d5b3-9a10aa0a] found.
Track [ CRC | V2 ] Status
01 [abab6a10|80e2c319] (2+2/4) Accurately ripped
02 [305001bb|e53c730b] (2+2/4) Accurately ripped
03 [49e1e1d2|67023c3d] (2+2/4) Accurately ripped
04 [480e0c44|0a5995b0] (2+2/4) Accurately ripped
05 [59091f33|474d6718] (2+2/4) Accurately ripped
06 [f7953339|85b9981e] (2+2/4) Accurately ripped
07 [a608e117|91f6208a] (2+2/4) Accurately ripped
08 [8dd1ff90|449fb331] (2+2/4) Accurately ripped
09 [8ce604c8|a710b6b2] (2+2/4) Accurately ripped
10 [addf19b7|bd22d1c6] (2+2/4) Accurately ripped

Track Peak [ CRC32 ] [W/O NULL] [ LOG ]
– 100,0 [63813178] [F058F5C8] CRC32
01 86,2 [9110C533] [1FF4EEBC]
02 92,0 [CF9817C9] [B202D6E5]
03 100,0 [EE20C77A] [9FA28B2D]
04 95,8 [99FF13A8] [2A1CF90F]
05 100,0 [9B39D516] [AD8112C1]
06 95,1 [7B358CCF] [9E1D3AE7]
07 77,4 [BF563C3E] [2839B905]
08 97,5 [5C46A829] [C96E673D]
09 98,6 [9670A903] [731CBE0A]
10 68,9 [991EEB0E] [7D1E09EA]


King Crimson - The Collectors' King Crimson Volume Six (2002)

All thanks go to the original releaser

King Crimson in my Blog

Download King Crimson - The Collectors' King Crimson Volume Six (2002):