Tags
Language
Tags

King Crimson - Three Of A Perfect Pair (1984) {2016, 40th Anniversary Edition} CD+DVD-A/V

Posted By: popsakov
King Crimson - Three Of A Perfect Pair (1984) {2016, 40th Anniversary Edition} CD+DVD-A/V

King Crimson - Three Of A Perfect Pair (1984) {2016, 40th Anniversary Edition} CD+DVD-A/V
EAC Rip | WV (Img) + Cue + Log ~ 416 Mb | MP3 CBR320 ~ 178 Mb | Full Scans (JPG, 600 dpi) ~ 67 Mb
DVD-Audio/Video | ISO | Video: MPEG-2, NTSC 720x480 (16:9), 29.970 fps, VBR
Audio: MLP 5.1/2.0 (24/48) / DTS 5.1 (24/48) / LPCM 2.0 (24/48) | ~ 6,86 Gb | RAR 5% Recovery
Art Rock, Progressive Rock | Panegyric / Discipline Global Mobile #KCSP10

Having released two albums in a nine month period between October 1981 and July 1982, “Three of a Perfect Pair” is the final part of the recorded trilogy begun with “Discipline” and “Beat”. Originally released in April 1984, from the pointillist minimalism of the title track through to the urgent rush of ‘Sleepless’ and the album’s closer ‘Larks’ Tongues in Aspic III’ - the only reference to the 1970s incarnations of the band – Crimson’s distinctive mixture of rock, electronica, funk and pure pop songs, ensured the group’s status as one of the most interesting and innovative bands of the decade.

Following the release of the album, the band embarked on a tour of Japan and from there America and Canada. At the completion of the last date in July 1984, Fripp, Bruford, Levin and Belew went their separate ways to pursue their respective solo commitments. King Crimson would reconvene in the mid- 1990s with a double trio line-up featuring all of the 1980s band members, while the band’s current line-up (2014 – present) features both Robert Fripp and Tony Levin from the 1980s band.

King Crimson’s final album of the 1980s is augmented with extra tracks newly mixed for the 2016 edition on CD. As with other albums in the King Crimson CD/DVD-A series, the stereo CD features a new stereo mix by Robert Fripp and Steven Wilson plus additional tracks, while the DVD-A features 5.1 mixes of the album by Steven Wilson and high resolution stereo mixes of the original and new stereo mixes. Additionally, the original album bonus tracks from the 30th anniversary CD are included as is the promo film for ‘Sleepless’, a song originally released as 12” single which became an unlikely hit on the New York dance scene of the time.

***************

Grazia Italia – 28 ottobre 2021

Grazia Italia – 28 ottobre 2021

Track List CD:

2016 Stereo Mix
01. Three of a Perfect Pair [0:04:21.02]
02. Model Man [0:04:01.25]
03. Sleepless [0:05:36.14]
04. Man with an Open Heart [0:03:06.49]
05. Nuages (That Which Passes, Passes Like Clouds) [0:04:47.64]
06. Industry [0:07:04.00]
07. Dig Me [0:03:16.19]
08. No Warning [0:03:29.34]
09. Larks' Tongues in Aspic, Part III [0:06:07.16]
Bonus 2016 Mixes
10. The King Crimson Barber Shop [bonus track] [0:01:38.00]
11. Robert's Ballad [bonus track] [0:03:23.21]
12. Shidare Zakura [bonus track] [0:02:40.57]
13. Industrial Zone A [bonus track] [0:03:15.26]
14. Industrial Zone B [bonus track] [0:05:34.18]
15. Industrial Zone C [bonus track] [0:15:50.05]

Exact Audio Copy V1.2 from 12. August 2016

EAC extraction logfile from 8. November 2017, 20:00

King Crimson / Three of a Perfect Pair (40th Anniversary Edition)[KCSP10]

Used drive : HL-DT-STBD-RE BH10LS38 Adapter: 1 ID: 1

Read mode : Secure
Utilize accurate stream : Yes
Defeat audio cache : Yes
Make use of C2 pointers : No

Read offset correction : 667
Overread into Lead-In and Lead-Out : No
Fill up missing offset samples with silence : Yes
Delete leading and trailing silent blocks : No
Null samples used in CRC calculations : Yes
Used interface : Installed external ASPI interface

Used output format : User Defined Encoder
Selected bitrate : 128 kBit/s
Quality : High
Add ID3 tag : No
Command line compressor : C:\Program Files (x86)\Exact Audio Copy\wavpack-4.60.1\wavpack.exe
Additional command line options : -hm -w "Year=%year%" -w "Genre=%genre%" %source% %dest%


TOC of the extracted CD

Track | Start | Length | Start sector | End sector
––––––––––––––––––––––––––––-
1 | 0:00.00 | 4:21.02 | 0 | 19576
2 | 4:21.02 | 4:01.25 | 19577 | 37676
3 | 8:22.27 | 5:36.14 | 37677 | 62890
4 | 13:58.41 | 3:06.49 | 62891 | 76889
5 | 17:05.15 | 4:47.64 | 76890 | 98478
6 | 21:53.04 | 7:04.00 | 98479 | 130278
7 | 28:57.04 | 3:16.19 | 130279 | 144997
8 | 32:13.23 | 3:29.34 | 144998 | 160706
9 | 35:42.57 | 6:07.16 | 160707 | 188247
10 | 41:49.73 | 1:38.00 | 188248 | 195597
11 | 43:27.73 | 3:23.21 | 195598 | 210843
12 | 46:51.19 | 2:40.57 | 210844 | 222900
13 | 49:32.01 | 3:15.26 | 222901 | 237551
14 | 52:47.27 | 5:34.18 | 237552 | 262619
15 | 58:21.45 | 15:50.05 | 262620 | 333874


Range status and errors

Selected range

Filename G:\Rips by Alder\King Crimson - Three of a Perfect Pair (40th Anniversary Edition)[KCSP10].wav

Peak level 100.0 %
Extraction speed 7.8 X
Range quality 100.0 %
Test CRC 0DF654C2
Copy CRC 0DF654C2
Copy OK

No errors occurred


AccurateRip summary

Track 1 accurately ripped (confidence 56) [06135316] (AR v2)
Track 2 accurately ripped (confidence 55) [4C5208E1] (AR v2)
Track 3 accurately ripped (confidence 56) [64C9EECD] (AR v2)
Track 4 accurately ripped (confidence 55) [9F3A6C7F] (AR v2)
Track 5 accurately ripped (confidence 55) [B25CCE8D] (AR v2)
Track 6 accurately ripped (confidence 55) [90D36030] (AR v2)
Track 7 accurately ripped (confidence 55) [1732DA3E] (AR v2)
Track 8 accurately ripped (confidence 55) [BB87175C] (AR v2)
Track 9 accurately ripped (confidence 55) [CA3B3D80] (AR v2)
Track 10 accurately ripped (confidence 54) [1DF532D1] (AR v2)
Track 11 accurately ripped (confidence 55) [01CC3B2C] (AR v2)
Track 12 accurately ripped (confidence 55) [E6E97E24] (AR v2)
Track 13 accurately ripped (confidence 55) [C5FB0E44] (AR v2)
Track 14 accurately ripped (confidence 55) [56744464] (AR v2)
Track 15 accurately ripped (confidence 54) [054278B9] (AR v2)

All tracks accurately ripped

End of status report

–– CUETools DB Plugin V2.1.6

[CTDB TOCID: fEsm0ygJmc0DeclN4erbOXvbDlg-] found
Submit result: fEsm0ygJmc0DeclN4erbOXvbDlg- has been confirmed
Track | CTDB Status
1 | (133/133) Accurately ripped
2 | (133/133) Accurately ripped
3 | (133/133) Accurately ripped
4 | (133/133) Accurately ripped
5 | (133/133) Accurately ripped
6 | (133/133) Accurately ripped
7 | (133/133) Accurately ripped
8 | (133/133) Accurately ripped
9 | (133/133) Accurately ripped
10 | (133/133) Accurately ripped
11 | (133/133) Accurately ripped
12 | (133/133) Accurately ripped
13 | (133/133) Accurately ripped
14 | (133/133) Accurately ripped
15 | (130/133) Accurately ripped


==== Log checksum F0FF5C333634DC6D072F13169AE23FECF77A942A7730C950AE7AB155BA697D75 ====

foobar2000 1.3.16 / Dynamic Range Meter 1.1.1
log date: 2017-12-16 03:04:57

––––––––––––––––––––––––––––––––––––––––
Analyzed: King Crimson / Three of a Perfect Pair (40th Anniversary Edition)[KCSP10]
––––––––––––––––––––––––––––––––––––––––

DR Peak RMS Duration Track
––––––––––––––––––––––––––––––––––––––––
DR11 -0.13 dB -12.11 dB 4:21 01-Three of a Perfect Pair
DR8 -0.24 dB -11.25 dB 4:01 02-Model Man
DR10 0.00 dB -10.99 dB 5:36 03-Sleepless
DR11 -0.30 dB -12.92 dB 3:07 04-Man with an Open Heart
DR13 -0.38 dB -15.03 dB 4:48 05-Nuages (That Which Passes, Passes Like Clouds)
DR12 -0.44 dB -14.86 dB 7:04 06-Industry
DR11 -0.06 dB -14.55 dB 3:16 07-Dig Me
DR10 -0.36 dB -12.89 dB 3:29 08-No Warning
DR11 -0.19 dB -13.13 dB 6:07 09-Larks' Tongues in Aspic, Part III
DR12 -2.50 dB -17.00 dB 1:38 10-The King Crimson Barber Shop [bonus track]
DR11 -3.41 dB -17.56 dB 3:23 11-Robert's Ballad [bonus track]
DR11 -3.19 dB -16.66 dB 2:41 12-Shidare Zakura [bonus track]
DR11 -1.04 dB -15.09 dB 3:15 13-Industrial Zone A [bonus track]
DR12 -0.33 dB -14.40 dB 5:34 14-Industrial Zone B [bonus track]
DR11 -0.35 dB -14.05 dB 15:50 15-Industrial Zone C [bonus track]
––––––––––––––––––––––––––––––––––––––––

Number of tracks: 15
Official DR value: DR11

Samplerate: 44100 Hz
Channels: 2
Bits per sample: 16
Bitrate: 747 kbps
Codec: WavPack
================================================================================

[CUETools log; Date: 16.12.2017 3:05:10; Version: 2.1.5]
[CTDB TOCID: fEsm0ygJmc0DeclN4erbOXvbDlg-] found.
Track | CTDB Status
1 | (136/136) Accurately ripped
2 | (136/136) Accurately ripped
3 | (136/136) Accurately ripped
4 | (136/136) Accurately ripped
5 | (136/136) Accurately ripped
6 | (136/136) Accurately ripped
7 | (136/136) Accurately ripped
8 | (136/136) Accurately ripped
9 | (136/136) Accurately ripped
10 | (136/136) Accurately ripped
11 | (136/136) Accurately ripped
12 | (136/136) Accurately ripped
13 | (136/136) Accurately ripped
14 | (136/136) Accurately ripped
15 | (133/136) Accurately ripped
[AccurateRip ID: 00245d20-019b791d-c311630f] found.
Track [ CRC | V2 ] Status
01 [d4877a30|06135316] (03+56/62) Accurately ripped
02 [0305b8f9|4c5208e1] (03+55/61) Accurately ripped
03 [f754b1a0|64c9eecd] (03+56/62) Accurately ripped
04 [d5e97ef7|9f3a6c7f] (03+55/61) Accurately ripped
05 [e2568eee|b25cce8d] (03+55/61) Accurately ripped
06 [bcc298a3|90d36030] (03+55/61) Accurately ripped
07 [332dcbb8|1732da3e] (03+55/61) Accurately ripped
08 [1f3e28c6|bb87175c] (03+55/61) Accurately ripped
09 [181142bf|ca3b3d80] (03+55/61) Accurately ripped
10 [52a76ace|1df532d1] (03+54/60) Accurately ripped
11 [7642f2a6|01cc3b2c] (03+55/61) Accurately ripped
12 [dca15db9|e6e97e24] (03+55/61) Accurately ripped
13 [e286f6e1|c5fb0e44] (03+55/61) Accurately ripped
14 [61b45f83|56744464] (03+55/61) Accurately ripped
15 [a7cf18d5|054278b9] (02+54/59) Accurately ripped
Offsetted by -25:
01 [7ab0359c] (00/62) No match (V2 was not tested)
02 [f0f0ec32] (00/61) No match (V2 was not tested)
03 [f0cc05c9] (00/62) No match (V2 was not tested)
04 [2195e279] (00/61) No match (V2 was not tested)
05 [0158e90d] (00/61) No match (V2 was not tested)
06 [9c42fda4] (00/61) No match (V2 was not tested)
07 [a5df9ae1] (00/61) No match (V2 was not tested)
08 [fbb2b664] (00/61) No match (V2 was not tested)
09 [b26f7079] (00/61) No match (V2 was not tested)
10 [f751bd8b] (00/60) No match (V2 was not tested)
11 [9133bb94] (00/61) No match (V2 was not tested)
12 [af3b2501] (00/61) No match (V2 was not tested)
13 [241165f5] (00/61) No match (V2 was not tested)
14 [9b437c6a] (00/61) No match (V2 was not tested)
15 [ec67c980] (00/59) No match (V2 was not tested)

Track Peak [ CRC32 ] [W/O NULL] [ LOG ]
– 100,0 [0DF654C2] [F96DC82A] CRC32
01 98,5 [4BD714C3] [9BB73507]
02 97,3 [FAF691DC] [0E5DE716]
03 100,0 [8EA43A0C] [D447E30A]
04 96,5 [F782B7FA] [768E4A37]
05 95,6 [B6A2C71A] [E5216ABC]
06 95,0 [532B2D8C] [434F9B6B]
07 99,3 [CB393C8E] [70E34C94]
08 95,9 [702FC558] [E71D1C02]
09 97,8 [2D557AA3] [05384E21]
10 74,9 [72A02711] [13EC6E46]
11 67,5 [5083D722] [AFA86D29]
12 69,2 [4D680B22] [84EDB25D]
13 88,6 [561EA811] [4E8945D8]
14 96,3 [287CD014] [829B7D8F]
15 96,0 [1A03D7FF] [692ABCED]

Grazia Italia – 28 ottobre 2021

Track List DVD:

MLP Lossless 5.1 Surround
DTS 5.1 Digital Surround


Original Album
01. Three Of A Perfect Pair 4:22
02. Model Man 3:59
03. Sleepless 5:37
04. Man With An Open Heart 3:08
05. Nuages (That Which Passes, Passes Like Clouds) 4:48
06. Industry 7:06
07. Dig Me 3:16
08. No Warning 3:29
09. Larks' Tongues In Aspic Part III 6:04
Bonus Tracks
10. The King Crimson Barber Shop 1:41
11. Robert's Ballad 3:23

MLP Lossless Stereo (24/48)
PCM Stereo 2.0 (24/48)


2016 Stereo Mix
01. Three Of A Perfect Pair 4:22
02. Model Man 3:59
03. Sleepless 5:37
04. Man With An Open Heart 3:08
05. Nuages (That Which Passes, Passes Like Clouds) 4:48
06. Industry 7:06
07. Dig Me 3:16
08. No Warning 3:29
09. Larks' Tongues In Aspic Part III 6:04
Bonus Tracks
10. The King Crimson Barber Shop 1:41
11. Robert's Ballad 3:23
12. Shidare Zakura 2:40
13. Industrial Zone A 3:15
14. Industrial Zone B 5:36
15. Industrial Zone C 15:52

PCM Stereo 2.0 (24/48)

30th Anniversary Remaster
Left Side
01. Three Of A Perfect Pair 4:13
02. Model Man 3:49
03. Sleepless 5:24
04. Man With An Open Heart 3:06
05. Nuages (That Which Passes, Passes Like Clouds) 4:48
Right Side
01. Industry 7:06
02. Dig Me 3:17
03. No Warning 3:28
04. Larks' Tongues In Aspic Part III 6:06

Other Side
01. The King Crimson Barber Shop 1:38
02. Industrial Zone A 1:43
03. Industrial Zone B 4:34
04. Sleepless (Tony Levin Mix) 7:28
05. Sleepless (Bob Clearmountain Mix) 5:25
06. Sleepless (Dance Mix - F. Kevorkian) 6:20

Video Content:

01. Sleepless (Promotional Video)

General
Complete name : I:\VIDEO_TS\VIDEO_TS.BUP
Format : DVD Video
Format profile : Menu
File size : 14.0 KiB
Overall bit rate mode : Variable
FileExtension_Invalid : ifo

Video
ID : 224 (0xE0)
Format : MPEG Video
Format version : Version 2
Bit rate mode : Variable
Width : 720 pixels
Height : 480 pixels
Display aspect ratio : 16:9
Frame rate : 29.970 (29970/1000) FPS
Standard : NTSC
Compression mode : Lossy

Audio
Format : PCM
Channel(s) : 2 channels
Sampling rate : 48.0 kHz

Text
Format : RLE
Format/Info : Run-length encoding
Bit depth : 2 bits

General
Complete name : I:\VIDEO_TS\VIDEO_TS.IFO
Format : DVD Video
Format profile : Menu
File size : 14.0 KiB
Overall bit rate mode : Variable

Video
ID : 224 (0xE0)
Format : MPEG Video
Format version : Version 2
Bit rate mode : Variable
Width : 720 pixels
Height : 480 pixels
Display aspect ratio : 16:9
Frame rate : 29.970 (29970/1000) FPS
Standard : NTSC
Compression mode : Lossy

Audio
Format : PCM
Channel(s) : 2 channels
Sampling rate : 48.0 kHz

Text
Format : RLE
Format/Info : Run-length encoding
Bit depth : 2 bits

General
Complete name : I:\VIDEO_TS\VIDEO_TS.VOB
Format : MPEG-PS
File size : 41.4 MiB
Duration : 44 s 815 ms
Overall bit rate : 7 754 kb/s

Video
ID : 224 (0xE0)
Format : MPEG Video
Format version : Version 2
Format profile : Main@Main
Format settings : CustomMatrix / BVOP
Format settings, BVOP : Yes
Format settings, Matrix : Custom
Format settings, GOP : Variable
Format settings, picture structure : Frame
Duration : 33 ms
Bit rate mode : Constant
Bit rate : 6 064 kb/s
Maximum bit rate : 6 000 kb/s
Width : 720 pixels
Height : 480 pixels
Display aspect ratio : 16:9
Frame rate : 29.970 (30000/1001) FPS
Standard : NTSC
Color space : YUV
Chroma subsampling : 4:2:0
Bit depth : 8 bits
Scan type : Interlaced
Scan order : Top Field First
Compression mode : Lossy
Bits/(Pixel*Frame) : 0.585
Time code of first frame : 00:00:00;00
Time code source : Group of pictures header
GOP, Open/Closed : Open
GOP, Open/Closed of first frame : Closed
Stream size : 24.7 KiB (0%)

Audio
ID : 189 (0xBD)-160 (0xA0)
Format : PCM
Format settings : Big / Signed
Muxing mode : DVD-Video
Duration : 44 s 815 ms
Bit rate mode : Constant
Bit rate : 1 536 kb/s
Channel(s) : 2 channels
Sampling rate : 48.0 kHz
Bit depth : 16 bits
Stream size : 8.21 MiB (20%)

Text #1
ID : 189 (0xBD)-32 (0x20)
Format : RLE
Format/Info : Run-length encoding
Muxing mode : DVD-Video

Text #2
ID : 189 (0xBD)-33 (0x21)
Format : RLE
Format/Info : Run-length encoding
Muxing mode : DVD-Video

Text #3
ID : 189 (0xBD)-34 (0x22)
Format : RLE
Format/Info : Run-length encoding
Muxing mode : DVD-Video

Menu

General
Complete name : I:\VIDEO_TS\VTS_01_0.BUP
Format : DVD Video
Format profile : Program
File size : 18.0 KiB
Duration : 3 min 41 s
Overall bit rate mode : Variable
Overall bit rate : 666 b/s
FileExtension_Invalid : ifo

Video
ID : 224 (0xE0)
Format : MPEG Video
Format version : Version 2
Duration : 3 min 41 s
Bit rate mode : Variable
Width : 720 pixels
Height : 480 pixels
Display aspect ratio : 16:9
Frame rate : 29.970 (29970/1000) FPS
Standard : NTSC
Compression mode : Lossy

Audio
ID : 0 (0x0)
Format : PCM
Duration : 3 min 41 s
Channel(s) : 2 channels
Sampling rate : 48.0 kHz
Language : English

Menu
Duration : 3 min 41 s
00:00:00.000 : Chapter 1
List (Audio) : 0

General
Complete name : I:\VIDEO_TS\VTS_01_0.IFO
Format : DVD Video
Format profile : Program
File size : 18.0 KiB
Duration : 3 min 41 s
Overall bit rate mode : Variable
Overall bit rate : 666 b/s

Video
ID : 224 (0xE0)
Format : MPEG Video
Format version : Version 2
Duration : 3 min 41 s
Bit rate mode : Variable
Width : 720 pixels
Height : 480 pixels
Display aspect ratio : 16:9
Frame rate : 29.970 (29970/1000) FPS
Standard : NTSC
Compression mode : Lossy

Audio
ID : 0 (0x0)
Format : PCM
Duration : 3 min 41 s
Channel(s) : 2 channels
Sampling rate : 48.0 kHz
Language : English

Menu
Duration : 3 min 41 s
00:00:00.000 : Chapter 1
List (Audio) : 0

General
Complete name : I:\VIDEO_TS\VTS_01_0.VOB
Format : MPEG-PS
File size : 14.0 KiB
Duration : 33 ms
Overall bit rate mode : Variable
Overall bit rate : 3 475 kb/s

Video
ID : 224 (0xE0)
Format : MPEG Video
Format version : Version 2
Format profile : Main@Main
Format settings, BVOP : No
Format settings, Matrix : Default
Duration : 33 ms
Bit rate mode : Variable
Maximum bit rate : 9 000 kb/s
Width : 720 pixels
Height : 480 pixels
Display aspect ratio : 16:9
Frame rate : 29.970 (30000/1001) FPS
Standard : NTSC
Color space : YUV
Chroma subsampling : 4:2:0
Bit depth : 8 bits
Scan type : Progressive
Scan order : Top Field First
Compression mode : Lossy
Time code of first frame : 00:00:00;00
Time code source : Group of pictures header
Color primaries : BT.601 NTSC
Transfer characteristics : BT.601
Matrix coefficients : BT.601

Text #1
ID : 189 (0xBD)-32 (0x20)
Format : RLE
Format/Info : Run-length encoding
Muxing mode : DVD-Video

Text #2
ID : 189 (0xBD)-33 (0x21)
Format : RLE
Format/Info : Run-length encoding
Muxing mode : DVD-Video

Text #3
ID : 189 (0xBD)-34 (0x22)
Format : RLE
Format/Info : Run-length encoding
Muxing mode : DVD-Video

Menu

General
Complete name : I:\VIDEO_TS\VTS_01_1.VOB
Format : MPEG-PS
File size : 223 MiB
Duration : 3 min 41 s
Overall bit rate mode : Variable
Overall bit rate : 8 426 kb/s

Video
ID : 224 (0xE0)
Format : MPEG Video
Format version : Version 2
Format profile : Main@Main
Format settings : BVOP
Format settings, BVOP : Yes
Format settings, Matrix : Default
Format settings, GOP : M=3, N=12
Duration : 3 min 41 s
Bit rate mode : Variable
Bit rate : 6 723 kb/s
Maximum bit rate : 8 000 kb/s
Width : 720 pixels
Height : 480 pixels
Display aspect ratio : 16:9
Frame rate : 23.976 (24000/1001) FPS
Color space : YUV
Chroma subsampling : 4:2:0
Bit depth : 8 bits
Scan type : Progressive
Scan order : 2:3 Pulldown
Compression mode : Lossy
Bits/(Pixel*Frame) : 0.811
Time code of first frame : 00:00:00:00
Time code source : Group of pictures header
GOP, Open/Closed : Open
GOP, Open/Closed of first frame : Closed
Stream size : 178 MiB (80%)

Audio
ID : 189 (0xBD)-160 (0xA0)
Format : PCM
Format settings : Big / Signed
Muxing mode : DVD-Video
Duration : 3 min 41 s
Bit rate mode : Constant
Bit rate : 1 536 kb/s
Channel(s) : 2 channels
Sampling rate : 48.0 kHz
Bit depth : 24 bits
Delay relative to video : -16 ms
Stream size : 40.6 MiB (18%)

Menu

General
Complete name : I:\VIDEO_TS\VTS_02_0.BUP
Format : DVD Video
Format profile : Program
File size : 42.0 KiB
Duration : 46 min 48 s
Overall bit rate mode : Variable
Overall bit rate : 123 b/s
FileExtension_Invalid : ifo

Video
ID : 224 (0xE0)
Format : MPEG Video
Format version : Version 2
Duration : 46 min 48 s
Bit rate mode : Variable
Width : 720 pixels
Height : 480 pixels
Display aspect ratio : 16:9
Frame rate : 29.970 (29970/1000) FPS
Standard : NTSC
Compression mode : Lossy

Audio #1
ID : 128 (0x80)
Format : AC-3
Format/Info : Audio Coding 3
Duration : 46 min 48 s
Channel(s) : 6 channels
Sampling rate : 48.0 kHz
Compression mode : Lossy
Language : English

Audio #2
ID : 137 (0x89)
Format : DTS
Format/Info : Digital Theater Systems
Duration : 46 min 48 s
Channel(s) : 6 channels
Sampling rate : 48.0 kHz
Compression mode : Lossy
Language : English

Menu
Duration : 46 min 48 s
00:00:00.000 : Chapter 1
00:04:21.000 : Chapter 2
00:08:20.000 : Chapter 3
00:13:56.000 : Chapter 4
00:17:04.000 : Chapter 5
00:21:51.000 : Chapter 6
00:28:56.000 : Chapter 7
00:32:12.000 : Chapter 8
00:35:41.000 : Chapter 9
00:41:44.000 : Chapter 10
00:43:25.000 : Chapter 11
List (Audio) : 0 / 1

General
Complete name : I:\VIDEO_TS\VTS_02_0.IFO
Format : DVD Video
Format profile : Program
File size : 42.0 KiB
Duration : 46 min 48 s
Overall bit rate mode : Variable
Overall bit rate : 123 b/s

Video
ID : 224 (0xE0)
Format : MPEG Video
Format version : Version 2
Duration : 46 min 48 s
Bit rate mode : Variable
Width : 720 pixels
Height : 480 pixels
Display aspect ratio : 16:9
Frame rate : 29.970 (29970/1000) FPS
Standard : NTSC
Compression mode : Lossy

Audio #1
ID : 128 (0x80)
Format : AC-3
Format/Info : Audio Coding 3
Duration : 46 min 48 s
Channel(s) : 6 channels
Sampling rate : 48.0 kHz
Compression mode : Lossy
Language : English

Audio #2
ID : 137 (0x89)
Format : DTS
Format/Info : Digital Theater Systems
Duration : 46 min 48 s
Channel(s) : 6 channels
Sampling rate : 48.0 kHz
Compression mode : Lossy
Language : English

Menu
Duration : 46 min 48 s
00:00:00.000 : Chapter 1
00:04:21.000 : Chapter 2
00:08:20.000 : Chapter 3
00:13:56.000 : Chapter 4
00:17:04.000 : Chapter 5
00:21:51.000 : Chapter 6
00:28:56.000 : Chapter 7
00:32:12.000 : Chapter 8
00:35:41.000 : Chapter 9
00:41:44.000 : Chapter 10
00:43:25.000 : Chapter 11
List (Audio) : 0 / 1

General
Complete name : I:\VIDEO_TS\VTS_02_0.VOB
Format : MPEG-PS
File size : 88.0 KiB
Duration : 33 ms
Overall bit rate mode : Variable
Overall bit rate : 21.8 Mb/s

Video
ID : 224 (0xE0)
Format : MPEG Video
Format version : Version 2
Format profile : Main@Main
Format settings, BVOP : No
Format settings, Matrix : Default
Duration : 33 ms
Bit rate mode : Variable
Maximum bit rate : 9 000 kb/s
Width : 720 pixels
Height : 480 pixels
Display aspect ratio : 16:9
Frame rate : 29.970 (30000/1001) FPS
Standard : NTSC
Color space : YUV
Chroma subsampling : 4:2:0
Bit depth : 8 bits
Scan type : Progressive
Scan order : Top Field First
Compression mode : Lossy
Color primaries : BT.601 NTSC
Transfer characteristics : BT.601
Matrix coefficients : BT.601

Text #1
ID : 189 (0xBD)-32 (0x20)
Format : RLE
Format/Info : Run-length encoding
Muxing mode : DVD-Video

Text #2
ID : 189 (0xBD)-33 (0x21)
Format : RLE
Format/Info : Run-length encoding
Muxing mode : DVD-Video

Text #3
ID : 189 (0xBD)-34 (0x22)
Format : RLE
Format/Info : Run-length encoding
Muxing mode : DVD-Video

Menu

General
Complete name : I:\VIDEO_TS\VTS_02_1.VOB
Format : MPEG-PS
File size : 678 MiB
Duration : 46 min 50 s
Overall bit rate mode : Variable
Overall bit rate : 2 025 kb/s

Video
ID : 224 (0xE0)
Format : MPEG Video
Format version : Version 2
Format profile : Main@Main
Format settings, BVOP : No
Format settings, Matrix : Default
Duration : 46 min 50 s
Bit rate mode : Variable
Bit rate : 26.7 kb/s
Maximum bit rate : 9 000 kb/s
Width : 720 pixels
Height : 480 pixels
Display aspect ratio : 16:9
Frame rate : 29.970 (30000/1001) FPS
Standard : NTSC
Color space : YUV
Chroma subsampling : 4:2:0
Bit depth : 8 bits
Scan type : Progressive
Scan order : Top Field First
Compression mode : Lossy
Bits/(Pixel*Frame) : 0.003
Time code of first frame : 00:00:00;00
Time code source : Group of pictures header
Stream size : 8.94 MiB (1%)
Color primaries : BT.601 NTSC
Transfer characteristics : BT.601
Matrix coefficients : BT.601

Audio #1
ID : 189 (0xBD)-128 (0x80)
Format : AC-3
Format/Info : Audio Coding 3
Muxing mode : DVD-Video
Duration : 46 min 50 s
Bit rate mode : Constant
Bit rate : 448 kb/s
Channel(s) : 6 channels
Channel positions : Front: L C R, Side: L R, LFE
Sampling rate : 48.0 kHz
Frame rate : 31.250 FPS (1536 SPF)
Bit depth : 16 bits
Compression mode : Lossy
Stream size : 150 MiB (22%)
Service kind : Complete Main

Audio #2
ID : 189 (0xBD)-137 (0x89)
Format : DTS
Format/Info : Digital Theater Systems
Muxing mode : DVD-Video
Duration : 46 min 50 s
Bit rate mode : Constant
Bit rate : 1 510 kb/s
Channel(s) : 6 channels
Channel positions : Front: L C R, Side: L R, LFE
Sampling rate : 48.0 kHz
Frame rate : 93.750 FPS (512 SPF)
Bit depth : 24 bits
Compression mode : Lossy
Stream size : 506 MiB (75%)

Menu

General
Complete name : I:\VIDEO_TS\VTS_03_0.BUP
Format : DVD Video
Format profile : Program
File size : 56.0 KiB
Duration : 1 h 14 min
Overall bit rate mode : Variable
Overall bit rate : 103 b/s
FileExtension_Invalid : ifo

Video
ID : 224 (0xE0)
Format : MPEG Video
Format version : Version 2
Duration : 1 h 14 min
Bit rate mode : Variable
Width : 720 pixels
Height : 480 pixels
Display aspect ratio : 16:9
Frame rate : 29.970 (29970/1000) FPS
Standard : NTSC
Compression mode : Lossy

Audio
ID : 0 (0x0)
Format : PCM
Duration : 1 h 14 min
Channel(s) : 2 channels
Sampling rate : 48.0 kHz
Language : English

Menu
Duration : 1 h 14 min
00:00:00.000 : Chapter 1
00:04:21.000 : Chapter 2
00:08:20.000 : Chapter 3
00:13:56.000 : Chapter 4
00:17:04.000 : Chapter 5
00:21:51.000 : Chapter 6
00:28:56.000 : Chapter 7
00:32:12.000 : Chapter 8
00:35:41.000 : Chapter 9
00:41:44.000 : Chapter 10
00:43:25.000 : Chapter 11
00:46:48.000 : Chapter 12
00:49:28.000 : Chapter 13
00:52:43.000 : Chapter 14
00:58:18.000 : Chapter 15
List (Audio) : 0

General
Complete name : I:\VIDEO_TS\VTS_03_0.IFO
Format : DVD Video
Format profile : Program
File size : 56.0 KiB
Duration : 1 h 14 min
Overall bit rate mode : Variable
Overall bit rate : 103 b/s

Video
ID : 224 (0xE0)
Format : MPEG Video
Format version : Version 2
Duration : 1 h 14 min
Bit rate mode : Variable
Width : 720 pixels
Height : 480 pixels
Display aspect ratio : 16:9
Frame rate : 29.970 (29970/1000) FPS
Standard : NTSC
Compression mode : Lossy

Audio
ID : 0 (0x0)
Format : PCM
Duration : 1 h 14 min
Channel(s) : 2 channels
Sampling rate : 48.0 kHz
Language : English

Menu
Duration : 1 h 14 min
00:00:00.000 : Chapter 1
00:04:21.000 : Chapter 2
00:08:20.000 : Chapter 3
00:13:56.000 : Chapter 4
00:17:04.000 : Chapter 5
00:21:51.000 : Chapter 6
00:28:56.000 : Chapter 7
00:32:12.000 : Chapter 8
00:35:41.000 : Chapter 9
00:41:44.000 : Chapter 10
00:43:25.000 : Chapter 11
00:46:48.000 : Chapter 12
00:49:28.000 : Chapter 13
00:52:43.000 : Chapter 14
00:58:18.000 : Chapter 15
List (Audio) : 0

General
Complete name : I:\VIDEO_TS\VTS_03_0.VOB
Format : MPEG-PS
File size : 58.0 KiB
Duration : 33 ms
Overall bit rate mode : Variable
Overall bit rate : 14.4 Mb/s

Video
ID : 224 (0xE0)
Format : MPEG Video
Format version : Version 2
Format profile : Main@Main
Format settings, BVOP : No
Format settings, Matrix : Default
Duration : 33 ms
Bit rate mode : Variable
Maximum bit rate : 9 000 kb/s
Width : 720 pixels
Height : 480 pixels
Display aspect ratio : 16:9
Frame rate : 29.970 (30000/1001) FPS
Standard : NTSC
Color space : YUV
Chroma subsampling : 4:2:0
Bit depth : 8 bits
Scan type : Progressive
Scan order : Top Field First
Compression mode : Lossy
Time code of first frame : 00:00:00;00
Time code source : Group of pictures header
Color primaries : BT.601 NTSC
Transfer characteristics : BT.601
Matrix coefficients : BT.601

Text #1
ID : 189 (0xBD)-32 (0x20)
Format : RLE
Format/Info : Run-length encoding
Muxing mode : DVD-Video

Text #2
ID : 189 (0xBD)-33 (0x21)
Format : RLE
Format/Info : Run-length encoding
Muxing mode : DVD-Video

Text #3
ID : 189 (0xBD)-34 (0x22)
Format : RLE
Format/Info : Run-length encoding
Muxing mode : DVD-Video

Menu

General
Complete name : I:\VIDEO_TS\VTS_03_1.VOB
Format : MPEG-PS
File size : 1 000 MiB
Duration : 58 min 32 s
Overall bit rate mode : Variable
Overall bit rate : 2 388 kb/s

Video
ID : 224 (0xE0)
Format : MPEG Video
Format version : Version 2
Format profile : Main@Main
Format settings, BVOP : No
Format settings, Matrix : Default
Duration : 58 min 21 s
Bit rate mode : Variable
Bit rate : 805 kb/s
Maximum bit rate : 9 000 kb/s
Width : 720 pixels
Height : 480 pixels
Display aspect ratio : 16:9
Frame rate : 29.970 (30000/1001) FPS
Standard : NTSC
Color space : YUV
Chroma subsampling : 4:2:0
Bit depth : 8 bits
Scan type : Progressive
Scan order : Top Field First
Compression mode : Lossy
Bits/(Pixel*Frame) : 0.078
Time code of first frame : 00:00:00;00
Time code source : Group of pictures header
Stream size : 336 MiB (34%)
Color primaries : BT.601 NTSC
Transfer characteristics : BT.601
Matrix coefficients : BT.601

Audio
ID : 189 (0xBD)-160 (0xA0)
Format : PCM
Format settings : Big / Signed
Muxing mode : DVD-Video
Duration : 58 min 32 s
Bit rate mode : Constant
Bit rate : 1 536 kb/s
Channel(s) : 2 channels
Sampling rate : 48.0 kHz
Bit depth : 24 bits
Stream size : 643 MiB (64%)

Menu

General
Complete name : I:\VIDEO_TS\VTS_03_2.VOB
Format : MPEG-PS
File size : 267 MiB
Duration : 15 min 39 s
Overall bit rate mode : Constant
Overall bit rate : 2 387 kb/s

Audio
ID : 189 (0xBD)-160 (0xA0)
Format : PCM
Format settings : Big / Signed
Muxing mode : DVD-Video
Duration : 15 min 39 s
Bit rate mode : Constant
Bit rate : 1 536 kb/s
Channel(s) : 2 channels
Sampling rate : 48.0 kHz
Bit depth : 24 bits
Stream size : 172 MiB (64%)

Menu

General
Complete name : I:\VIDEO_TS\VTS_04_0.BUP
Format : DVD Video
Format profile : Program
File size : 54.0 KiB
Duration : 1 h 8 min
Overall bit rate mode : Variable
Overall bit rate : 108 b/s
FileExtension_Invalid : ifo

Video
ID : 224 (0xE0)
Format : MPEG Video
Format version : Version 2
Duration : 1 h 8 min
Bit rate mode : Variable
Width : 720 pixels
Height : 480 pixels
Display aspect ratio : 16:9
Frame rate : 29.970 (29970/1000) FPS
Standard : NTSC
Compression mode : Lossy

Audio
ID : 0 (0x0)
Format : PCM
Duration : 1 h 8 min
Channel(s) : 2 channels
Sampling rate : 48.0 kHz
Language : English

Menu
Duration : 1 h 8 min
00:00:00.000 : Chapter 1
00:04:12.000 : Chapter 2
00:08:01.000 : Chapter 3
00:13:24.000 : Chapter 4
00:16:30.000 : Chapter 5
00:21:17.000 : Chapter 6
00:28:22.000 : Chapter 7
00:31:39.000 : Chapter 8
00:35:07.000 : Chapter 9
00:41:12.000 : Chapter 10
00:42:50.000 : Chapter 11
00:44:33.000 : Chapter 12
00:49:06.000 : Chapter 13
00:56:33.000 : Chapter 14
01:01:57.000 : Chapter 15
List (Audio) : 0

General
Complete name : I:\VIDEO_TS\VTS_04_0.IFO
Format : DVD Video
Format profile : Program
File size : 54.0 KiB
Duration : 1 h 8 min
Overall bit rate mode : Variable
Overall bit rate : 108 b/s

Video
ID : 224 (0xE0)
Format : MPEG Video
Format version : Version 2
Duration : 1 h 8 min
Bit rate mode : Variable
Width : 720 pixels
Height : 480 pixels
Display aspect ratio : 16:9
Frame rate : 29.970 (29970/1000) FPS
Standard : NTSC
Compression mode : Lossy

Audio
ID : 0 (0x0)
Format : PCM
Duration : 1 h 8 min
Channel(s) : 2 channels
Sampling rate : 48.0 kHz
Language : English

Menu
Duration : 1 h 8 min
00:00:00.000 : Chapter 1
00:04:12.000 : Chapter 2
00:08:01.000 : Chapter 3
00:13:24.000 : Chapter 4
00:16:30.000 : Chapter 5
00:21:17.000 : Chapter 6
00:28:22.000 : Chapter 7
00:31:39.000 : Chapter 8
00:35:07.000 : Chapter 9
00:41:12.000 : Chapter 10
00:42:50.000 : Chapter 11
00:44:33.000 : Chapter 12
00:49:06.000 : Chapter 13
00:56:33.000 : Chapter 14
01:01:57.000 : Chapter 15
List (Audio) : 0

General
Complete name : I:\VIDEO_TS\VTS_04_0.VOB
Format : MPEG-PS
File size : 64.0 KiB
Duration : 33 ms
Overall bit rate mode : Variable
Overall bit rate : 15.9 Mb/s

Video
ID : 224 (0xE0)
Format : MPEG Video
Format version : Version 2
Format profile : Main@Main
Format settings, BVOP : No
Format settings, Matrix : Default
Duration : 33 ms
Bit rate mode : Variable
Maximum bit rate : 9 000 kb/s
Width : 720 pixels
Height : 480 pixels
Display aspect ratio : 16:9
Frame rate : 29.970 (30000/1001) FPS
Standard : NTSC
Color space : YUV
Chroma subsampling : 4:2:0
Bit depth : 8 bits
Scan type : Progressive
Scan order : Top Field First
Compression mode : Lossy
Time code of first frame : 00:00:00;00
Time code source : Group of pictures header
Color primaries : BT.601 NTSC
Transfer characteristics : BT.601
Matrix coefficients : BT.601

Text #1
ID : 189 (0xBD)-32 (0x20)
Format : RLE
Format/Info : Run-length encoding
Muxing mode : DVD-Video

Text #2
ID : 189 (0xBD)-33 (0x21)
Format : RLE
Format/Info : Run-length encoding
Muxing mode : DVD-Video

Text #3
ID : 189 (0xBD)-34 (0x22)
Format : RLE
Format/Info : Run-length encoding
Muxing mode : DVD-Video

Menu

General
Complete name : I:\VIDEO_TS\VTS_04_1.VOB
Format : MPEG-PS
File size : 1 000 MiB
Duration : 58 min 32 s
Overall bit rate mode : Variable
Overall bit rate : 2 388 kb/s

Video
ID : 224 (0xE0)
Format : MPEG Video
Format version : Version 2
Format profile : Main@Main
Format settings, BVOP : No
Format settings, Matrix : Default
Duration : 58 min 32 s
Bit rate mode : Variable
Bit rate : 805 kb/s
Maximum bit rate : 9 000 kb/s
Width : 720 pixels
Height : 480 pixels
Display aspect ratio : 16:9
Frame rate : 29.970 (30000/1001) FPS
Standard : NTSC
Color space : YUV
Chroma subsampling : 4:2:0
Bit depth : 8 bits
Scan type : Progressive
Scan order : Top Field First
Compression mode : Lossy
Bits/(Pixel*Frame) : 0.078
Time code of first frame : 00:00:00;00
Time code source : Group of pictures header
Stream size : 337 MiB (34%)
Color primaries : BT.601 NTSC
Transfer characteristics : BT.601
Matrix coefficients : BT.601

Audio
ID : 189 (0xBD)-160 (0xA0)
Format : PCM
Format settings : Big / Signed
Muxing mode : DVD-Video
Duration : 58 min 32 s
Bit rate mode : Constant
Bit rate : 1 536 kb/s
Channel(s) : 2 channels
Sampling rate : 48.0 kHz
Bit depth : 24 bits
Stream size : 643 MiB (64%)

Menu

General
Complete name : I:\VIDEO_TS\VTS_04_2.VOB
Format : MPEG-PS
File size : 167 MiB
Duration : 9 min 47 s
Overall bit rate mode : Constant
Overall bit rate : 2 388 kb/s

Audio
ID : 189 (0xBD)-160 (0xA0)
Format : PCM
Format settings : Big / Signed
Muxing mode : DVD-Video
Duration : 9 min 47 s
Bit rate mode : Constant
Bit rate : 1 536 kb/s
Channel(s) : 2 channels
Sampling rate : 48.0 kHz
Bit depth : 24 bits
Stream size : 108 MiB (64%)

Menu

General
Complete name : I:\AUDIO_TS\ATS_01_0.BUP
File size : 6.00 KiB

General
Complete name : I:\AUDIO_TS\ATS_01_0.IFO
File size : 6.00 KiB

General
Complete name : I:\AUDIO_TS\ATS_01_1.AOB
Format : MPEG-PS
File size : 1 024 MiB
Duration : 55 s 489 ms
Overall bit rate mode : Variable
Overall bit rate : 155 Mb/s
FileExtension_Invalid : mpeg mpg m2p vob pss evo

Audio
ID : 189 (0xBD)-161 (0xA1)
Format : MLP
Muxing mode : DVD-Video
Duration : 55 s 489 ms
Bit rate mode : Variable
Maximum bit rate : 9 600 kb/s
Channel(s) : 6 channels
Sampling rate : 48.0 kHz
Frame rate : 1 200.000 FPS (40 SPF)
Bit depth : 24 bits

General
Complete name : I:\AUDIO_TS\ATS_01_2.AOB
Format : MPEG-PS
File size : 1 024 MiB
Duration : 29 s 541 ms
Overall bit rate mode : Variable
Overall bit rate : 291 Mb/s
FileExtension_Invalid : mpeg mpg m2p vob pss evo

Audio
ID : 189 (0xBD)-161 (0xA1)
Format : MLP
Muxing mode : DVD-Video
Duration : 29 s 541 ms
Bit rate mode : Variable
Maximum bit rate : 9 600 kb/s
Channel(s) : 6 channels
Sampling rate : 48.0 kHz
Frame rate : 1 200.000 FPS (40 SPF)
Bit depth : 24 bits

General
Complete name : I:\AUDIO_TS\ATS_01_3.AOB
Format : MPEG-PS
File size : 1 024 MiB
Duration : 3 min 37 s
Overall bit rate mode : Variable
Overall bit rate : 39.5 Mb/s
FileExtension_Invalid : mpeg mpg m2p vob pss evo

Audio
ID : 189 (0xBD)-161 (0xA1)
Format : MLP
Muxing mode : DVD-Video
Duration : 3 min 37 s
Bit rate mode : Variable
Maximum bit rate : 9 600 kb/s
Channel(s) : 2 channels
Sampling rate : 48.0 kHz
Frame rate : 1 200.000 FPS (40 SPF)
Bit depth : 24 bits

General
Complete name : I:\AUDIO_TS\ATS_01_4.AOB
Format : MPEG-PS
File size : 192 MiB
Overall bit rate mode : Variable
FileExtension_Invalid : mpeg mpg m2p vob pss evo

Audio
ID : 189 (0xBD)-161 (0xA1)
Format : MLP
Muxing mode : DVD-Video
Bit rate mode : Variable
Maximum bit rate : 9 600 kb/s
Channel(s) : 2 channels
Sampling rate : 48.0 kHz
Frame rate : 1 200.000 FPS (40 SPF)
Bit depth : 24 bits

General
Complete name : I:\AUDIO_TS\ATS_02_0.BUP
File size : 4.00 KiB

General
Complete name : I:\AUDIO_TS\ATS_02_0.IFO
File size : 4.00 KiB

General
Complete name : I:\AUDIO_TS\ATS_03_0.BUP
File size : 4.00 KiB

General
Complete name : I:\AUDIO_TS\ATS_03_0.IFO
File size : 4.00 KiB

General
Complete name : I:\AUDIO_TS\ATS_04_0.BUP
File size : 4.00 KiB

General
Complete name : I:\AUDIO_TS\ATS_04_0.IFO
File size : 4.00 KiB

General
Complete name : I:\AUDIO_TS\AUDIO_PP.IFO
File size : 128 KiB

General
Complete name : I:\AUDIO_TS\AUDIO_SV.BUP
File size : 4.00 KiB

General
Complete name : I:\AUDIO_TS\AUDIO_SV.IFO
File size : 4.00 KiB

General
Complete name : I:\AUDIO_TS\AUDIO_SV.VOB
Format : MPEG-PS
File size : 8.13 MiB
Duration : 33 ms
Overall bit rate mode : Variable
Overall bit rate : 2 065 Mb/s

Video
ID : 224 (0xE0)
Format : MPEG Video
Format version : Version 2
Format profile : Main@Main
Format settings : CustomMatrix
Format settings, BVOP : No
Format settings, Matrix : Custom
Format settings, GOP : N=1
Duration : 33 ms
Bit rate mode : Variable
Maximum bit rate : 4 587 kb/s
Width : 720 pixels
Height : 480 pixels
Display aspect ratio : 16:9
Frame rate : 29.970 (30000/1001) FPS
Standard : NTSC
Color space : YUV
Chroma subsampling : 4:2:0
Bit depth : 8 bits
Scan type : Progressive
Compression mode : Lossy
Color primaries : BT.601 NTSC
Transfer characteristics : BT.601
Matrix coefficients : BT.601

Text #1
ID : 189 (0xBD)-33 (0x21)
Format : RLE
Format/Info : Run-length encoding
Muxing mode : DVD-Video

Text #2
ID : 189 (0xBD)-34 (0x22)
Format : RLE
Format/Info : Run-length encoding
Muxing mode : DVD-Video

Menu

General
Complete name : I:\AUDIO_TS\AUDIO_TS.BUP
File size : 10.0 KiB

General
Complete name : I:\AUDIO_TS\AUDIO_TS.IFO
File size : 10.0 KiB

General
Complete name : I:\AUDIO_TS\AUDIO_TS.VOB
Format : MPEG-PS
File size : 42.2 MiB
Duration : 45 s 43 ms
Overall bit rate : 7 862 kb/s

Video
ID : 224 (0xE0)
Format : MPEG Video
Format version : Version 2
Format profile : Main@Main
Format settings : CustomMatrix / BVOP
Format settings, BVOP : Yes
Format settings, Matrix : Custom
Format settings, GOP : Variable
Format settings, picture structure : Frame
Duration : 278 ms
Bit rate mode : Constant
Bit rate : 6 169 kb/s
Maximum bit rate : 6 000 kb/s
Width : 720 pixels
Height : 480 pixels
Display aspect ratio : 16:9
Frame rate : 29.970 (30000/1001) FPS
Standard : NTSC
Color space : YUV
Chroma subsampling : 4:2:0
Bit depth : 8 bits
Scan type : Interlaced
Scan order : Top Field First
Compression mode : Lossy
Bits/(Pixel*Frame) : 0.596
Time code of first frame : 00:00:00;00
Time code source : Group of pictures header
GOP, Open/Closed : Open
GOP, Open/Closed of first frame : Closed
Stream size : 201 KiB (0%)

Audio
ID : 189 (0xBD)-160 (0xA0)
Format : PCM
Format settings : Big / Signed
Muxing mode : DVD-Video
Duration : 45 s 43 ms
Bit rate mode : Constant
Bit rate : 1 536 kb/s
Channel(s) : 2 channels
Sampling rate : 48.0 kHz
Bit depth : 16 bits
Stream size : 8.25 MiB (20%)

Text #1
ID : 189 (0xBD)-32 (0x20)
Format : RLE
Format/Info : Run-length encoding
Muxing mode : DVD-Video

Text #2
ID : 189 (0xBD)-33 (0x21)
Format : RLE
Format/Info : Run-length encoding
Muxing mode : DVD-Video

Menu

Personnel:
Adrian Belew - Voice, Fretted & Fretless Guitar
Robert Fripp - Guitar
Tony Levin - Bass, Stick, Synth, Background Voice
Bill Bruford - Acoustic & Electronic Drumming

Grazia Italia – 28 ottobre 2021

Grazia Italia – 28 ottobre 2021

Grazia Italia – 28 ottobre 2021

See also:
King Crimson - The ConstruKction Of Light (2000)
VA - The Many Faces Of King Crimson (2016) {3CD Box Set}
King Crimson - Beat (1982) {2016, CD+DVD-A/V, 40th Anniversary Series}

All thanks go to Alder

>>> My Blog <<<

Download from icerbox.com: