Tags
Language
Tags

Kingdom Come - 20th Century Masters - The Millennium Collection: The Best Of Kingdom Come (2003)

Posted By: popsakov
Kingdom Come - 20th Century Masters - The Millennium Collection: The Best Of Kingdom Come (2003)

Kingdom Come - 20th Century Masters - The Millennium Collection: The Best Of Kingdom Come (2003)
EAC Rip | FLAC (Img) + Cue + Log ~ 359 Mb | MP3 CBR320 ~ 143 Mb
Full Scans | 00:50:06 | RAR 5% Recovery
Hard Rock, Hair Metal | Polydor #440 065 103-2

Yeah, Kingdom Come were a bit too enamored with Led Zeppelin on their first album, and their career didn't last much longer after that, but at the very least they were one of the very examples of what was storming the rock charts back in 1987-1988. Zep-styled riffs and that sorta watered-down boogie-guitar swagger were everywhere, and Kingdom Come were just one of the many bands getting loads and loads of criticism from purists. Oddly, though, the kids (for a short time) loved it, and the records sold enough to convince those at Polydor to release this collection of some of their more well-known tunes. Obviously, it's not a collection that's gonna be picked up for its artistic integrity ("Get It On" sounds like a half-baked "Kashmir"), but it's probably fair to say that Kingdom Come really wasn't too concerned with "art." This collection works because it's a fairly good snapshot of the kind of rock that very, very briefly made quite an impact in the late '80s. If acid-washed jeans and big hair were your thing, then this collection was tailor-made.

~ Chris True, All Music
Kingdom Come - 20th Century Masters - The Millennium Collection: The Best Of Kingdom Come (2003)


***************

Kingdom Come - 20th Century Masters - The Millennium Collection: The Best Of Kingdom Come (2003)

Kingdom Come - 20th Century Masters - The Millennium Collection: The Best Of Kingdom Come (2003)

Track List:

01. Living Out of Touch [4:21]
02. What Love Can Be [5:18]
03. Get it On [4:24]
04. Pushin Hard [4:48]
05. Do You Like It [3:40]
06. Who Do You Love [4:14]
07. Gotta Go (Can't Wage a War) [4:28]
08. Overrated [4:04]
09. I've Been Trying [4:54]
10. Should I [5:38]
11. You're Not the Only…I Know [4:16]

Personnel:
Lenny Wolf – lead vocals
Danny Stag – lead guitar
Rick Steier – rhythm guitar
Johnny B. Frank – bass
James Kottak – drums

Exact Audio Copy V1.3 from 2. September 2016

EAC extraction logfile from 19. July 2017, 18:33

Kingdom Come / The Best Of (20th Century Masters)

Used drive : ATAPI iHAS122 C Adapter: 1 ID: 0

Read mode : Secure
Utilize accurate stream : Yes
Defeat audio cache : Yes
Make use of C2 pointers : No

Read offset correction : 6
Overread into Lead-In and Lead-Out : No
Fill up missing offset samples with silence : Yes
Delete leading and trailing silent blocks : No
Null samples used in CRC calculations : Yes
Used interface : Native Win32 interface for Win NT & 2000

Used output format : Internal WAV Routines
Sample format : 44.100 Hz; 16 Bit; Stereo


TOC of the extracted CD

Track | Start | Length | Start sector | End sector
––––––––––––––––––––––––––––-
1 | 0:00.00 | 4:20.58 | 0 | 19557
2 | 4:20.58 | 5:18.05 | 19558 | 43412
3 | 9:38.63 | 4:23.62 | 43413 | 63199
4 | 14:02.50 | 4:48.33 | 63200 | 84832
5 | 18:51.08 | 3:39.57 | 84833 | 101314
6 | 22:30.65 | 4:14.30 | 101315 | 120394
7 | 26:45.20 | 4:28.15 | 120395 | 140509
8 | 31:13.35 | 4:04.05 | 140510 | 158814
9 | 35:17.40 | 4:54.15 | 158815 | 180879
10 | 40:11.55 | 5:38.20 | 180880 | 206249
11 | 45:50.00 | 4:16.30 | 206250 | 225479


Range status and errors

Selected range

Filename C:\Users\London\Desktop\Kingdom Come - The Best Of (20th Century Masters).wav

Peak level 100.0 %
Extraction speed 8.7 X
Range quality 100.0 %
Test CRC 6D0EA1FF
Copy CRC 6D0EA1FF
Copy OK

No errors occurred


AccurateRip summary

Track 1 accurately ripped (confidence 6) [87E9BD3E] (AR v2)
Track 2 accurately ripped (confidence 6) [3345BC31] (AR v2)
Track 3 accurately ripped (confidence 6) [566FFCEC] (AR v2)
Track 4 accurately ripped (confidence 6) [22143ACC] (AR v2)
Track 5 accurately ripped (confidence 6) [6F909C60] (AR v2)
Track 6 accurately ripped (confidence 6) [21443929] (AR v2)
Track 7 accurately ripped (confidence 6) [95D2A437] (AR v2)
Track 8 accurately ripped (confidence 6) [68A77774] (AR v2)
Track 9 accurately ripped (confidence 6) [B9F72F77] (AR v2)
Track 10 accurately ripped (confidence 6) [CACECBC9] (AR v2)
Track 11 accurately ripped (confidence 6) [6E8DC3D4] (AR v2)

All tracks accurately ripped

End of status report

–– CUETools DB Plugin V2.1.6

[CTDB TOCID: 8BqAT.oWFwKfEDZyGtmtHyR5HFU-] found
Submit result: 8BqAT.oWFwKfEDZyGtmtHyR5HFU- has been confirmed
Track | CTDB Status
1 | (12/12) Accurately ripped
2 | (12/12) Accurately ripped
3 | (12/12) Accurately ripped
4 | (12/12) Accurately ripped
5 | (12/12) Accurately ripped
6 | (12/12) Accurately ripped
7 | (12/12) Accurately ripped
8 | (12/12) Accurately ripped
9 | (12/12) Accurately ripped
10 | (12/12) Accurately ripped
11 | (12/12) Accurately ripped


==== Log checksum 16689037DBAF96B4AB61E9111919EA31385163E41BC634E6AB085FC57173650A ====

[CUETools log; Date: 23.07.2017 11:51:23; Version: 2.1.5]
[CTDB TOCID: 8BqAT.oWFwKfEDZyGtmtHyR5HFU-] found.
Track | CTDB Status
1 | (13/13) Accurately ripped
2 | (13/13) Accurately ripped
3 | (13/13) Accurately ripped
4 | (13/13) Accurately ripped
5 | (13/13) Accurately ripped
6 | (13/13) Accurately ripped
7 | (13/13) Accurately ripped
8 | (13/13) Accurately ripped
9 | (13/13) Accurately ripped
10 | (13/13) Accurately ripped
11 | (13/13) Accurately ripped
[AccurateRip ID: 00148489-00b18425-860bbe0b] found.
Track [ CRC | V2 ] Status
01 [96497b71|87e9bd3e] (00+06/20) Accurately ripped
02 [960d2d63|3345bc31] (00+06/20) Accurately ripped
03 [6dbeb8b0|566ffcec] (00+06/21) Accurately ripped
04 [816880fa|22143acc] (00+06/20) Accurately ripped
05 [51bf193e|6f909c60] (00+06/20) Accurately ripped
06 [da5d54e6|21443929] (00+06/20) Accurately ripped
07 [bf8c5570|95d2a437] (00+06/20) Accurately ripped
08 [b0770b37|68a77774] (00+06/19) Accurately ripped
09 [b00163a8|b9f72f77] (00+06/19) Accurately ripped
10 [4c55dc55|cacecbc9] (00+06/20) Accurately ripped
11 [67e70e12|6e8dc3d4] (00+06/20) Accurately ripped
Offsetted by 664:
01 [6ac93431] (10/20) Accurately ripped
02 [b338dc8b] (10/20) Accurately ripped
03 [eb713d58] (11/21) Accurately ripped
04 [254dd0aa] (10/20) Accurately ripped
05 [0a02c20e] (10/20) Accurately ripped
06 [fea160be] (10/20) Accurately ripped
07 [ef22bfc0] (10/20) Accurately ripped
08 [93daf107] (09/19) Accurately ripped
09 [409d2ba8] (10/19) Accurately ripped
10 [68d53c5d] (10/20) Accurately ripped
11 [9d1e447a] (10/20) Accurately ripped

Track Peak [ CRC32 ] [W/O NULL] [ LOG ]
– 100,0 [6D0EA1FF] [7A861C58] CRC32
01 100,0 [0C0376C8] [B7AA2341]
02 92,8 [2E3EF01E] [A3E5A383]
03 100,0 [057ED085] [9F064791]
04 99,9 [FAEEAFB5] [7EB2863A]
05 99,9 [E8F20FB4] [6FF2605E]
06 96,7 [8F7AF0CB] [06FFD007]
07 100,0 [34FFA812] [1C95E6D3]
08 99,9 [016CCD3C] [76E30D60]
09 89,0 [8FE391D1] [235A1269]
10 89,0 [C035649C] [CBA2EC0B]
11 92,2 [3790CBD2] [D64D1A84]

Kingdom Come - 20th Century Masters - The Millennium Collection: The Best Of Kingdom Come (2003)