Subcategories
Tags
Language
Tags

Klaus Schulze - The Ultimate Edition (2000) [Box 4, Discs 31-40: Jubilee Edition Part 2] (Re-up)

Posted By: gribovar
Klaus Schulze - The Ultimate Edition (2000) [Box 4, Discs 31-40: Jubilee Edition Part 2] (Re-up)

Klaus Schulze - The Ultimate Edition (2000) [Box 4, Discs 31-40: Jubilee Edition Part 2]
EAC Rip | FLAC (image+.cue+log) - 4,73 GB | MP3 CBR 320 kbps (LAME 3.93) - 1,93 GB | Covers included
Genre: Electronic, Berlin School | RAR 3% Rec. | Label: Série Poème (Série Poème 2000)

The present box is the fourth of five. Together it's 50 CDs of music by Klaus Schulze. It includes the former sets Silver Edition (10 CDs), Historic Edition (10 CDs), Jubilee Edition (25 CDs), and five new albums made especially as bonus for The Ultimate Edition.

Klaus Schulze - The Ultimate Edition (2000) [Box 4, Discs 31-40: Jubilee Edition Part 2] (Re-up)

CD 31: Klaus Shulze - Olé!
EAC Rip | FLAC (image+.cue+log) - 499 MB | MP3 CBR 320 kbps (LAME 3.93) - 197 MB | Covers (9 MB) included
Genre: Electronic, Berlin School | RAR 3% Rec. | Label: Série Poème (Série Poème 2000-31)

Tracklist:
01. Olé!
02. Habla Español?
03. Gaudi Gaudi
04. Keep Up with the Times
05. Fear at Madame Tussaud's

Total time: 01:19:49

Exact Audio Copy V0.99 prebeta 5 from 4. May 2009

EAC extraction logfile from 17. February 2010, 10:41

Klaus Schulze / Olй! (The Ultimate Edition CD 31)

Used drive : TSSTcorpDVD+-RW TS-H653B Adapter: 1 ID: 0

Read mode : Secure
Utilize accurate stream : Yes
Defeat audio cache : Yes
Make use of C2 pointers : No

Read offset correction : 6
Overread into Lead-In and Lead-Out : No
Fill up missing offset samples with silence : Yes
Delete leading and trailing silent blocks : No
Null samples used in CRC calculations : Yes
Used interface : Native Win32 interface for Win NT & 2000

Used output format : User Defined Encoder
Selected bitrate : 1024 kBit/s
Quality : High
Add ID3 tag : No
Command line compressor : C:\Program Files\Exact Audio Copy\FLAC\FLAC.EXE
Additional command line options : -6 -V -T "ARTIST=%a" -T "TITLE=%t" -T "ALBUM=%g" -T "DATE=%y" -T "TRACKNUMBER=%n" -T "GENRE=%m" -T "COMMENT=%e" %s -o %d


TOC of the extracted CD

Track | Start | Length | Start sector | End sector
––––––––––––––––––––––––––––-
1 | 0:00.00 | 16:31.60 | 0 | 74384
2 | 16:31.60 | 17:27.50 | 74385 | 152959
3 | 33:59.35 | 23:13.72 | 152960 | 257506
4 | 57:13.32 | 16:14.35 | 257507 | 330591
5 | 73:27.67 | 6:21.15 | 330592 | 359181


Range status and errors

Selected range

Filename D:\UE\Klaus Schulze - Olй! (The Ultimate Edition CD 31).wav

Peak level 99.4 %
Range quality 100.0 %
Test CRC 265F0E88
Copy CRC 265F0E88
Copy OK

No errors occurred


AccurateRip summary

Track 1 accurately ripped (confidence 2) [C556C7A1]
Track 2 accurately ripped (confidence 2) [036E5200]
Track 3 accurately ripped (confidence 2) [5E14D032]
Track 4 accurately ripped (confidence 2) [6899F43B]
Track 5 accurately ripped (confidence 2) [1C217E58]

All tracks accurately ripped

End of status report

[CUETools log; Date: 30.11.2020 17:22:51; Version: 2.1.4]
[CTDB TOCID: SjBUCd9canWFaNNHhhu8UXVewho-] found.
Track | CTDB Status
1 | (15/18) Accurately ripped, or (2/18) differs in 9 samples @00:54:11-00:54:12
2 | (17/18) Accurately ripped
3 | (15/18) Accurately ripped, or (2/18) differs in 14 samples @00:30:72,00:35:17
4 | (17/18) Accurately ripped
5 | (18/18) Accurately ripped
[AccurateRip ID: 0011ec62-00531863-3e12b505] found.
Track [ CRC | V2 ] Status
01 [c556c7a1|61429cf8] (10+05/15) Accurately ripped
02 [036e5200|97965e41] (10+05/15) Accurately ripped
03 [5e14d032|b2fcaabe] (10+05/15) Accurately ripped
04 [6899f43b|103551b3] (10+04/14) Accurately ripped
05 [1c217e58|29dbdc24] (10+04/14) Accurately ripped

Track Peak [ CRC32 ] [W/O NULL] [ LOG ]
– 99,4 [265F0E88] [719F8258] CRC32
01 90,2 [06F5D013] [EFD3F1E9]
02 97,4 [00F4FBA7] [5A740F40]
03 99,4 [1D90C340] [C00EE542]
04 93,9 [536D02AC] [40F43FBD]
05 80,5 [4324227D] [4CCF9E87]

Klaus Schulze - The Ultimate Edition (2000) [Box 4, Discs 31-40: Jubilee Edition Part 2] (Re-up)

CD 32: Klaus Shulze - Titanensee
EAC Rip | FLAC (image+.cue+log) - 459 MB | MP3 CBR 320 kbps (LAME 3.93) - 197 MB | Covers (9 MB) included
Genre: Electronic, Berlin School | RAR 3% Rec. | Label: Série Poème (Série Poème 2000-32)

Tracklist:
01. Titanensee
02. Land der Leeren Häuser
03. Studies for Organ, Keyboard and Drumset
04. North of the Yukon
05. I Remember Rahsaan

Total time: 01:19:31

Exact Audio Copy V0.99 prebeta 5 from 4. May 2009

EAC extraction logfile from 17. February 2010, 11:09

Klaus Schulze / Titanensee (The Ultimate Edition CD 32)

Used drive : TSSTcorpDVD+-RW TS-H653B Adapter: 1 ID: 0

Read mode : Secure
Utilize accurate stream : Yes
Defeat audio cache : Yes
Make use of C2 pointers : No

Read offset correction : 6
Overread into Lead-In and Lead-Out : No
Fill up missing offset samples with silence : Yes
Delete leading and trailing silent blocks : No
Null samples used in CRC calculations : Yes
Used interface : Native Win32 interface for Win NT & 2000

Used output format : User Defined Encoder
Selected bitrate : 1024 kBit/s
Quality : High
Add ID3 tag : No
Command line compressor : C:\Program Files\Exact Audio Copy\FLAC\FLAC.EXE
Additional command line options : -6 -V -T "ARTIST=%a" -T "TITLE=%t" -T "ALBUM=%g" -T "DATE=%y" -T "TRACKNUMBER=%n" -T "GENRE=%m" -T "COMMENT=%e" %s -o %d


TOC of the extracted CD

Track | Start | Length | Start sector | End sector
––––––––––––––––––––––––––––-
1 | 0:00.00 | 27:12.37 | 0 | 122436
2 | 27:12.37 | 11:17.33 | 122437 | 173244
3 | 38:29.70 | 14:53.45 | 173245 | 240264
4 | 53:23.40 | 20:45.45 | 240265 | 333684
5 | 74:09.10 | 5:21.57 | 333685 | 357816


Range status and errors

Selected range

Filename D:\UE\Klaus Schulze - Titanensee (The Ultimate Edition CD 32).wav

Peak level 100.0 %
Range quality 100.0 %
Test CRC C3F4AE94
Copy CRC C3F4AE94
Copy OK

No errors occurred


AccurateRip summary

Track 1 accurately ripped (confidence 1) [B96DBEB7]
Track 2 accurately ripped (confidence 1) [9C4FBE32]
Track 3 accurately ripped (confidence 1) [635E4EB8]
Track 4 accurately ripped (confidence 1) [F6A30C33]
Track 5 accurately ripped (confidence 1) [90ED1A4F]

All tracks accurately ripped

End of status report

[CUETools log; Date: 30.11.2020 17:23:41; Version: 2.1.4]
[CTDB TOCID: l1tMaDNDurXmo50paF3Swd3_BwU-] found.
Track | CTDB Status
1 | (17/18) Accurately ripped
2 | (15/18) Accurately ripped, or (2/18) differs in 197 samples @11:10:03,11:10:39,11:10:56,11:10:72-11:10:73,11:11:12-11:11:16,11:11:27-11:11:28,11:11:41-11:11:42
3 | (17/18) Accurately ripped
4 | (17/18) Accurately ripped
5 | (18/18) Accurately ripped
[AccurateRip ID: 0012bab9-00548c85-2f12a205] found.
Track [ CRC | V2 ] Status
01 [b96dbeb7|3d243cd9] (09+05/14) Accurately ripped
02 [9c4fbe32|f7734d7c] (09+05/14) Accurately ripped
03 [635e4eb8|7fe8651d] (09+05/14) Accurately ripped
04 [f6a30c33|1f169ab7] (09+05/14) Accurately ripped
05 [90ed1a4f|e39a687a] (09+05/14) Accurately ripped

Track Peak [ CRC32 ] [W/O NULL] [ LOG ]
– 100,0 [C3F4AE94] [756F763A] CRC32
01 100,0 [801A964C] [80A6F4A2]
02 100,0 [A56AF7EB] [F3F87927]
03 96,7 [71394697] [01D9367E]
04 100,0 [4522A445] [B2AB251B]
05 97,2 [385CED45] [3F63FEAD]

Klaus Schulze - The Ultimate Edition (2000) [Box 4, Discs 31-40: Jubilee Edition Part 2] (Re-up)

CD 33: Klaus Shulze - Angry Moog
EAC Rip | FLAC (image+.cue+log) - 490 MB | MP3 CBR 320 kbps (LAME 3.93) - 197 MB | Covers (9 MB) included
Genre: Electronic, Berlin School | RAR 3% Rec. | Label: Série Poème (Série Poème 2000-33)

Tracklist:
01. Angry Young Moog
02. Kosmisches Gleiteisen
03. Operatic March
04. Kosmisches Gleiteisen, pt. 2
05. Angry Young Moog, pt. 2
06. Das Große Identifikationsspiel
07. Kurzes Stück im Alten Stil

Total time: 01:19:56

Exact Audio Copy V0.99 prebeta 5 from 4. May 2009

EAC extraction logfile from 17. February 2010, 11:30

Klaus Schulze / Angry Moog (The Ultimate Edition CD 33)

Used drive : TSSTcorpDVD+-RW TS-H653B Adapter: 1 ID: 0

Read mode : Secure
Utilize accurate stream : Yes
Defeat audio cache : Yes
Make use of C2 pointers : No

Read offset correction : 6
Overread into Lead-In and Lead-Out : No
Fill up missing offset samples with silence : Yes
Delete leading and trailing silent blocks : No
Null samples used in CRC calculations : Yes
Used interface : Native Win32 interface for Win NT & 2000

Used output format : User Defined Encoder
Selected bitrate : 1024 kBit/s
Quality : High
Add ID3 tag : No
Command line compressor : C:\Program Files\Exact Audio Copy\FLAC\FLAC.EXE
Additional command line options : -6 -V -T "ARTIST=%a" -T "TITLE=%t" -T "ALBUM=%g" -T "DATE=%y" -T "TRACKNUMBER=%n" -T "GENRE=%m" -T "COMMENT=%e" %s -o %d


TOC of the extracted CD

Track | Start | Length | Start sector | End sector
––––––––––––––––––––––––––––-
1 | 0:00.00 | 8:06.42 | 0 | 36491
2 | 8:06.42 | 3:45.50 | 36492 | 53416
3 | 11:52.17 | 3:44.58 | 53417 | 70274
4 | 15:37.00 | 1:58.40 | 70275 | 79164
5 | 17:35.40 | 13:17.17 | 79165 | 138956
6 | 30:52.57 | 42:01.68 | 138957 | 328099
7 | 72:54.50 | 7:01.57 | 328100 | 359731


Range status and errors

Selected range

Filename D:\UE\Klaus Schulze - Angry Moog (The Ultimate Edition CD 33).wav

Peak level 100.0 %
Range quality 100.0 %
Test CRC 9E1D77F0
Copy CRC 9E1D77F0
Copy OK

No errors occurred


AccurateRip summary

Track 1 accurately ripped (confidence 1) [30D6D3C0]
Track 2 accurately ripped (confidence 1) [DA34115E]
Track 3 accurately ripped (confidence 1) [4556157C]
Track 4 accurately ripped (confidence 1) [88D16FC6]
Track 5 accurately ripped (confidence 1) [427C7E6B]
Track 6 accurately ripped (confidence 1) [9E3D6523]
Track 7 accurately ripped (confidence 1) [A0DB1BD4]

All tracks accurately ripped

End of status report

[CUETools log; Date: 30.11.2020 17:25:11; Version: 2.1.4]
[CTDB TOCID: jmyIe0A86kV.k3S.g3bHJi_2mrc-] found.
Track | CTDB Status
1 | (12/14) Accurately ripped, or (2/14) differs in 2 samples @00:53:59
2 | (14/14) Accurately ripped
3 | (14/14) Accurately ripped
4 | (12/14) Accurately ripped, or (2/14) differs in 2 samples @01:54:41
5 | (14/14) Accurately ripped
6 | (14/14) Accurately ripped
7 | (14/14) Accurately ripped
[AccurateRip ID: 0010449a-0069913b-6a12bc07] found.
Track [ CRC | V2 ] Status
01 [30d6d3c0|2a7f33f4] (09+05/14) Accurately ripped
02 [da34115e|e33b3409] (09+05/14) Accurately ripped
03 [4556157c|56672bac] (09+05/14) Accurately ripped
04 [88d16fc6|d961cb39] (09+05/14) Accurately ripped
05 [427c7e6b|7a8a95aa] (09+05/14) Accurately ripped
06 [9e3d6523|ae7e3d0a] (09+05/14) Accurately ripped
07 [a0db1bd4|17bd6e0d] (09+05/14) Accurately ripped

Track Peak [ CRC32 ] [W/O NULL] [ LOG ]
– 100,0 [9E1D77F0] [6A79E9C9] CRC32
01 100,0 [58926D20] [BC137BBA]
02 100,0 [5D340E5D] [9F0DA374]
03 100,0 [34F77C19] [754AFD30]
04 47,9 [C3D27932] [87E38B8E]
05 100,0 [13B3528B] [70DE2D51]
06 99,0 [A98D04E9] [196406EB]
07 98,9 [B42FD6D6] [F0415162]

Klaus Schulze - The Ultimate Edition (2000) [Box 4, Discs 31-40: Jubilee Edition Part 2] (Re-up)

CD 34: Klaus Shulze - Die Erde ist Rund
EAC Rip | FLAC (image+.cue+log) - 461 MB | MP3 CBR 320 kbps (LAME 3.93) - 192 MB | Covers (9 MB) included
Genre: Electronic, Berlin School | RAR 3% Rec. | Label: Série Poème (Série Poème 2000-34)

Tracklist:
01. The Oberhausen Tape
02. The Other Oberhausen Tape
03. Die Erde ist Rund
04. Shadow Piece
05. German Interview with KS in 1984

Total time: 01:18:04

Exact Audio Copy V0.99 prebeta 5 from 4. May 2009

EAC extraction logfile from 17. February 2010, 11:58

Klaus Schulze / Die Erde ist Rund (The Ultimate Edition CD 34)

Used drive : TSSTcorpDVD+-RW TS-H653B Adapter: 1 ID: 0

Read mode : Secure
Utilize accurate stream : Yes
Defeat audio cache : Yes
Make use of C2 pointers : No

Read offset correction : 6
Overread into Lead-In and Lead-Out : No
Fill up missing offset samples with silence : Yes
Delete leading and trailing silent blocks : No
Null samples used in CRC calculations : Yes
Used interface : Native Win32 interface for Win NT & 2000

Used output format : User Defined Encoder
Selected bitrate : 1024 kBit/s
Quality : High
Add ID3 tag : No
Command line compressor : C:\Program Files\Exact Audio Copy\FLAC\FLAC.EXE
Additional command line options : -6 -V -T "ARTIST=%a" -T "TITLE=%t" -T "ALBUM=%g" -T "DATE=%y" -T "TRACKNUMBER=%n" -T "GENRE=%m" -T "COMMENT=%e" %s -o %d


TOC of the extracted CD

Track | Start | Length | Start sector | End sector
––––––––––––––––––––––––––––-
1 | 0:00.00 | 23:06.57 | 0 | 104006
2 | 23:06.57 | 22:07.10 | 104007 | 203541
3 | 45:13.67 | 11:58.43 | 203542 | 257434
4 | 57:12.35 | 13:38.47 | 257435 | 318831
5 | 70:51.07 | 7:12.55 | 318832 | 351286


Range status and errors

Selected range

Filename D:\UE\Klaus Schulze - Die Erde ist Rund (The Ultimate Edition CD 34).wav

Peak level 100.0 %
Range quality 100.0 %
Test CRC F0266162
Copy CRC F0266162
Copy OK

No errors occurred


AccurateRip summary

Track 1 accurately ripped (confidence 1) [BBAABA95]
Track 2 accurately ripped (confidence 1) [6D06929B]
Track 3 accurately ripped (confidence 1) [8CF42612]
Track 4 accurately ripped (confidence 1) [04CD3A6B]
Track 5 not present in database

4 track(s) accurately ripped
1 track(s) not present in the AccurateRip database

Some tracks could not be verified as accurate

End of status report

[CUETools log; Date: 30.11.2020 17:25:58; Version: 2.1.4]
[CTDB TOCID: ciHiQjsYhZWzrIHqOGORqCOhZyw-] found.
Track | CTDB Status
1 | (14/16) Accurately ripped, or (2/16) differs in 29 samples @00:01:22
2 | (16/16) Accurately ripped
3 | (16/16) Accurately ripped
4 | (13/16) Accurately ripped, or (2/16) differs in 45 samples @00:00:65,13:03:11-13:03:12,13:03:28-13:03:30,13:03:72,13:04:32,13:04:49
5 | (16/16) Accurately ripped
[AccurateRip ID: 0012d89f-0054b0b7-41124b05] found.
Track [ CRC | V2 ] Status
01 [bbaaba95|b11f3e4d] (08+05/13) Accurately ripped
02 [6d06929b|faa473ad] (08+05/13) Accurately ripped
03 [8cf42612|28fd68b4] (08+05/13) Accurately ripped
04 [04cd3a6b|43d943f5] (08+04/12) Accurately ripped
05 [371c8ddb|89d62577] (07+05/12) Accurately ripped

Track Peak [ CRC32 ] [W/O NULL] [ LOG ]
– 100,0 [F0266162] [A9882669] CRC32
01 93,8 [FAAB391D] [B1F1034F]
02 100,0 [5872F16B] [BE6DF1BC]
03 83,4 [7E8F30C8] [447018DA]
04 97,1 [4F9ED6F2] [131F6F52]
05 99,5 [E259A977] [912C2C99]

Klaus Schulze - The Ultimate Edition (2000) [Box 4, Discs 31-40: Jubilee Edition Part 2] (Re-up)

CD 35: Klaus Schulze - Deutsch
EAC Rip | FLAC (image+.cue+log) - 509 MB | MP3 CBR 320 kbps (LAME 3.93) - 194 MB | Covers (9 MB) included
Genre: Electronic, Berlin School | RAR 3% Rec. | Label: Série Poème (Série Poème 2000-35)

Tracklist:
01. Unheilbar Deutsch
02. Just Skins

Total time: 01:18:34

Exact Audio Copy V0.99 prebeta 5 from 4. May 2009

EAC extraction logfile from 17. February 2010, 12:19

Klaus Schulze / Deutsch (The Ultimate Edition CD 35)

Used drive : TSSTcorpDVD+-RW TS-H653B Adapter: 1 ID: 0

Read mode : Secure
Utilize accurate stream : Yes
Defeat audio cache : Yes
Make use of C2 pointers : No

Read offset correction : 6
Overread into Lead-In and Lead-Out : No
Fill up missing offset samples with silence : Yes
Delete leading and trailing silent blocks : No
Null samples used in CRC calculations : Yes
Used interface : Native Win32 interface for Win NT & 2000

Used output format : User Defined Encoder
Selected bitrate : 1024 kBit/s
Quality : High
Add ID3 tag : No
Command line compressor : C:\Program Files\Exact Audio Copy\FLAC\FLAC.EXE
Additional command line options : -6 -V -T "ARTIST=%a" -T "TITLE=%t" -T "ALBUM=%g" -T "DATE=%y" -T "TRACKNUMBER=%n" -T "GENRE=%m" -T "COMMENT=%e" %s -o %d


TOC of the extracted CD

Track | Start | Length | Start sector | End sector
––––––––––––––––––––––––––––-
1 | 0:00.00 | 53:55.17 | 0 | 242641
2 | 53:55.17 | 24:39.13 | 242642 | 353579


Range status and errors

Selected range

Filename D:\UE\Klaus Schulze - Deutsch (The Ultimate Edition CD 35).wav

Peak level 100.0 %
Range quality 100.0 %
Test CRC B50298DC
Copy CRC B50298DC
Copy OK

No errors occurred


AccurateRip summary

Track 1 accurately ripped (confidence 1) [D9B73068]
Track 2 accurately ripped (confidence 1) [D192FD7B]

All tracks accurately ripped

End of status report

[CUETools log; Date: 30.11.2020 17:26:24; Version: 2.1.4]
[CTDB TOCID: dLIONf3uWPEzXRRaR4J8pxu6PWE-] found.
Track | CTDB Status
1 | (19/19) Accurately ripped
2 | (18/19) Accurately ripped
[AccurateRip ID: 000918fe-00179729-11126a02] found.
Track [ CRC | V2 ] Status
01 [d9b73068|000c19e2] (08+05/13) Accurately ripped
02 [d192fd7b|4dd2dcc8] (08+04/12) Accurately ripped

Track Peak [ CRC32 ] [W/O NULL] [ LOG ]
– 100,0 [B50298DC] [17B39169] CRC32
01 97,4 [BC47B151] [7E0C0A5D]
02 100,0 [EC1EF3E6] [8B791430]

Klaus Schulze - The Ultimate Edition (2000) [Box 4, Discs 31-40: Jubilee Edition Part 2] (Re-up)

CD 36: Klaus Schulze - Unplugged
EAC Rip | FLAC (image+.cue+log) - 430 MB | MP3 CBR 320 kbps (LAME 3.93) - 191 MB | Covers (9 MB) included
Genre: Electronic, Berlin School | RAR 3% Rec. | Label: Série Poème (Série Poème 2000-36)

Tracklist:
01. Nightwind
02. Minuet
03. Signs of Dawn
04. Phonetisches Plakat
05. Study for Brian Eno
06. Study for Philip K. Dick
07. German Interview with KS in 1979

Total time: 01:17:01

Exact Audio Copy V0.99 prebeta 5 from 4. May 2009

EAC extraction logfile from 17. February 2010, 12:41

Klaus Schulze / Unplugged (The Ultimate Edition CD 36)

Used drive : TSSTcorpDVD+-RW TS-H653B Adapter: 1 ID: 0

Read mode : Secure
Utilize accurate stream : Yes
Defeat audio cache : Yes
Make use of C2 pointers : No

Read offset correction : 6
Overread into Lead-In and Lead-Out : No
Fill up missing offset samples with silence : Yes
Delete leading and trailing silent blocks : No
Null samples used in CRC calculations : Yes
Used interface : Native Win32 interface for Win NT & 2000

Used output format : User Defined Encoder
Selected bitrate : 1024 kBit/s
Quality : High
Add ID3 tag : No
Command line compressor : C:\Program Files\Exact Audio Copy\FLAC\FLAC.EXE
Additional command line options : -6 -V -T "ARTIST=%a" -T "TITLE=%t" -T "ALBUM=%g" -T "DATE=%y" -T "TRACKNUMBER=%n" -T "GENRE=%m" -T "COMMENT=%e" %s -o %d


TOC of the extracted CD

Track | Start | Length | Start sector | End sector
––––––––––––––––––––––––––––-
1 | 0:00.00 | 16:14.60 | 0 | 73109
2 | 16:14.60 | 11:38.70 | 73110 | 125529
3 | 27:53.55 | 22:45.22 | 125530 | 227926
4 | 50:39.02 | 7:31.18 | 227927 | 261769
5 | 58:10.20 | 7:23.27 | 261770 | 295021
6 | 65:33.47 | 8:58.10 | 295022 | 335381
7 | 74:31.57 | 2:28.73 | 335382 | 346554


Range status and errors

Selected range

Filename D:\UE\Klaus Schulze - Unplugged (The Ultimate Edition CD 36).wav

Peak level 100.0 %
Range quality 100.0 %
Test CRC 94083D4B
Copy CRC 94083D4B
Copy OK

No errors occurred


AccurateRip summary

Track 1 accurately ripped (confidence 1) [CAAF05F2]
Track 2 accurately ripped (confidence 1) [A8D8B0F9]
Track 3 accurately ripped (confidence 1) [9B8A2BF6]
Track 4 accurately ripped (confidence 1) [6B76CCA5]
Track 5 accurately ripped (confidence 1) [B1F456D1]
Track 6 accurately ripped (confidence 1) [D63ED094]
Track 7 not present in database

6 track(s) accurately ripped
1 track(s) not present in the AccurateRip database

Some tracks could not be verified as accurate

End of status report

[CUETools log; Date: 30.11.2020 17:26:53; Version: 2.1.4]
[CTDB TOCID: wY0VSBTLudKJQxMY_MA3HXiPwFU-] found.
Track | CTDB Status
1 | (17/17) Accurately ripped
2 | (17/17) Accurately ripped
3 | (17/17) Accurately ripped
4 | (17/17) Accurately ripped
5 | (17/17) Accurately ripped
6 | (17/17) Accurately ripped
7 | (17/17) Accurately ripped
[AccurateRip ID: 00196910-0092ff4f-6b120c07] found.
Track [ CRC | V2 ] Status
01 [caaf05f2|c27dfa1f] (09+05/14) Accurately ripped
02 [a8d8b0f9|e09131dc] (09+05/14) Accurately ripped
03 [9b8a2bf6|d4ebc8ef] (09+05/14) Accurately ripped
04 [6b76cca5|65e8b520] (09+05/14) Accurately ripped
05 [b1f456d1|1a2bf6cd] (09+05/14) Accurately ripped
06 [d63ed094|3143a095] (09+05/14) Accurately ripped
07 [95c90cb2|8f85835c] (08+05/13) Accurately ripped

Track Peak [ CRC32 ] [W/O NULL] [ LOG ]
– 100,0 [94083D4B] [74863BDF] CRC32
01 100,0 [81DC689D] [0330B2B5]
02 100,0 [90281CD4] [27C7E55F]
03 95,5 [DC0A67FE] [41F8B46B]
04 100,0 [ED09238B] [830C3D76]
05 82,9 [C896E39E] [1E479015]
06 97,8 [AFA7940B] [0B646BFC]
07 95,0 [41E872F5] [B70B1086]

Klaus Schulze - The Ultimate Edition (2000) [Box 4, Discs 31-40: Jubilee Edition Part 2] (Re-up)

CD 37: Klaus Schulze - Mostly Bruxelles
EAC Rip | FLAC (image+.cue+log) - 471 MB | MP3 CBR 320 kbps (LAME 3.93) - 186 MB | Covers (9 MB) included
Genre: Electronic, Berlin School | RAR 3% Rec. | Label: Série Poème (Série Poème 2000-37)

Tracklist:
01. Dans un Jardin
02. Faster Than Lightning
03. Study for Terry Riley

Total time: 01:15:07

Exact Audio Copy V0.99 prebeta 5 from 4. May 2009

EAC extraction logfile from 17. February 2010, 13:02

Klaus Schulze / Mostly Bruxelles (The Ultimate Edition CD 37)

Used drive : TSSTcorpDVD+-RW TS-H653B Adapter: 1 ID: 0

Read mode : Secure
Utilize accurate stream : Yes
Defeat audio cache : Yes
Make use of C2 pointers : No

Read offset correction : 6
Overread into Lead-In and Lead-Out : No
Fill up missing offset samples with silence : Yes
Delete leading and trailing silent blocks : No
Null samples used in CRC calculations : Yes
Used interface : Native Win32 interface for Win NT & 2000

Used output format : User Defined Encoder
Selected bitrate : 1024 kBit/s
Quality : High
Add ID3 tag : No
Command line compressor : C:\Program Files\Exact Audio Copy\FLAC\FLAC.EXE
Additional command line options : -6 -V -T "ARTIST=%a" -T "TITLE=%t" -T "ALBUM=%g" -T "DATE=%y" -T "TRACKNUMBER=%n" -T "GENRE=%m" -T "COMMENT=%e" %s -o %d


TOC of the extracted CD

Track | Start | Length | Start sector | End sector
––––––––––––––––––––––––––––-
1 | 0:00.00 | 40:01.57 | 0 | 180131
2 | 40:01.57 | 29:56.45 | 180132 | 314876
3 | 69:58.27 | 5:08.30 | 314877 | 338006


Range status and errors

Selected range

Filename D:\UE\Klaus Schulze - Mostly Bruxelles (The Ultimate Edition CD 37).wav

Peak level 100.0 %
Range quality 99.9 %
Test CRC 98B8DE31
Copy CRC 98B8DE31
Copy OK

No errors occurred


AccurateRip summary

Track 1 accurately ripped (confidence 1) [782B4E6F]
Track 2 accurately ripped (confidence 1) [8BBC831F]
Track 3 accurately ripped (confidence 1) [42D9B97E]

All tracks accurately ripped

End of status report

[CUETools log; Date: 30.11.2020 17:27:22; Version: 2.1.4]
[CTDB TOCID: SXDsXr1T98WfbCR0MvCNte.8pVM-] found.
Track | CTDB Status
1 | (17/18) Accurately ripped
2 | (17/18) Accurately ripped
3 | (16/18) Accurately ripped
[AccurateRip ID: 000cb5f8-00288a9c-11119a03] found.
Track [ CRC | V2 ] Status
01 [782b4e6f|c0dc9421] (10+05/15) Accurately ripped
02 [8bbc831f|060043db] (10+05/15) Accurately ripped
03 [42d9b97e|4f39a659] (09+04/13) Accurately ripped

Track Peak [ CRC32 ] [W/O NULL] [ LOG ]
– 100,0 [98B8DE31] [0FFFAAD8] CRC32
01 100,0 [97CAD626] [17D6390E]
02 100,0 [A7181D99] [8A832466]
03 97,4 [AD39D741] [AA5D1F44]

Klaus Schulze - The Ultimate Edition (2000) [Box 4, Discs 31-40: Jubilee Edition Part 2] (Re-up)

CD 38: Klaus Schulze - À la Mode?
EAC Rip | FLAC (image+.cue+log) - 481 MB | MP3 CBR 320 kbps (LAME 3.93) - 197 MB | Covers (9 MB) included
Genre: Electronic, Berlin School | RAR 3% Rec. | Label: Série Poème (Série Poème 2000-38)

Tracklist:
01. Verblüffe Sie!
02. Seltsam Statisch
03. Kompromisslose Invention
04. Maxxi

Total time: 01:19:35

Exact Audio Copy V0.99 prebeta 5 from 4. May 2009

EAC extraction logfile from 17. February 2010, 13:34

Klaus Schulze / А la Mode? (The Ultimate Edition CD 38)

Used drive : TSSTcorpDVD+-RW TS-H653B Adapter: 1 ID: 0

Read mode : Secure
Utilize accurate stream : Yes
Defeat audio cache : Yes
Make use of C2 pointers : No

Read offset correction : 6
Overread into Lead-In and Lead-Out : No
Fill up missing offset samples with silence : Yes
Delete leading and trailing silent blocks : No
Null samples used in CRC calculations : Yes
Used interface : Native Win32 interface for Win NT & 2000

Used output format : User Defined Encoder
Selected bitrate : 1024 kBit/s
Quality : High
Add ID3 tag : No
Command line compressor : C:\Program Files\Exact Audio Copy\FLAC\FLAC.EXE
Additional command line options : -6 -V -T "ARTIST=%a" -T "TITLE=%t" -T "ALBUM=%g" -T "DATE=%y" -T "TRACKNUMBER=%n" -T "GENRE=%m" -T "COMMENT=%e" %s -o %d


TOC of the extracted CD

Track | Start | Length | Start sector | End sector
––––––––––––––––––––––––––––-
1 | 0:00.00 | 34:25.37 | 0 | 154911
2 | 34:25.37 | 21:34.33 | 154912 | 251994
3 | 55:59.70 | 15:50.47 | 251995 | 323291
4 | 71:50.42 | 7:44.20 | 323292 | 358111


Range status and errors

Selected range

Filename D:\UE\Klaus Schulze - А la Mode (The Ultimate Edition CD 38).wav

Peak level 100.0 %
Range quality 100.0 %
Test CRC 5ADC0314
Copy CRC 5ADC0314
Copy OK

No errors occurred


AccurateRip summary

Track 1 accurately ripped (confidence 1) [7B01219E]
Track 2 accurately ripped (confidence 1) [A61F81EB]
Track 3 accurately ripped (confidence 1) [A3010EB3]
Track 4 accurately ripped (confidence 1) [C4A30E54]

All tracks accurately ripped

End of status report

[CUETools log; Date: 30.11.2020 17:27:53; Version: 2.1.4]
[CTDB TOCID: 7rdSKYwtniT4nm1dkUGecbTZXAc-] found.
Track | CTDB Status
1 | (18/18) Accurately ripped
2 | (15/18) Accurately ripped, or (2/18) differs in 40 samples @21:21:05,21:25:41,21:27:03,21:28:10
3 | (18/18) Accurately ripped
4 | (16/18) Accurately ripped, or (2/18) differs in 1 samples @07:06:19
[AccurateRip ID: 00109b37-003f5122-2812a604] found.
Track [ CRC | V2 ] Status
01 [7b01219e|e109d5dc] (08+05/13) Accurately ripped
02 [a61f81eb|0087f6e5] (08+04/12) Accurately ripped
03 [a3010eb3|751f6bc4] (08+05/13) Accurately ripped
04 [c4a30e54|12fbdd32] (08+05/13) Accurately ripped

Track Peak [ CRC32 ] [W/O NULL] [ LOG ]
– 100,0 [5ADC0314] [29EA61FD] CRC32
01 100,0 [74ECE464] [6987E893]
02 100,0 [CA5D6590] [6394CE23]
03 100,0 [6F9CEF5E] [D82D9B3E]
04 100,0 [6F74FC43] [370130EB]

Klaus Schulze - The Ultimate Edition (2000) [Box 4, Discs 31-40: Jubilee Edition Part 2] (Re-up)

CD 39: Klaus Schulze - Interessant
EAC Rip | FLAC (image+.cue+log) - 474 MB | MP3 CBR 320 kbps (LAME 3.93) - 192 MB | Covers (9 MB) included
Genre: Electronic, Berlin School | RAR 3% Rec. | Label: Série Poème (Série Poème 2000-39)

Tracklist:
01. National Radio Waves
02. The Midas Touch
03. German Interview with KS in 1984

Total time: 01:17:46

Exact Audio Copy V0.99 prebeta 5 from 4. May 2009

EAC extraction logfile from 17. February 2010, 13:55

Klaus Schulze / Interessant (The Ultimate Edition CD 39)

Used drive : TSSTcorpDVD+-RW TS-H653B Adapter: 1 ID: 0

Read mode : Secure
Utilize accurate stream : Yes
Defeat audio cache : Yes
Make use of C2 pointers : No

Read offset correction : 6
Overread into Lead-In and Lead-Out : No
Fill up missing offset samples with silence : Yes
Delete leading and trailing silent blocks : No
Null samples used in CRC calculations : Yes
Used interface : Native Win32 interface for Win NT & 2000

Used output format : User Defined Encoder
Selected bitrate : 1024 kBit/s
Quality : High
Add ID3 tag : No
Command line compressor : C:\Program Files\Exact Audio Copy\FLAC\FLAC.EXE
Additional command line options : -6 -V -T "ARTIST=%a" -T "TITLE=%t" -T "ALBUM=%g" -T "DATE=%y" -T "TRACKNUMBER=%n" -T "GENRE=%m" -T "COMMENT=%e" %s -o %d


TOC of the extracted CD

Track | Start | Length | Start sector | End sector
––––––––––––––––––––––––––––-
1 | 0:00.00 | 53:08.25 | 0 | 239124
2 | 53:08.25 | 20:37.27 | 239125 | 331926
3 | 73:45.52 | 4:00.38 | 331927 | 349964


Range status and errors

Selected range

Filename D:\UE\Klaus Schulze - Interessant (The Ultimate Edition CD 39).wav

Peak level 100.0 %
Range quality 100.0 %
Test CRC D5FEB850
Copy CRC D5FEB850
Copy OK

No errors occurred


AccurateRip summary

Track 1 accurately ripped (confidence 1) [47F182C6]
Track 2 accurately ripped (confidence 1) [95D172A7]
Track 3 not present in database

2 track(s) accurately ripped
1 track(s) not present in the AccurateRip database

Some tracks could not be verified as accurate

End of status report

[CUETools log; Date: 30.11.2020 17:28:19; Version: 2.1.4]
[CTDB TOCID: QbHpyJFcXktADUCkkRpKql.C6dM-] found.
Track | CTDB Status
1 | (16/19) Accurately ripped, or (2/19) differs in 7 samples @52:59:38
2 | (16/19) Accurately ripped, or (2/19) differs in 25 samples @00:00:34,00:00:49
3 | (18/19) Accurately ripped
[AccurateRip ID: 000e0db9-002bda24-20123a03] found.
Track [ CRC | V2 ] Status
01 [47f182c6|f830bffe] (08+05/13) Accurately ripped
02 [95d172a7|bba92d33] (08+05/13) Accurately ripped
03 [6619dc47|1050becf] (07+05/12) Accurately ripped

Track Peak [ CRC32 ] [W/O NULL] [ LOG ]
– 100,0 [D5FEB850] [8411E794] CRC32
01 100,0 [17B588FB] [FEC1DF50]
02 91,2 [980741DF] [EACE4AB3]
03 93,3 [44A22724] [AD2B640E]

Klaus Schulze - The Ultimate Edition (2000) [Box 4, Discs 31-40: Jubilee Edition Part 2] (Re-up)

CD 40: Klaus Schulze - Stahlsinfonie
EAC Rip | FLAC (image+.cue+log) - 453 MB | MP3 CBR 320 kbps (LAME 3.93) - 184 MB | Covers (8 MB) included
Genre: Electronic, Berlin School | RAR 3% Rec. | Label: Série Poème (Série Poème 2000-40)

Tracklist:
01. Linzer Stahlsinfonie
02. Bona Fide

Total time: 01:14:35

Exact Audio Copy V0.99 prebeta 5 from 4. May 2009

EAC extraction logfile from 17. February 2010, 14:21

Klaus Schulze / Stahlsinfonie (The Ultimate Edition CD 40)

Used drive : TSSTcorpDVD+-RW TS-H653B Adapter: 1 ID: 0

Read mode : Secure
Utilize accurate stream : Yes
Defeat audio cache : Yes
Make use of C2 pointers : No

Read offset correction : 6
Overread into Lead-In and Lead-Out : No
Fill up missing offset samples with silence : Yes
Delete leading and trailing silent blocks : No
Null samples used in CRC calculations : Yes
Used interface : Native Win32 interface for Win NT & 2000

Used output format : User Defined Encoder
Selected bitrate : 1024 kBit/s
Quality : High
Add ID3 tag : No
Command line compressor : C:\Program Files\Exact Audio Copy\FLAC\FLAC.EXE
Additional command line options : -6 -V -T "ARTIST=%a" -T "TITLE=%t" -T "ALBUM=%g" -T "DATE=%y" -T "TRACKNUMBER=%n" -T "GENRE=%m" -T "COMMENT=%e" %s -o %d


TOC of the extracted CD

Track | Start | Length | Start sector | End sector
––––––––––––––––––––––––––––-
1 | 0:00.00 | 60:04.15 | 0 | 270314
2 | 60:04.15 | 14:30.62 | 270315 | 335626


Range status and errors

Selected range

Filename D:\UE\Klaus Schulze - Stahlsinfonie (The Ultimate Edition CD 40).wav

Peak level 100.0 %
Range quality 100.0 %
Test CRC E1E6DBBE
Copy CRC E1E6DBBE
Copy OK

No errors occurred


AccurateRip summary

Track 1 accurately ripped (confidence 1) [CBE3DC6B]
Track 2 accurately ripped (confidence 1) [D1EB06AE]

All tracks accurately ripped

End of status report

[CUETools log; Date: 30.11.2020 17:28:44; Version: 2.1.4]
[CTDB TOCID: v4R0N4QJD_skJqPgg6sTJYCn.0w-] found.
Track | CTDB Status
1 | (16/17) Accurately ripped
2 | (17/17) Accurately ripped
[AccurateRip ID: 00093ef6-00179cf8-11117b02] found.
Track [ CRC | V2 ] Status
01 [cbe3dc6b|ff2391a8] (08+05/13) Accurately ripped
02 [d1eb06ae|0108e777] (08+05/13) Accurately ripped

Track Peak [ CRC32 ] [W/O NULL] [ LOG ]
– 100,0 [E1E6DBBE] [7A764EAB] CRC32
01 100,0 [252FD76B] [232AF0CF]
02 99,3 [484F2D87] [F40B037F]

Thanks to jmj713

See also: