Tags
Language
Tags

Koko Taylor - Old School (2007) Repost / New Rip

Posted By: popsakov
Koko Taylor - Old School (2007) Repost / New Rip

Koko Taylor - Old School (2007)
EAC Rip | FLAC (Img) + Cue + Log ~ 469 Mb | MP3 CBR320 ~ 152 Mb
Full Scans ~ 60 Mb | 01:03:03 | RAR 5% Recovery
Chicago Blues, Modern Electric Blues | Alligator Records #ALCD 4915

Old School is Koko Taylor's first new album in seven years, and after a series of health issues that sidelined her for a while, it could be viewed as a comeback of sorts, but if so, there aren't any signs of rust here. She still belts out her trademark Chicago blues like she always has, sidestepping any 21st century recording tricks for a straightforward set that wouldn't sound out of place next to her classic Chess sides from the early '60s. It's also encouraging that she wrote nearly half the tunes here, while turning in solid covers of a pair of Willie Dixon songs ("Don't Go No Further" and "Young Fashioned Ways"), one by Magic Sam ("All Your Love") and a scorching performance of Lizzie Lawler's classic "Black Rat" that rivals Big Mama Thornton's version. A rendition of "Bad Rooster" is also top notch. Of the originals, the lead track, "Piece of Man," is the most impressive, setting the tone and feel for an album that clearly celebrates Taylor's unshakable Chicago blues roots. Old School isn't sleek, pretty, posed or polished, but is instead raw, ragged and as real as a biting winter wind off of Lake Michigan. Call it a comeback if you want, but this is the territory that Koko Taylor has lived in for nearly fifty years. She owns this stuff. Call it a continuance. This CD was nominated for a Grammy award in 2007 for Best Traditional Blues Album.

~ Steve Leggett, All Music

***************

Track List:

01. Piece of man [4:31]
02. Gonna buy me a mule [4:36]
03. Black rat [5:09]
04. Money is the name of the game [6:49]
05. You ain't worth a good woman [5:35]
06. Better watch your step [4:56]
07. Bad avenue [5:21]
08. Bad rooster [5:22]
09. Don't go no further [3:40]
10. All your love [6:36]
11. Hard pill to swallow [5:52]
12. Young fashioned ways [4:42]

Exact Audio Copy V1.0 beta 3 from 29. August 2011

EAC extraction logfile from 16. January 2018, 20:57

Koko Taylor / Old school

Used drive : PLEXTOR DVDR PX-740A Adapter: 0 ID: 0

Read mode : Secure
Utilize accurate stream : Yes
Defeat audio cache : Yes
Make use of C2 pointers : No

Read offset correction : 618
Overread into Lead-In and Lead-Out : No
Fill up missing offset samples with silence : Yes
Delete leading and trailing silent blocks : No
Null samples used in CRC calculations : Yes
Used interface : Native Win32 interface for Win NT & 2000

Used output format : Internal WAV Routines
Sample format : 44.100 Hz; 16 Bit; Stereo


TOC of the extracted CD

Track | Start | Length | Start sector | End sector
––––––––––––––––––––––––––––-
1 | 0:00.00 | 4:30.38 | 0 | 20287
2 | 4:30.38 | 4:35.23 | 20288 | 40935
3 | 9:05.61 | 5:08.45 | 40936 | 64080
4 | 14:14.31 | 6:48.31 | 64081 | 94711
5 | 21:02.62 | 5:34.47 | 94712 | 119808
6 | 26:37.34 | 4:55.38 | 119809 | 141971
7 | 31:32.72 | 5:20.57 | 141972 | 166028
8 | 36:53.54 | 5:21.61 | 166029 | 190164
9 | 42:15.40 | 3:39.46 | 190165 | 206635
10 | 45:55.11 | 6:35.31 | 206636 | 236291
11 | 52:30.42 | 5:51.05 | 236292 | 262621
12 | 58:21.47 | 4:41.14 | 262622 | 283710


Range status and errors

Selected range

Filename C:\MUSIC\CD Rips_J\Koko School\Koko Taylor - Old school.wav

Peak level 96.6 %
Extraction speed 8.9 X
Range quality 99.9 %
Test CRC 640A17A2
Copy CRC 640A17A2
Copy OK

No errors occurred


AccurateRip summary

Track 1 accurately ripped (confidence 33) [F4E5DEAE] (AR v2)
Track 2 accurately ripped (confidence 33) [8F401078] (AR v2)
Track 3 accurately ripped (confidence 33) [25A67212] (AR v2)
Track 4 accurately ripped (confidence 33) [208B1CC8] (AR v2)
Track 5 accurately ripped (confidence 33) [002FE516] (AR v2)
Track 6 accurately ripped (confidence 33) [DE163F83] (AR v2)
Track 7 accurately ripped (confidence 33) [B56C15BA] (AR v2)
Track 8 accurately ripped (confidence 33) [E60649F2] (AR v2)
Track 9 accurately ripped (confidence 33) [BE39C321] (AR v2)
Track 10 accurately ripped (confidence 33) [9CCBB0CD] (AR v2)
Track 11 accurately ripped (confidence 33) [70BAA5B3] (AR v2)
Track 12 accurately ripped (confidence 33) [081CF84C] (AR v2)

All tracks accurately ripped

End of status report

==== Log checksum E1091297817969244CB6E562D158AD9C920D10858D990B16FAA0E24D8DD55EE3 ====

[CUETools log; Date: 15.11.2021 13:00:02; Version: 2.1.6]
[CTDB TOCID: hVYjEnCQJBgUidj.J5eO6VQ2Inw-] found.
Track | CTDB Status
1 | (83/84) Accurately ripped
2 | (83/84) Accurately ripped
3 | (83/84) Accurately ripped
4 | (82/84) Accurately ripped
5 | (82/84) Accurately ripped
6 | (83/84) Accurately ripped
7 | (83/84) Accurately ripped
8 | (83/84) Accurately ripped
9 | (83/84) Accurately ripped
10 | (83/84) Accurately ripped
11 | (83/84) Accurately ripped
12 | (83/84) Accurately ripped
[AccurateRip ID: 001be1b5-0105b3cb-b10ec60c] found.
Track [ CRC | V2 ] Status
01 [5eb57985|f4e5deae] (29+45/76) Accurately ripped
02 [febcfdf2|8f401078] (29+45/76) Accurately ripped
03 [c25e92f3|25a67212] (29+45/76) Accurately ripped
04 [07f2a0bc|208b1cc8] (29+45/76) Accurately ripped
05 [b2486915|002fe516] (29+45/76) Accurately ripped
06 [6a42c764|de163f83] (29+45/76) Accurately ripped
07 [58c3d671|b56c15ba] (29+45/76) Accurately ripped
08 [fd1154f0|e60649f2] (29+45/76) Accurately ripped
09 [6358893c|be39c321] (29+45/76) Accurately ripped
10 [e41ba6ba|9ccbb0cd] (29+44/75) Accurately ripped
11 [711801fa|70baa5b3] (29+44/75) Accurately ripped
12 [a85537cc|081cf84c] (28+44/74) Accurately ripped
Offsetted by -12:
01 [96708709] (00/76) No match (V2 was not tested)
02 [b444952e] (00/76) No match (V2 was not tested)
03 [87d55593] (00/76) No match (V2 was not tested)
04 [34e3c8e8] (00/76) No match (V2 was not tested)
05 [f3830f19] (00/76) No match (V2 was not tested)
06 [2eb0f57c] (00/76) No match (V2 was not tested)
07 [f274eb11] (00/76) No match (V2 was not tested)
08 [612f60f8] (00/76) No match (V2 was not tested)
09 [83f7d790] (00/76) No match (V2 was not tested)
10 [a5cb69b6] (00/75) No match (V2 was not tested)
11 [bc01164e] (00/75) No match (V2 was not tested)
12 [4672eba2] (00/74) No match (V2 was not tested)
Offsetted by 640:
01 [d75efe02] (00/76) No match (V2 was not tested)
02 [9d72d16f] (00/76) No match (V2 was not tested)
03 [9eff06f9] (00/76) No match (V2 was not tested)
04 [ab10423c] (00/76) No match (V2 was not tested)
05 [c60a7d95] (00/76) No match (V2 was not tested)
06 [602e8267] (00/76) No match (V2 was not tested)
07 [53ee8a6e] (00/76) No match (V2 was not tested)
08 [21797df0] (00/76) No match (V2 was not tested)
09 [422537bc] (00/76) No match (V2 was not tested)
10 [1bdab23d] (00/75) No match (V2 was not tested)
11 [8c097074] (00/75) No match (V2 was not tested)
12 [754fc08f] (00/74) No match (V2 was not tested)

Track Peak [ CRC32 ] [W/O NULL] [ LOG ]
– 96,6 [640A17A2] [66028037] CRC32
01 96,6 [FBAA2479] [E9E53A84]
02 96,6 [4AE1AAA0] [367E9E5F]
03 96,6 [03390730] [3B590DC1]
04 96,6 [C188C529] [058C3BD1]
05 96,6 [F7A514F0] [338427EB]
06 96,6 [FDF94FB0] [8B534543]
07 96,6 [0B893FA4] [CA9C05A7]
08 96,6 [F9E56194] [AD81765A]
09 96,6 [7054C7F6] [C6D5235D]
10 96,6 [14E83887] [52C315F7]
11 96,6 [DEE44326] [417335BF]
12 96,6 [1EB60341] [8D894775]

All thanks go to Juergen

>>> My Blog <<<

DOWNLOAD: