Subcategories

Krzysztof Penderecki - Clarinet Concerto; Flute Concerto; Concerto Grosso No.1 (2014)

Posted By: Designol
Krzysztof Penderecki - Clarinet Concerto; Flute Concerto; Concerto Grosso No.1 (2014)

Krzysztof Penderecki - Clarinet Concerto; Flute Concerto; Concerto Grosso No.1 (2014)
The Polish Sinfonia Iuventus Orchestra, conducted by Krzysztof Penderecki
Michel Lethiec, clarinet; Łukasz Długosz, flute; Arto Noras, cello;
Bartosz Koziak, cello; Rafał Kwiatkowski, cello

EAC | FLAC | Image (Cue&Log) ~ 330 Mb | Mp3 (CBR320) ~ 185 Mb | Scans included
Genre: Classical | Label: DUX | # DUX 1186 | Time: 01:17:05

The instrumental concerto occupies a very prominent place in the music of Krzysztof Penderecki. This fact is related to the great life force exhibited by this genre in twentieth century and in contemporary music. It is stimulated by commissions from virtuosos and by audience expectations; also favourable is the composers’ flexibility in approaching the form, whose chief idea continues to be the juxtaposition of the solo instrument and the orchestra. The violin and viola works presented on this CD are not only interesting, concrete realizations of the concertare idea in Penderecki’s music, but also examples of this composer’s sonic language and style in the period of his creativity which Mieczyslaw Tomaszewski called a "time of dialogue with the regained past".

Krzysztof Penderecki - Clarinet Concerto; Flute Concerto; Concerto Grosso No.1 (2014)



Michel Lethiec, clarinet (1-7)
Łukasz Długosz, flute (8-13)
Arto Noras, cello (14)
Bartosz Koziak, cello (14)
Rafał Kwiatkowski, cello (14)
The Polish Sinfonia Iuventus Orchestra
Krzysztof Penderecki conductor

Tracklist:

Clarinet Concerto
(1984, a transcription of Concerto per viola ed orchestra, 1983)
01. I. Lento (6:18)
02. II. Vivace (3:13)
03. III. Meno mosso (1:23)
04. IV. Vivo (0:41)
05. V. Tempo I (3:22)
06. VI. Vivo (2:58)
07. VII. Lento (Tempo I) (2:44)

Concerto for Flute or Clarinet & Chamber Orchestra
08. I. Andante (5:07)
09. II. Piu animato (2:27)
10. III. Andante (3:41)
11. IV. Allegro con brio (4:24)
12. V. Vivace (2:08)
13. VI. Allegro recitativo (5:07)

14. Concerto Grosso No. 1 for 3 Cellos and Orchestra (33:33)


Exact Audio Copy V1.1 from 23. June 2015

EAC extraction logfile from 20. April 2016, 22:46

The Polish Sinfonia Iuventus Orchestra, Krzysztof Penderecki / Penderecki - Clarinet Concerto; Flute Concerto; Concerto Grosso No.1

Used drive : HL-DT-STDVDRAM GU70N Adapter: 1 ID: 0

Read mode : Secure
Utilize accurate stream : Yes
Defeat audio cache : Yes
Make use of C2 pointers : No

Read offset correction : 48
Overread into Lead-In and Lead-Out : No
Fill up missing offset samples with silence : Yes
Delete leading and trailing silent blocks : No
Null samples used in CRC calculations : Yes
Used interface : Native Win32 interface for Win NT & 2000

Used output format : User Defined Encoder
Selected bitrate : 128 kBit/s
Quality : High
Add ID3 tag : No
Command line compressor : C:\Program Files (x86)\Exact Audio Copy\Flac\flac.exe
Additional command line options : -V -8 -T "Date=%year%" -T "Genre=%genre%" %source%


TOC of the extracted CD

Track | Start | Length | Start sector | End sector
––––––––––––––––––––––––––––-
1 | 0:00.00 | 6:18.09 | 0 | 28358
2 | 6:18.09 | 3:12.69 | 28359 | 42827
3 | 9:31.03 | 1:22.71 | 42828 | 49048
4 | 10:53.74 | 0:40.61 | 49049 | 52109
5 | 11:34.60 | 3:22.25 | 52110 | 67284
6 | 14:57.10 | 2:57.66 | 67285 | 80625
7 | 17:55.01 | 2:43.59 | 80626 | 92909
8 | 20:38.60 | 5:07.06 | 92910 | 115940
9 | 25:45.66 | 2:26.64 | 115941 | 126954
10 | 28:12.55 | 3:40.64 | 126955 | 143518
11 | 31:53.44 | 4:23.59 | 143519 | 163302
12 | 36:17.28 | 2:07.55 | 163303 | 172882
13 | 38:25.08 | 5:06.41 | 172883 | 195873
14 | 43:31.49 | 33:33.21 | 195874 | 346869


Range status and errors

Selected range

Filename C:\temp\Penderecki - Clarinet Concerto; Flute Concerto; Concerto Grosso No.1\Penderecki - Clarinet Concerto; Flute Concerto; Concerto Grosso No.1.wav

Peak level 95.5 %
Extraction speed 2.2 X
Range quality 100.0 %
Test CRC 9CF15A18
Copy CRC 9CF15A18
Copy OK

No errors occurred


AccurateRip summary

Track 1 accurately ripped (confidence 1) [85B8B52B] (AR v2)
Track 2 accurately ripped (confidence 1) [DD9C8A52] (AR v2)
Track 3 accurately ripped (confidence 1) [ED799C60] (AR v2)
Track 4 accurately ripped (confidence 1) [DA1C2031] (AR v2)
Track 5 accurately ripped (confidence 1) [82F313C3] (AR v2)
Track 6 accurately ripped (confidence 1) [64ED7FEA] (AR v2)
Track 7 accurately ripped (confidence 1) [775528EC] (AR v2)
Track 8 accurately ripped (confidence 1) [10250716] (AR v2)
Track 9 accurately ripped (confidence 1) [DA072CBD] (AR v2)
Track 10 accurately ripped (confidence 1) [9AFED605] (AR v2)
Track 11 accurately ripped (confidence 1) [90234CFE] (AR v2)
Track 12 accurately ripped (confidence 1) [C21AA240] (AR v2)
Track 13 accurately ripped (confidence 1) [4DB0E3BD] (AR v2)
Track 14 accurately ripped (confidence 1) [4087ACEB] (AR v2)

All tracks accurately ripped

End of status report

==== Log checksum 4617B2F35E2591C84592A0FCF88E5A52A167787061263B13468D7B74AECF8A0B ====

foobar2000 1.2 / Dynamic Range Meter 1.1.1
log date: 2017-03-14 02:09:49

––––––––––––––––––––––––––––––––––––––––
Analyzed: Lukasz Dlugosz, The Polish Sinfonia Iuventus Orchestra, Krzysztof Penderecki / Penderecki - Clarinet Concerto; Flute Concerto; Concerto Grosso No.1
––––––––––––––––––––––––––––––––––––––––

DR Peak RMS Duration Track
––––––––––––––––––––––––––––––––––––––––
DR13 -3.13 dB -24.07 dB 5:07 08-Concerto per flauto et orchestra da camera - I. Andante
DR14 -2.30 dB -23.40 dB 2:27 09-Concerto per flauto et orchestra da camera - II. Piu animato
DR13 -6.29 dB -26.69 dB 3:41 10-Concerto per flauto et orchestra da camera - III. Andante
DR12 -2.19 dB -21.67 dB 4:24 11-Concerto per flauto et orchestra da camera - IV. Allegro con brio
DR12 -0.40 dB -17.60 dB 2:08 12-Concerto per flauto et orchestra da camera - V. Vivace
DR13 -3.87 dB -25.28 dB 5:07 13-Concerto per flauto et orchestra da camera - VI. Allegro recitativo
––––––––––––––––––––––––––––––––––––––––

Number of tracks: 6
Official DR value: DR13

Samplerate: 44100 Hz
Channels: 2
Bits per sample: 16
Bitrate: 582 kbps
Codec: FLAC
================================================================================

––––––––––––––––––––––––––––––––––––––––
Analyzed: Michel Lethiec, The Polish Sinfonia Iuventus Orchestra, Krzysztof Penderecki / Penderecki - Clarinet Concerto; Flute Concerto; Concerto Grosso No.1
––––––––––––––––––––––––––––––––––––––––

DR Peak RMS Duration Track
––––––––––––––––––––––––––––––––––––––––
DR11 -0.40 dB -17.62 dB 6:18 01-Clarinet Concerto - I. Lento
DR11 -0.40 dB -16.14 dB 3:13 02-Clarinet Concerto - II. Vivace
DR14 -2.36 dB -23.21 dB 1:23 03-Clarinet Concerto - III. Meno mosso
DR11 -3.59 dB -19.47 dB 0:41 04-Clarinet Concerto - IV. Vivo
DR14 -0.40 dB -21.16 dB 3:22 05-Clarinet Concerto - V. Tempo I
DR11 -0.40 dB -16.89 dB 2:58 06-Clarinet Concerto - VI. Vivo
DR11 -11.28 dB -28.23 dB 2:44 07-Clarinet Concerto - VII. Lento (Tempo I)
––––––––––––––––––––––––––––––––––––––––

Number of tracks: 7
Official DR value: DR12

Samplerate: 44100 Hz
Channels: 2
Bits per sample: 16
Bitrate: 582 kbps
Codec: FLAC
================================================================================
foobar2000 1.2 / Dynamic Range Meter 1.1.1
log date: 2017-03-14 02:09:37

––––––––––––––––––––––––––––––––––––––––
Statistics for: 14-Concerto Grosso No.1 per tre violoncelli e orchestra
Number of samples: 88785648
Duration: 33:33
––––––––––––––––––––––––––––––––––––––––

Left Right

Peak Value: -0.40 dB –- -0.40 dB
Avg RMS: -17.46 dB –- -17.50 dB
DR channel: 11.63 dB –- 11.46 dB
––––––––––––––––––––––––––––––––––––––––

Official DR Value: DR12

Samplerate: 44100 Hz
Channels: 2
Bits per sample: 16
Bitrate: 582 kbps
Codec: FLAC
================================================================================

Krzysztof Penderecki - Clarinet Concerto; Flute Concerto; Concerto Grosso No.1 (2014)

All thanks to original releaser - A-Z

More interesting music in My Blog