Tags
Language
Tags
February 2024
Su Mo Tu We Th Fr Sa
28 29 30 31 1 2 3
4 5 6 7 8 9 10
11 12 13 14 15 16 17
18 19 20 21 22 23 24
25 26 27 28 29 1 2
Attention❗ To save your time, in order to download anything on this site, you must be registered 👉 HERE. If you do not have a registration yet, it is better to do it right away. ✌

( • )( • ) ( ͡⚆ ͜ʖ ͡⚆ ) (‿ˠ‿)
SpicyMags.xyz

Lara & Reyes - Two Guitars - One Passion (1996)

Posted By: popsakov
Lara & Reyes - Two Guitars - One Passion (1996)

Lara & Reyes - Two Guitars - One Passion (1996)
EAC Rip | FLAC (Img) + Cue + Log ~ 246 Mb | MP3 CBR320 ~ 108 Mb
Scans (PNG, 350 dpi) ~ 65 Mb | RAR 5% Recovery
Flamenco, Latin Jazz, World Music | Higher Octave Music #HOMCD 7082

Lara & Reyes is an instrumental group founded by Sergio Lara and Joe Reyes in 1989. It performed flamenco-influenced Latin guitar instrumental pieces. His first album Two Guitars - One Passion released in 1992 under Talking Taco Records Record Label, the album was available only at the duo's concerts and in a limited number of record stores around their home of San Antonio, Texas, later the album was released in 1996 under Higher Octave Music Record Label. By the time Two Guitars - One Passion was released in San Antonio, both Joe Reyes and Sergio Lara were receiving top honors in the San Antonio News's annual media awards. Both have won the acoustic guitar category, for instance, and Sergio's mandolin playing won him a first place award in the miscellaneous instrument category. The two have won the San Antonio Current award as "Best Latin Band" for two years running.

During their time period, they released seven albums and earned a Latin Grammy Award nomination in 2001 for "Best Instrumental Pop Album" for their 6th album World Jazz. Their last album Lara & Reyes was released in September 6, 2006, under Fusion Acustica Music Record Label and won "Best Latin Album" on the 2007 Indie Acoustic Project Awards.
~ Wiki

Fans of Strunz & Farah will find pleasing similarities on this release by the spirited duo of Lara And Reyes. Rooted in improvisation, Two Guitars… borrows from traditions that span the globe: rhythms of Africa and South and Central America, chord structures from Spain and Mexico. You'll hear melodic scales that can be traced to the Mediterranean, Middle East and India. This range of tonal colors creates an original repertoire of moving music with insistent rhythms and challenging, exotic harmonic and melodic diversity. Bass and percussion, by Randy Johnson and Eric Casillas respectively provide the fuel, while the guitaristics of the two lead players provide more than ample passion. Most of the tracks are originals, with compositions by Georges Bizet (from "Carmen Suite") and Chick Corea ("Spain") adding another dimension to the selections.
~ All Music

***************

Lara & Reyes - Two Guitars - One Passion (1996)

Track List:

01. Aterdecer (Dusk) [3:45]
02. Juego (Game) [5:25]
03. Seguidilla **from 'Carmen Suite' [4:12]
04. Dia de Fiesta (Holiday) [3:17]
05. Baghdad [4:52]
06. Obsidiana [4:36]
07. Spain [5:40]
08. Camino a Paracho (Road to Paracho) [2:53]
09. La Bikina [5:46]
10. Luna y Estrellas (Moon & Stars) [4:32]

Exact Audio Copy V1.3 from 2. September 2016

Отчёт EAC об извлечении, выполненном 15. ноября 2016, 15:25

Lara & Reyes / Two Guitars - One Passion

Дисковод: _NEC DVD_RW ND-3550A Adapter: 1 ID: 3

Режим чтения : Достоверность
Использование точного потока : Да
Отключение кэша аудио : Да
Использование указателей C2 : Нет

Коррекция смещения при чтении : 48
Способность читать области Lead-in и Lead-out : Нет
Заполнение пропущенных сэмплов тишиной : Да
Удаление блоков с тишиной в начале и конце : Нет
При вычислениях CRC использовались нулевые сэмплы : Да
Интерфейс : Встроенный Win32-интерфейс для Win NT/2000

Выходной формат : Пользовательский кодировщик
Выбранный битрейт : 1024 kBit/s
Качество : Высокий
Добавление ID3-тега : Нет
Утилита сжатия : C:\Program Files (x86)\Exact Audio Copy\FLAC\FLAC.EXE
Дополнительные параметры : -6 -V -T "ARTIST=%artist%" -T "TITLE=%title%" -T "ALBUM=%albumtitle%" -T "DATE=%year%" -T "TRACKNUMBER=%tracknr%" -T "GENRE=%genre%" -T "COMMENT=%comment%" -T "BAND=%albuminterpret%" -T "ALBUMARTIST=%albuminterpret%" -T "COMPOSER=%composer%" %haslyrics%–tag-from-file=LYRICS="%lyricsfile%"%haslyrics% -T "DISCNUMBER=%cdnumber%" -T "TOTALDISCS=%totalcds%" -T "TOTALTRACKS=%numtracks%" %hascover%–picture="%coverfile%"%hascover% %source% -o %dest%


TOC извлечённого CD

Трек | Старт | Длительность | Начальный сектор | Конечный сектор
––––––––––––––––––––––––––––––––––-
1 | 0:00.00 | 3:45.05 | 0 | 16879
2 | 3:45.05 | 5:24.57 | 16880 | 41236
3 | 9:09.62 | 4:12.00 | 41237 | 60136
4 | 13:21.62 | 3:16.70 | 60137 | 74906
5 | 16:38.57 | 4:52.25 | 74907 | 96831
6 | 21:31.07 | 4:35.40 | 96832 | 117496
7 | 26:06.47 | 5:39.55 | 117497 | 142976
8 | 31:46.27 | 2:53.00 | 142977 | 155951
9 | 34:39.27 | 5:45.58 | 155952 | 181884
10 | 40:25.10 | 4:32.17 | 181885 | 202301


Характеристики диапазона извлечения и сообщения об ошибках

Выбранный диапазон

Имя файла C:\Users\Desktop\Lara & Reyes ''Two Guitars - One Passion'' (1996)\Lara & Reyes - Two Guitars - One Passion.wav

Пиковый уровень 98.8 %
Скорость извлечения 3.3 X
Качество диапазона 99.9 %
CRC копии 428ACCFC
Копирование… OK

Ошибок не произошло


AccurateRip: сводка

Трек 1 : извлечено точно (доверие 8) [02D19F00] (AR v2)
Трек 2 : извлечено точно (доверие 8) [1DB51BF3] (AR v2)
Трек 3 : извлечено точно (доверие 8) [EC76A05D] (AR v2)
Трек 4 : извлечено точно (доверие 8) [D7CD44CC] (AR v2)
Трек 5 : извлечено точно (доверие 8) [F774017C] (AR v2)
Трек 6 : извлечено точно (доверие 8) [8D4C4E34] (AR v2)
Трек 7 : извлечено точно (доверие 8) [2DF12348] (AR v2)
Трек 8 : извлечено точно (доверие 8) [51A1EE14] (AR v2)
Трек 9 : извлечено точно (доверие 8) [DD4B17E9] (AR v2)
Трек 10 : извлечено точно (доверие 8) [ACAE6392] (AR v2)

Все треки извлечены точно

Конец отчёта

–– CUETools DB Plugin V2.1.6

[CTDB TOCID: oNU850Y3AUMwTLrVdK2M4JWGm6Q-] found
Submit result: oNU850Y3AUMwTLrVdK2M4JWGm6Q- has been confirmed
Track | CTDB Status
1 | (7/7) Accurately ripped
2 | (7/7) Accurately ripped
3 | (7/7) Accurately ripped
4 | (7/7) Accurately ripped
5 | (7/7) Accurately ripped
6 | (7/7) Accurately ripped
7 | (7/7) Accurately ripped
8 | (7/7) Accurately ripped
9 | (7/7) Accurately ripped
10 | (7/7) Accurately ripped


==== Контрольная сумма отчёта D01D3230AB99233A65560C236FB883EDDEB232E18FD16CA5429D8A4C0FFD6747 ====

foobar2000 1.2.6 / Dynamic Range Meter 1.1.1
log date: 2017-02-24 22:14:55

––––––––––––––––––––––––––––––––––––––––
Analyzed: Lara & Reyes / Two Guitars - One Passion
––––––––––––––––––––––––––––––––––––––––

DR Peak RMS Duration Track
––––––––––––––––––––––––––––––––––––––––
DR13 -0.10 dB -15.15 dB 3:45 01-Aterdecer (Dusk)
DR15 -0.13 dB -20.05 dB 5:25 02-Juego (Game)
DR19 -0.12 dB -24.05 dB 4:12 03-Seguidilla **from 'Carmen Suite'
DR14 -0.10 dB -18.29 dB 3:17 04-Dia de Fiesta (Holiday)
DR13 -0.10 dB -16.56 dB 4:52 05-Baghdad
DR16 -0.10 dB -19.50 dB 4:36 06-Obsidiana
DR16 -0.14 dB -20.65 dB 5:40 07-Spain
DR12 -0.14 dB -15.37 dB 2:53 08-Camino a Paracho (Road to Paracho)
DR14 -0.14 dB -17.81 dB 5:46 09-La Bikina
DR12 -0.10 dB -15.23 dB 4:32 10-Luna y Estrellas (Moon & Stars)
––––––––––––––––––––––––––––––––––––––––

Number of tracks: 10
Official DR value: DR14

Samplerate: 44100 Hz
Channels: 2
Bits per sample: 16
Bitrate: 725 kbps
Codec: FLAC
================================================================================

[CUETools log; Date: 24.02.2017 22:15:04; Version: 2.1.5]
[CTDB TOCID: oNU850Y3AUMwTLrVdK2M4JWGm6Q-] found.
Track | CTDB Status
1 | (8/8) Accurately ripped
2 | (8/8) Accurately ripped
3 | (8/8) Accurately ripped
4 | (8/8) Accurately ripped
5 | (8/8) Accurately ripped
6 | (8/8) Accurately ripped
7 | (8/8) Accurately ripped
8 | (8/8) Accurately ripped
9 | (8/8) Accurately ripped
10 | (8/8) Accurately ripped
[AccurateRip ID: 0010a42e-0085c85e-730a890a] found.
Track [ CRC | V2 ] Status
01 [5c8b952e|02d19f00] (0+8/8) Accurately ripped
02 [4b23321a|1db51bf3] (0+8/8) Accurately ripped
03 [77245566|ec76a05d] (0+8/8) Accurately ripped
04 [80078473|d7cd44cc] (0+8/8) Accurately ripped
05 [2abfdf09|f774017c] (0+8/8) Accurately ripped
06 [1f894022|8d4c4e34] (0+8/8) Accurately ripped
07 [eb06cb53|2df12348] (0+8/8) Accurately ripped
08 [36a45610|51a1ee14] (0+8/8) Accurately ripped
09 [7ebb6cf8|dd4b17e9] (0+8/8) Accurately ripped
10 [ba5a120c|acae6392] (0+8/8) Accurately ripped

Track Peak [ CRC32 ] [W/O NULL] [ LOG ]
– 98,8 [428ACCFC] [591F03B7] CRC32
01 98,8 [580E2305] [349A3E05]
02 98,4 [7A42CEE8] [E4885A83]
03 98,5 [00C7DB71] [7C4604FD]
04 98,8 [4D2D3EEB] [7BA02D20]
05 98,8 [264F306F] [E30BB9E5]
06 98,8 [AC79A8DB] [E1CCD89D]
07 98,4 [FB6F1ADD] [8D8B2A43]
08 98,4 [E321D4F8] [CCD0F2FB]
09 98,4 [D5D52155] [3E83769E]
10 98,8 [676C9342] [B9183344]

Lara & Reyes - Two Guitars - One Passion (1996)

Lara & Reyes - Two Guitars - One Passion (1996)

All thanks go to Olegator

> Visit my blog <