Tags
Language
Tags

Larry Coryell - Spaces (1970) {Vanguard}

Posted By: tiburon
Larry Coryell - Spaces (1970) {Vanguard}

Larry Coryell - Spaces (1970) {Vanguard}
EAC 1.0b2 | FLAC tracks level 8 | Cue+Log+M3U+MD5 | Full Scans 300dpi | 202MB + 5% Recovery
MP3 CBR 320 Kbps | 97MB + 5% Recovery
Genre: Jazz, Fusion

This album features the pioneer fusion guitarist Larry Coryell with quite an all-star group. Two selections match Coryell with fellow guitarist John McLaughlin, bassist Miroslav Vitous (doubling on cello) and drummer Billy Cobham, all important fusion players at the time.
Track List
01. Spaces (Infinite) 9:16
02. Rene's Theme 4:06
03. Gloria's Step 4:29
04. Wrong Is Right
05. Chris 9:31
06. New Year's Day In Los Angeles 1968 0:20

musicians
Larry Coryell - guitar
John McLaughlin - guitar
Chick Corea - electric piano
Miroslav Vitous - bass
Billy Cobham - drums

Produced by Daniel Weiss


Exact Audio Copy V1.0 beta 2 from 29. April 2011

EAC extraction logfile from 18. October 2011, 16:13

Larry Coryell / Spaces

Used drive : PLEXTOR CD-R PREMIUM2 Adapter: 1 ID: 1

Read mode : Secure
Utilize accurate stream : Yes
Defeat audio cache : Yes
Make use of C2 pointers : No

Read offset correction : 30
Overread into Lead-In and Lead-Out : No
Fill up missing offset samples with silence : Yes
Delete leading and trailing silent blocks : No
Null samples used in CRC calculations : Yes
Used interface : Installed external ASPI interface
Gap handling : Appended to previous track

Used output format : User Defined Encoder
Selected bitrate : 256 kBit/s
Quality : High
Add ID3 tag : No
Command line compressor : C:\Programmi\eac-1.00\Flac\flac.exe
Additional command line options : -8 -V -T "ARTIST=%artist%" -T "TITLE=%title%" -T "ALBUM=%albumtitle%" -T "DATE=%year%" -T "TRACKNUMBER=%tracknr%" %source%


TOC of the extracted CD

Track | Start | Length | Start sector | End sector
––––––––––––––––––––––––––––-
1 | 0:00.00 | 9:23.37 | 0 | 42261
2 | 9:23.37 | 4:12.33 | 42262 | 61194
3 | 13:35.70 | 4:32.42 | 61195 | 81636
4 | 18:08.37 | 9:02.10 | 81637 | 122296
5 | 27:10.47 | 9:32.03 | 122297 | 165199
6 | 36:42.50 | 0:21.52 | 165200 | 166826


Track 1

Filename D:\My Rip\01 - Spaces (Infinite).wav

Pre-gap length 0:00:02.00

Peak level 83.7 %
Extraction speed 8.9 X
Track quality 100.0 %
Test CRC 23C70600
Copy CRC 23C70600
Cannot be verified as accurate (confidence 8) [B5CED227], AccurateRip returned [01B9109E] (AR v2)
Copy OK

Track 2

Filename D:\My Rip\02 - Rene's Theme.wav

Pre-gap length 0:00:04.40

Peak level 61.2 %
Extraction speed 9.9 X
Track quality 100.0 %
Test CRC FDF22C81
Copy CRC FDF22C81
Cannot be verified as accurate (confidence 8) [0BE0E90B], AccurateRip returned [D5590DBF] (AR v2)
Copy OK

Track 3

Filename D:\My Rip\03 - Gloria's Step.wav

Pre-gap length 0:00:03.18

Peak level 62.3 %
Extraction speed 9.6 X
Track quality 99.9 %
Test CRC D3CDB3E7
Copy CRC D3CDB3E7
Cannot be verified as accurate (confidence 8) [B171F78B], AccurateRip returned [BDA0D2D2] (AR v2)
Copy OK

Track 4

Filename D:\My Rip\04 - Wrong Is Right.wav

Pre-gap length 0:00:03.02

Peak level 53.2 %
Extraction speed 11.5 X
Track quality 99.9 %
Test CRC 17E7CFE2
Copy CRC 17E7CFE2
Cannot be verified as accurate (confidence 8) [0FE5407B], AccurateRip returned [B71DE7A0] (AR v2)
Copy OK

Track 5

Filename D:\My Rip\05 - Chris.wav

Pre-gap length 0:00:02.41

Peak level 67.6 %
Extraction speed 12.5 X
Track quality 99.9 %
Test CRC 8DBDFF3A
Copy CRC 8DBDFF3A
Cannot be verified as accurate (confidence 8) [FBADCAD7], AccurateRip returned [7FA92A42] (AR v2)
Copy OK

Track 6

Filename D:\My Rip\06 - New Year's Day in Los Angeles 1968.wav

Pre-gap length 0:00:01.19

Peak level 21.5 %
Extraction speed 8.2 X
Track quality 100.0 %
Test CRC F1C31F47
Copy CRC F1C31F47
Cannot be verified as accurate (confidence 8) [A39266BE], AccurateRip returned [4FA71586] (AR v2)
Copy OK


No tracks could be verified as accurate
You may have a different pressing from the one(s) in the database

No errors occurred

End of status report

==== Log checksum 74821FB583951E3C2705DCF0B3A02CD2256CEE3215CAB9A28ABD987B8E305449 ====


––––––––––––––––––––––––––––––––––––––––
Analyzed: Larry Coryell / Spaces
––––––––––––––––––––––––––––––––––––––––

DR Peak RMS Duration Track
––––––––––––––––––––––––––––––––––––––––
DR12 -1.54 dB -17.73 dB 9:23 01-Spaces (Infinite)
DR13 -4.26 dB -20.30 dB 4:12 02-Rene's Theme
DR14 -4.10 dB -21.88 dB 4:33 03-Gloria's Step
DR13 -5.47 dB -22.15 dB 9:02 04-Wrong Is Right
DR13 -3.40 dB -23.30 dB 9:32 05-Chris
DR11 -13.33 dB -28.79 dB 0:22 06-New Year's Day in Los Angeles 1968
––––––––––––––––––––––––––––––––––––––––

Number of tracks: 6
Official DR value: DR13

Samplerate: 44100 Hz
Channels: 2
Bits per sample: 16
Bitrate: 501 kbps
Codec: FLAC
================================================================================
Larry Coryell - Spaces (1970) {Vanguard}
Larry Coryell - Spaces (1970) {Vanguard}
Larry Coryell - Spaces (1970) {Vanguard}


Thanks to the original ripper