Tags
Language
Tags

Laura Nyro - Angel In The Dark (2001) [Re-Up]

Posted By: Designol
Laura Nyro - Angel In The Dark (2001) [Re-Up]

Laura Nyro - Angel In The Dark (2001)
EAC | FLAC | Tracks (Cue&Log) ~ 293 Mb | Mp3 (CBR320) ~ 129 Mb | Scans ~ 52 Mb
Singer/Songwriter, Soft Rock, Pop/Rock | Label: Rounder | # 3176 | Time: 00:56:26

Angel in the Dark is a lovely recording featuring the graceful vocals and finely crafted songs that everyone expects from Laura Nyro. These sessions were completed in the summer of 1995 and represent the last music Nyro recorded. The title cut and "Sweet Dream Fade" mine the same soul terrain as her late '60s recordings, featuring horns and underlined by heavy guitar riffs. These upbeat pieces perfectly integrate voice, arrangements, and lyrics to create an organic whole, and are two of the best cuts on the album. Slower, piano-based songs like "Triple Goddess Twilight," "He Was Too Good to Me," and "Serious Playground" are mixed in-between these songs. These pieces are quieter and introspective, with Nyro's voice more intimate. It is almost as though she was sitting at the piano, late at night, and singing to herself. There are also several covers including "Will You Still Love Me Tomorrow" and "Let It Be Me." The first of these is over five minutes and has been slowed down so much that it drags. In fact, she slows down all of the covers as if to convert them into heartfelt ballads. This works best on "Ooh Baby, Baby," partly because the arrangement is fuller and more dynamic. One other standout is the upbeat "Gardenia Talk," filled with lively percussion and a sensual vocal. Angel in the Dark is a fine coda, perfect for late-night listening, and a perfect companion to Nyro's other recordings.

Review by Ronnie D. Lankford, Jr., Allmusic.com

Laura Nyro - Angel In The Dark (2001) [Re-Up]



Tracklist:

01. Angel in the Dark (4:06)
02. Triple Goddess Twilight (4:02)
03. Will You Still Love Me Tomorrow (6:02)
04. He Was Too Good to Me (2:39)
05. Sweet Dream Fade (4:29)
06. Serious Playground (4:19)
07. Be Aware (3:04)
08. Let It Be Me (2:15)
09. Gardenia Talk (2:47)
10. Ooh Baby, Baby (3:27)
11. Embraceable You (2:10)
12. La La Means I Love You (4:21)
13. Walk On By (2:19)
14. Animal Grace (1:29)
15. Don't Hurt Child (3:25)
16. Coda (5:32)


EAC extraction logfile from 12. March 2009, 16:29 for CD
Laura Nyro / Angel In The Dark

Used drive : TSSTcorpCDDVDW TS-H653N Adapter: 0 ID: 1
Read mode : Secure with NO C2, accurate stream, disable cache
Read offset correction : 6
Overread into Lead-In and Lead-Out : No

Used output format : C:\Program Files\FLAC\flac.exe (User Defined Encoder)
320 kBit/s
Additional command line options : -8 -V -T "ARTIST=%a" -T "TITLE=%t" -T "ALBUM=%g" -T "DATE=%y" -T "TRACKNUMBER=%n" -T "GENRE=%m" -T "COMMENT=EAC FLAC -8" %s

Other options :
Fill up missing offset samples with silence : Yes
Delete leading and trailing silent blocks : No
Installed external ASPI interface


Track 1
Filename J:\MUSIC\Laura Nyro\1995 - Angel In The Dark\01 - Angel In The Dark.wav

Pre-gap length 0:00:02.00

Peak level 99.8 %
Track quality 100.0 %
Test CRC 463B5824
Copy CRC 463B5824
Copy OK

Track 2
Filename J:\MUSIC\Laura Nyro\1995 - Angel In The Dark\02 - Triple Goddess Twilight.wav

Pre-gap length 0:00:01.56

Peak level 99.8 %
Track quality 100.0 %
Test CRC D5103E34
Copy CRC D5103E34
Copy OK

Track 3
Filename J:\MUSIC\Laura Nyro\1995 - Angel In The Dark\03 - Will You Still Love Me Tomorrow.wav

Pre-gap length 0:00:01.56

Peak level 99.8 %
Track quality 100.0 %
Test CRC 7A358EF4
Copy CRC 7A358EF4
Copy OK

Track 4
Filename J:\MUSIC\Laura Nyro\1995 - Angel In The Dark\04 - He Was Too Good To Me.wav

Pre-gap length 0:00:01.57

Peak level 92.8 %
Track quality 100.0 %
Test CRC 78F972D6
Copy CRC 78F972D6
Copy OK

Track 5
Filename J:\MUSIC\Laura Nyro\1995 - Angel In The Dark\05 - Sweet Dream Fade.wav

Pre-gap length 0:00:01.56

Peak level 99.8 %
Track quality 100.0 %
Test CRC C6610D61
Copy CRC C6610D61
Copy OK

Track 6
Filename J:\MUSIC\Laura Nyro\1995 - Angel In The Dark\06 - Serious Playground.wav

Pre-gap length 0:00:01.57

Peak level 99.8 %
Track quality 100.0 %
Test CRC 62FCF229
Copy CRC 62FCF229
Copy OK

Track 7
Filename J:\MUSIC\Laura Nyro\1995 - Angel In The Dark\07 - Be Aware.wav

Pre-gap length 0:00:01.06

Peak level 99.8 %
Track quality 100.0 %
Test CRC CB695485
Copy CRC CB695485
Copy OK

Track 8
Filename J:\MUSIC\Laura Nyro\1995 - Angel In The Dark\08 - Let It Be Me.wav

Pre-gap length 0:00:01.57

Peak level 97.8 %
Track quality 100.0 %
Test CRC C05F873A
Copy CRC C05F873A
Copy OK

Track 9
Filename J:\MUSIC\Laura Nyro\1995 - Angel In The Dark\09 - Gardenia Talk.wav

Pre-gap length 0:00:01.06

Peak level 79.3 %
Track quality 99.9 %
Test CRC A7F27A1F
Copy CRC A7F27A1F
Copy OK

Track 10
Filename J:\MUSIC\Laura Nyro\1995 - Angel In The Dark\10 - Ooh Baby, Baby.wav

Pre-gap length 0:00:01.56

Peak level 99.8 %
Track quality 100.0 %
Test CRC DFD15B49
Copy CRC DFD15B49
Copy OK

Track 11
Filename J:\MUSIC\Laura Nyro\1995 - Angel In The Dark\11 - Embraceable You.wav

Pre-gap length 0:00:01.56

Peak level 84.0 %
Track quality 99.9 %
Test CRC 0B377B6A
Copy CRC 0B377B6A
Copy OK

Track 12
Filename J:\MUSIC\Laura Nyro\1995 - Angel In The Dark\12 - La La Means I Love You.wav

Pre-gap length 0:00:01.06

Peak level 99.8 %
Track quality 100.0 %
Test CRC 3F5EE04D
Copy CRC 3F5EE04D
Copy OK

Track 13
Filename J:\MUSIC\Laura Nyro\1995 - Angel In The Dark\13 - Walk On By.wav

Pre-gap length 0:00:01.57

Peak level 99.8 %
Track quality 100.0 %
Test CRC 48527757
Copy CRC 48527757
Copy OK

Track 14
Filename J:\MUSIC\Laura Nyro\1995 - Angel In The Dark\14 - Animal Grace.wav

Pre-gap length 0:00:01.06

Peak level 98.6 %
Track quality 100.0 %
Test CRC 9A90470C
Copy CRC 9A90470C
Copy OK

Track 15
Filename J:\MUSIC\Laura Nyro\1995 - Angel In The Dark\15 - Don't Hurt Child.wav

Pre-gap length 0:00:01.57

Peak level 99.8 %
Track quality 99.9 %
Test CRC 275DD941
Copy CRC 275DD941
Copy OK

Track 16
Filename J:\MUSIC\Laura Nyro\1995 - Angel In The Dark\16 - Coda.wav

Pre-gap length 0:00:02.10

Peak level 99.0 %
Track quality 100.0 %
Test CRC 8154B465
Copy CRC 8154B465
Copy OK

No errors occured


End of status report

[CUETools log; Date: 23.06.2014 21:15:33; Version: 2.1.4]
[CTDB TOCID: TtqEwTR8DHpQ.TSlw_WFd5afJds-] found.
Track | CTDB Status
1 | (8/8) Accurately ripped
2 | (8/8) Accurately ripped
3 | (8/8) Accurately ripped
4 | (8/8) Accurately ripped
5 | (8/8) Accurately ripped
6 | (8/8) Accurately ripped
7 | (8/8) Accurately ripped
8 | (8/8) Accurately ripped
9 | (8/8) Accurately ripped
10 | (8/8) Accurately ripped
11 | (8/8) Accurately ripped
12 | (8/8) Accurately ripped
13 | (8/8) Accurately ripped
14 | (8/8) Accurately ripped
15 | (8/8) Accurately ripped
16 | (8/8) Accurately ripped
[AccurateRip ID: 00229eab-01952a4b-d00d3810] found.
Track [ CRC | V2 ] Status
01 [93ffa567|57b699e6] (08+03/33) Accurately ripped
02 [6867114e|2fe77621] (07+03/33) Accurately ripped
03 [709f9abe|d656b533] (08+03/34) Accurately ripped
04 [c7f4de2a|f1150dfc] (08+03/34) Accurately ripped
05 [6a046f10|99c0e11f] (08+03/34) Accurately ripped
06 [918b66d1|e1a494f6] (07+03/33) Accurately ripped
07 [98029eda|e8051e64] (08+03/34) Accurately ripped
08 [44da91ef|283e60ef] (08+03/34) Accurately ripped
09 [41ea9426|184a1fea] (08+03/34) Accurately ripped
10 [08f2969a|09202337] (08+03/34) Accurately ripped
11 [cca01e10|d86ed1e3] (08+03/34) Accurately ripped
12 [27c627b3|aef548ca] (08+03/34) Accurately ripped
13 [e1eeb682|2c5f98a1] (08+03/34) Accurately ripped
14 [a5fd0507|1d8d5797] (08+03/34) Accurately ripped
15 [5cd3152a|820184d0] (08+03/34) Accurately ripped
16 [08a05187|432cb3ab] (08+03/34) Accurately ripped
Offsetted by 2296:
01 [b115b68f] (08/33) Accurately ripped
02 [59527a6e] (09/33) Accurately ripped
03 [dfcbc7e6] (09/34) Accurately ripped
04 [f58ff692] (09/34) Accurately ripped
05 [26b43c40] (09/34) Accurately ripped
06 [68754561] (09/33) Accurately ripped
07 [eed716ba] (09/34) Accurately ripped
08 [c48f9347] (09/34) Accurately ripped
09 [e15290a6] (09/34) Accurately ripped
10 [85e9891a] (09/34) Accurately ripped
11 [3e7efbb0] (09/34) Accurately ripped
12 [988c638b] (09/34) Accurately ripped
13 [df550e6a] (09/34) Accurately ripped
14 [ff6e403f] (09/34) Accurately ripped
15 [c7abb5d2] (09/34) Accurately ripped
16 [bc43b43f] (09/34) Accurately ripped
Offsetted by 1627:
01 [304d9c60] (00/33) No match (V2 was not tested)
02 [da25f802] (00/33) No match (V2 was not tested)
03 [76b4c337] (00/34) No match (V2 was not tested)
04 [5f218bab] (00/34) No match (V2 was not tested)
05 [000102ce] (00/34) No match (V2 was not tested)
06 [a661846b] (00/33) No match (V2 was not tested)
07 [3e038cc6] (00/34) No match (V2 was not tested)
08 [ac9e4a86] (00/34) No match (V2 was not tested)
09 [a07a65f6] (00/34) No match (V2 was not tested)
10 [6062b22a] (00/34) No match (V2 was not tested)
11 [b22ac194] (00/34) No match (V2 was not tested)
12 [5c7ba8da] (00/34) No match (V2 was not tested)
13 [3d69f7b3] (00/34) No match (V2 was not tested)
14 [d1a254ca] (00/34) No match (V2 was not tested)
15 [498ab1d3] (00/34) No match (V2 was not tested)
16 [33f6c5fa] (00/34) No match (V2 was not tested)

Track Peak [ CRC32 ] [W/O NULL] [ LOG ]
– 99,8 [A03935A2] [B92D5495]
01 99,8 [463B5824] [56667F47] CRC32
02 99,8 [D5103E34] [53B91A4F] CRC32
03 99,8 [7A358EF4] [90264933] CRC32
04 92,8 [78F972D6] [BC856536] CRC32
05 99,8 [C6610D61] [429FDFCF] CRC32
06 99,8 [62FCF229] [CD8F26E0] CRC32
07 99,8 [CB695485] [B3F561C1] CRC32
08 97,8 [C05F873A] [0093A4C9] CRC32
09 79,3 [A7F27A1F] [91A27910] CRC32
10 99,8 [DFD15B49] [21EA5855] CRC32
11 84,0 [0B377B6A] [09511D71] CRC32
12 99,8 [3F5EE04D] [A70D2BC5] CRC32
13 99,8 [48527757] [6366674B] CRC32
14 98,6 [9A90470C] [B1386DE4] CRC32
15 99,8 [275DD941] [77CDFA4D] CRC32
16 99,0 [8154B465] [24DC5CA5] CRC32

foobar2000 1.2 / Dynamic Range Meter 1.1.1
log date: 2014-06-27 23:20:29

––––––––––––––––––––––––––––––––––––––––
Analyzed: Laura Nyro / Angel in the Dark
––––––––––––––––––––––––––––––––––––––––

DR Peak RMS Duration Track
––––––––––––––––––––––––––––––––––––––––
DR8 -0.01 dB -10.47 dB 4:06 01-Angel in the Dark
DR13 -0.02 dB -17.62 dB 4:02 02-Triple Goddess Twilight
DR11 -0.01 dB -13.67 dB 6:02 03-Will You Still Love Me Tomorrow
DR11 -0.65 dB -16.80 dB 2:39 04-He Was Too Good to Me
DR8 -0.01 dB -10.17 dB 4:29 05-Sweet Dream Fade
DR12 -0.01 dB -15.48 dB 4:19 06-Serious Playground
DR10 -0.01 dB -14.65 dB 3:04 07-Be Aware
DR12 -0.19 dB -16.95 dB 2:15 08-Let It Be Me
DR9 -2.01 dB -12.44 dB 2:47 09-Gardenia Talk
DR12 -0.01 dB -14.00 dB 3:27 10-Ooh Baby, Baby
DR10 -1.51 dB -15.72 dB 2:10 11-Embraceable You
DR11 -0.01 dB -12.79 dB 4:21 12-La La Means I Love You
DR10 -0.01 dB -14.21 dB 2:19 13-Walk On By
DR13 -0.12 dB -17.00 dB 1:29 14-Animal Grace
DR11 -0.01 dB -13.35 dB 3:25 15-Don't Hurt Child
DR12 -0.08 dB -17.65 dB 5:32 16-Coda
––––––––––––––––––––––––––––––––––––––––

Number of tracks: 16
Official DR value: DR11

Samplerate: 44100 Hz
Channels: 2
Bits per sample: 16
Bitrate: 328 kbps
Codec: FLAC
================================================================================

Laura Nyro - Angel In The Dark (2001) [Re-Up]

Laura Nyro - Angel In The Dark (2001) [Re-Up]