Subcategories
Tags
Language
Tags

Layla Zoe - Live At Spirit Of 66 (2015)

Posted By: popsakov
Layla Zoe - Live At Spirit Of 66 (2015)

Layla Zoe - Live At Spirit Of 66 (2015)
2CD | EAC Rip | FLAC (Img) + Cue + Log ~ 591 Mb | MP3 CBR320 ~ 226 Mb
Full Scans ~ 140 Mb | 00:43:31 + 00:50:11 | RAR 5% Recovery
Blues Rock | Cable Car Records #CCR 0311-46

After the success of their published on Cable Car Records studio albums Sleep Little Girl and The Lily the first-ever live album of Canadian artist will appear. Band and the singer present perfect eingegroovt and optimally match mood for an enthusiastic audience of the legendary clubs Spirit of 66 in Verviers, Belgium. As a complete concert recording two CDs Live at Spirit of offers 66 individual versions of the songs of the two studio albums, which also mediate without visual experience of Layla 'Fire Girl' Zoe a perfect live experience.
Layla Zoe - Live At Spirit Of 66 (2015)


***************

Layla Zoe - Live At Spirit Of 66 (2015)

Track List CD1:

01. I've Been Down [3:01]
02. Pull Yourself Together [4:48]
03. I Choose You [5:25]
04. Green Eyed Lover [5:37]
05. Gemini Heart [11:06]
06. In Her Mother's House [6:27]
07. They Lie [7:07]

Exact Audio Copy V1.0 beta 5 from 2. April 2015

EAC extraction logfile from 7. April 2015, 5:29

Layla Zoe / Live At Spirit Of 66 (CD1)

Used drive : HL-DT-STDVD-ROM DH16NS10 Adapter: 1 ID: 0

Read mode : Secure
Utilize accurate stream : Yes
Defeat audio cache : Yes
Make use of C2 pointers : No

Read offset correction : 102
Overread into Lead-In and Lead-Out : No
Fill up missing offset samples with silence : Yes
Delete leading and trailing silent blocks : No
Null samples used in CRC calculations : Yes
Used interface : Native Win32 interface for Win NT & 2000

Used output format : User Defined Encoder
Selected bitrate : 896 kBit/s
Quality : High
Add ID3 tag : No
Command line compressor : C:\Program Files (x86)\Wavpack\wavpack.exe
Additional command line options : -hlmx4 %source% %dest%


TOC of the extracted CD

Track | Start | Length | Start sector | End sector
––––––––––––––––––––––––––––-
1 | 0:00.00 | 3:00.44 | 0 | 13543
2 | 3:00.44 | 4:48.29 | 13544 | 35172
3 | 7:48.73 | 5:25.14 | 35173 | 59561
4 | 13:14.12 | 5:36.64 | 59562 | 84825
5 | 18:51.01 | 11:06.28 | 84826 | 134803
6 | 29:57.29 | 6:26.68 | 134804 | 163821
7 | 36:24.22 | 7:06.51 | 163822 | 195822


Range status and errors

Selected range

Filename F:\Releases_RAW\Layla Zoe - Live At Spirit Of 66\Layla Zoe - Live At Spirit Of 66 (CD1).wav

Peak level 96.6 %
Extraction speed 9.0 X
Range quality 100.0 %
Test CRC E8FF5BFA
Copy CRC E8FF5BFA
Copy OK

No errors occurred


AccurateRip summary

Track 1 not present in database
Track 2 not present in database
Track 3 not present in database
Track 4 not present in database
Track 5 not present in database
Track 6 not present in database
Track 7 not present in database

None of the tracks are present in the AccurateRip database

End of status report

–– CUETools DB Plugin V2.1.6

[CTDB TOCID: VAydsKE.UI4xj0TN8qYyLXf2Fd4-] found
Submit result: VAydsKE.UI4xj0TN8qYyLXf2Fd4- has been confirmed
Track | CTDB Status
1 | (3/3) Accurately ripped
2 | (3/3) Accurately ripped
3 | (3/3) Accurately ripped
4 | (3/3) Accurately ripped
5 | (3/3) Accurately ripped
6 | (3/3) Accurately ripped
7 | (3/3) Accurately ripped


==== Log checksum A7C7594710C24EF7FFC2F2C8DE7C28D380DDBDD7878955A160D8E2B7CC158F7B ====

[CUETools log; Date: 06.09.2016 0:58:36; Version: 2.1.5]
[CTDB TOCID: VAydsKE.UI4xj0TN8qYyLXf2Fd4-] found.
Track | CTDB Status
1 | (19/20) Accurately ripped
2 | (19/20) Accurately ripped
3 | (19/20) Accurately ripped
4 | (19/20) Accurately ripped
5 | (19/20) Accurately ripped
6 | (19/20) Accurately ripped
7 | (19/20) Accurately ripped
[AccurateRip ID: 000a7dc2-0041dfdc-610a3207] found.
Track [ CRC | V2 ] Status
01 [017ff326|32691bbc] (03+10/13) Accurately ripped
02 [886aabfb|5a3ef71c] (03+10/13) Accurately ripped
03 [1ea75530|8bf029f2] (03+10/13) Accurately ripped
04 [fa6ae9ad|3f08c652] (03+10/13) Accurately ripped
05 [2d5db966|67da96c1] (03+10/13) Accurately ripped
06 [da288674|fcd36f1b] (03+10/13) Accurately ripped
07 [f4fc08f4|3cff39db] (02+10/12) Accurately ripped

Track Peak [ CRC32 ] [W/O NULL] [ LOG ]
– 96,6 [E8FF5BFA] [4A92CB0B] CRC32
01 96,6 [48BF41FD] [7E50A861]
02 96,6 [DA6267FC] [4B39E54D]
03 96,6 [827D6833] [34E9198F]
04 96,6 [4C2C117A] [2BF32DAD]
05 96,6 [5A7E96A6] [0C3037CB]
06 96,6 [8AE6B4F2] [BBC27249]
07 96,6 [D0BC728A] [56531ED4]

Layla Zoe - Live At Spirit Of 66 (2015)

Track List CD2:

01. The Lily [10:11]
02. Why You So Afraid [4:53]
03. Never Met A Man Like You [6:58]
04. It's A Man's World [20:01]
05. Yer Blues [5:18]
06. Let It Be [2:49]

Exact Audio Copy V1.0 beta 5 from 2. April 2015

EAC extraction logfile from 7. April 2015, 14:31

Layla Zoe / Live At Spirit Of 66 (CD2)

Used drive : HL-DT-STDVD-ROM DH16NS10 Adapter: 1 ID: 0

Read mode : Secure
Utilize accurate stream : Yes
Defeat audio cache : Yes
Make use of C2 pointers : No

Read offset correction : 102
Overread into Lead-In and Lead-Out : No
Fill up missing offset samples with silence : Yes
Delete leading and trailing silent blocks : No
Null samples used in CRC calculations : Yes
Used interface : Native Win32 interface for Win NT & 2000

Used output format : User Defined Encoder
Selected bitrate : 896 kBit/s
Quality : High
Add ID3 tag : No
Command line compressor : C:\Program Files (x86)\Wavpack\wavpack.exe
Additional command line options : -hlmx4 %source% %dest%


TOC of the extracted CD

Track | Start | Length | Start sector | End sector
––––––––––––––––––––––––––––-
1 | 0:00.00 | 10:11.31 | 0 | 45855
2 | 10:11.31 | 4:52.39 | 45856 | 67794
3 | 15:03.70 | 6:58.13 | 67795 | 99157
4 | 22:02.08 | 20:01.33 | 99158 | 189265
5 | 42:03.41 | 5:18.22 | 189266 | 213137
6 | 47:21.63 | 2:49.21 | 213138 | 225833


Range status and errors

Selected range

Filename F:\Releases_RAW\Layla Zoe - Live At Spirit Of 66\Layla Zoe - Live At Spirit Of 66 (CD2).wav

Peak level 98.8 %
Extraction speed 9.3 X
Range quality 100.0 %
Test CRC 70E9661C
Copy CRC 70E9661C
Copy OK

No errors occurred


AccurateRip summary

Track 1 not present in database
Track 2 not present in database
Track 3 not present in database
Track 4 not present in database
Track 5 not present in database
Track 6 not present in database

None of the tracks are present in the AccurateRip database

End of status report

–– CUETools DB Plugin V2.1.6

[CTDB TOCID: CTxbo8wRTQJiXOxHHB_A6rEijNY-] found
Submit result: CTxbo8wRTQJiXOxHHB_A6rEijNY- has been confirmed
Track | CTDB Status
1 | (3/3) Accurately ripped
2 | (3/3) Accurately ripped
3 | (3/3) Accurately ripped
4 | (3/3) Accurately ripped
5 | (3/3) Accurately ripped
6 | (3/3) Accurately ripped


==== Log checksum 75F0497BB62F0BD5B0B5EDADBA8F0B4088607159DC0DAEFC6C3BB5419455DD7B ====

[CUETools log; Date: 06.09.2016 1:01:13; Version: 2.1.5]
[CTDB TOCID: CTxbo8wRTQJiXOxHHB_A6rEijNY-] found.
Track | CTDB Status
1 | (19/19) Accurately ripped
2 | (19/19) Accurately ripped
3 | (19/19) Accurately ripped
4 | (19/19) Accurately ripped
5 | (19/19) Accurately ripped
6 | (19/19) Accurately ripped
[AccurateRip ID: 000cd557-0044a13e-430bc306] found.
Track [ CRC | V2 ] Status
01 [53720d2b|c11d4696] (03+10/13) Accurately ripped
02 [95675100|1255a38b] (03+10/13) Accurately ripped
03 [017c8aa4|cab990c9] (03+10/13) Accurately ripped
04 [7adc3492|0100ea26] (03+10/13) Accurately ripped
05 [c0842dc5|453b1d9b] (03+10/13) Accurately ripped
06 [f3b43bf3|c79181a7] (03+10/13) Accurately ripped

Track Peak [ CRC32 ] [W/O NULL] [ LOG ]
– 98,8 [70E9661C] [51FEF882] CRC32
01 96,6 [B3D1AAAA] [C44732CD]
02 96,6 [8F110DEB] [059605D1]
03 98,8 [4B811592] [26411347]
04 96,6 [17B97B2C] [6A90EB59]
05 96,6 [61AD8FB5] [D7E6901D]
06 59,6 [3A8ECD9F] [3F45FC58]

Layla Zoe - Live At Spirit Of 66 (2015)


See also:

Layla Zoe - The Lily (2013)

All thanks go to Гордый

>>> My Blog <<<

DOWNLOAD: