Subcategories
Tags
Language
Tags

Layla Zoe - The Lily (2013)

Posted By: popsakov
Layla Zoe - The Lily (2013)

Layla Zoe - The Lily (2013)
EAC Rip | FLAC (Img) + Cue + Log ~ 415 Mb | MP3 CBR320 ~ 155 Mb
Full Scans ~ 120 Mb | 01:04:07 | RAR 5% Recovery
Blues Rock | Cable Car Records #CCR 0311-41

"The Lily" is Layla Zoe's sixth album.. She easily handles both, tradtional-style gospel music, and hard driving blues. Accompanied by producer, guitar, bass player, drummer and co-writer, Henrik Freischlader, Layla's taking you on trip from deep moving songs to powerful rockers. Excellent release featuring a promising singer/songwriter with strong blues roots. Canadian blues singer Layla Zoe offers a highly personal take on the blues. She’s a confident singer with an expansive range, who finds the perfect foil in the shape of German blues guitarist and multi instrumentalist Henrik Freischlader.

There’s a subtle balance between her expansive phrasing and Henrik’s variety of tones, which shift from the jangling guitars of ‘In Her Mother’s House’, to the cool blues of the excellent ‘Gemini Heart’ and the bruising toned shuffle of ‘Never Met A Man Like You’. It’s on the latter track that they both coalesce thrillingly, as Layla’s visceral vocal is given the perfect backing by Freischlader’s taut accompaniment. Layla knows when to emphasize a lyrics and add grit and alternatively when to hold back, in a mirror image of Henrik’s guitar playing.

If the acapella gospel ‘Glory Glory Hallelujah’ is a brave opening track, it’s the perfect way to lever you into an album that flows with an essential vitality. ‘Why You Afraid’ could easily have been a cut from one of Henrik’s recent albums, until Layla leans into the song and works her way round the lyric with her effortless phrasing, adding a primal scream just before the closing line. The song provides the litmus paper for the rest of the album, because even though it ebbs and flows from this point onwards, she’s offered you a glimpse of her ferocious Joplin style potential.

Henrik evokes Roy Buchanan on the opening licks of the slow blues ‘Father’ and adds a spiky solo, as Layla emotes the troubled narrative: ‘Father, where are you tonight, I’m on a stage, living my life, Father, can you hear me?’ The title track may be less intense but it is equally weighty as she brings a husky reading of her poetic lyrics: ‘Hold me close in the tallest trees, Hear my whisper on the ocean breeze, I will always be there’.
The duo rock out on ‘I Choose You’, as Henrik employs a slightly distorted tone to great effect, while Layla phrases eloquently. She gets low down and political on the uncompromising ‘They Lie’ and Henrik’s playing subtly mirrors her intent, before an unexpected plunder of her fellow Canadian Neil Young’s ‘Hey Hey , My My’. It’s the perfect finale to an excellent album and features a rare Henrik shred, before the track finally comes to rest in a bed of extended feedback.

‘The Lily’ is an album bursting with vitality, lyrical originality and the kind of spark that only comes when like minded souls connect. The live shows are surely worth waiting for, but in the meantime check out the album you won’t be disappointed!
Layla Zoe - The Lily (2013)


***************

Layla Zoe - The Lily (2013)

Track List:

01. Glory, Glory, Hallelujah [0:02:37.03]
02. In Her Mother's House [0:04:59.62]
03. Green-Eyed Lover [0:05:35.59]
04. Gemini Heart [0:06:10.57]
05. Never Met A Man Like You [0:05:05.11]
06. Why You So Afraid [0:04:55.38]
07. Father [0:08:24.04]
08. The Lily [0:09:32.69]
09. I Choose You [0:05:12.65]
10. They Lie [0:05:54.50]
11. Hey, Hey, My, My [0:05:38.64]

Personnel:
Layla Zoe - Vocals
Henrik Freischlader - Guitars, Bass, Drums & Backing Vocals
Moritz Fuhrhop - Hammond Organ

Exact Audio Copy V1.0 beta 3 from 29. August 2011

EAC extraction logfile from 29. October 2013, 9:35

Layla Zoe / The Lily

Used drive : HL-DT-STBD-RE BE12LU38 Adapter: 5 ID: 0

Read mode : Secure
Utilize accurate stream : Yes
Defeat audio cache : Yes
Make use of C2 pointers : No

Read offset correction : 667
Overread into Lead-In and Lead-Out : No
Fill up missing offset samples with silence : Yes
Delete leading and trailing silent blocks : No
Null samples used in CRC calculations : Yes
Used interface : Native Win32 interface for Win NT & 2000

Used output format : User Defined Encoder
Selected bitrate : 896 kBit/s
Quality : High
Add ID3 tag : No
Command line compressor : C:\Program Files (x86)\WavPack\wavpack.exe
Additional command line options : -hlmx4 %source% %dest%


TOC of the extracted CD

Track | Start | Length | Start sector | End sector
––––––––––––––––––––––––––––-
1 | 0:00.00 | 2:37.03 | 0 | 11777
2 | 2:37.03 | 4:59.62 | 11778 | 34264
3 | 7:36.65 | 5:35.59 | 34265 | 59448
4 | 13:12.49 | 6:10.57 | 59449 | 87255
5 | 19:23.31 | 5:05.11 | 87256 | 110141
6 | 24:28.42 | 4:55.38 | 110142 | 132304
7 | 29:24.05 | 8:24.04 | 132305 | 170108
8 | 37:48.09 | 9:32.69 | 170109 | 213077
9 | 47:21.03 | 5:12.65 | 213078 | 236542
10 | 52:33.68 | 5:54.50 | 236543 | 263142
11 | 58:28.43 | 5:38.64 | 263143 | 288556


Range status and errors

Selected range

Filename I:\Releases_RAW\Layla Zoe - The Lily\Layla Zoe - The Lily.wav

Peak level 98.8 %
Extraction speed 1.4 X
Range quality 100.0 %
Test CRC DB264CA0
Copy CRC DB264CA0
Copy OK

No errors occurred


AccurateRip summary

Track 1 accurately ripped (confidence 2) [B0B04B4E] (AR v2)
Track 2 accurately ripped (confidence 2) [04613DC0] (AR v2)
Track 3 accurately ripped (confidence 2) [8FCDCF8E] (AR v2)
Track 4 accurately ripped (confidence 2) [0DBF218D] (AR v2)
Track 5 accurately ripped (confidence 2) [C7315993] (AR v2)
Track 6 accurately ripped (confidence 2) [00F1BBA3] (AR v2)
Track 7 accurately ripped (confidence 2) [E58C1FE5] (AR v2)
Track 8 accurately ripped (confidence 2) [FE0E1E73] (AR v2)
Track 9 accurately ripped (confidence 2) [59792E18] (AR v2)
Track 10 accurately ripped (confidence 2) [E3FAC24A] (AR v2)
Track 11 accurately ripped (confidence 2) [55A48AE2] (AR v2)

All tracks accurately ripped

End of status report

–– CUETools DB Plugin V2.1.3

[CTDB TOCID: pKxMtBBXiwcW9dmgsRRgL3w5q1E-] found, Submit result: pKxMtBBXiwcW9dmgsRRgL3w5q1E- has been confirmed
[2f34860e] (5/5) Accurately ripped


==== Log checksum AC75D05940210AEFB04D9F503C65B317C51F266E6F2F809F7D4AFD08DF56799D ====

foobar2000 1.2.6 / Dynamic Range Meter 1.1.1
log date: 2016-09-09 08:55:59

––––––––––––––––––––––––––––––––––––––––
Analyzed: Layla Zoe / The Lily
––––––––––––––––––––––––––––––––––––––––

DR Peak RMS Duration Track
––––––––––––––––––––––––––––––––––––––––
DR11 -0.91 dB -14.96 dB 2:37 01-Glory, Glory, Hallelujah
DR6 -0.10 dB -7.00 dB 5:00 02-In Her Mother's House
DR6 -0.10 dB -7.31 dB 5:36 03-Green-Eyed Lover
DR8 -0.10 dB -10.50 dB 6:11 04-Gemini Heart
DR6 -0.10 dB -7.08 dB 5:05 05-Never Met A Man Like You
DR6 -0.10 dB -7.36 dB 4:56 06-Why You So Afraid
DR6 -0.10 dB -9.26 dB 8:24 07-Father
DR7 -0.10 dB -9.50 dB 9:33 08-The Lily
DR7 -0.10 dB -7.57 dB 5:13 09-I Choose You
DR6 -0.10 dB -9.17 dB 5:55 10-They Lie
DR6 -0.10 dB -8.38 dB 5:39 11-Hey, Hey, My, My
––––––––––––––––––––––––––––––––––––––––

Number of tracks: 11
Official DR value: DR7

Samplerate: 44100 Hz
Channels: 2
Bits per sample: 16
Bitrate: 857 kbps
Codec: FLAC
================================================================================

[CUETools log; Date: 09.09.2016 8:56:01; Version: 2.1.5]
[CTDB TOCID: pKxMtBBXiwcW9dmgsRRgL3w5q1E-] found.
Track | CTDB Status
1 | (27/27) Accurately ripped
2 | (27/27) Accurately ripped
3 | (27/27) Accurately ripped
4 | (27/27) Accurately ripped
5 | (27/27) Accurately ripped
6 | (27/27) Accurately ripped
7 | (27/27) Accurately ripped
8 | (26/27) Accurately ripped
9 | (27/27) Accurately ripped
10 | (27/27) Accurately ripped
11 | (27/27) Accurately ripped
[AccurateRip ID: 001883e1-00db8dc4-960f070b] found.
Track [ CRC | V2 ] Status
01 [e751bfda|b0b04b4e] (02+23/25) Accurately ripped
02 [7a7ea0f2|04613dc0] (02+22/24) Accurately ripped
03 [e1a7301a|8fcdcf8e] (02+22/24) Accurately ripped
04 [36143741|0dbf218d] (02+22/24) Accurately ripped
05 [bc660248|c7315993] (02+22/24) Accurately ripped
06 [0baa5ac2|00f1bba3] (02+22/24) Accurately ripped
07 [b6cdf090|e58c1fe5] (02+22/24) Accurately ripped
08 [8a438d63|fe0e1e73] (02+22/24) Accurately ripped
09 [afcea9fb|59792e18] (02+22/24) Accurately ripped
10 [dbd4037f|e3fac24a] (02+22/24) Accurately ripped
11 [d2d4c0df|55a48ae2] (02+22/24) Accurately ripped

Track Peak [ CRC32 ] [W/O NULL] [ LOG ]
– 98,8 [DB264CA0] [B2F83628] CRC32
01 90,0 [F021ED94] [2C52F736]
02 98,8 [A6BC99CB] [26649A2F]
03 98,8 [B3501B4A] [6B60C1D6]
04 98,8 [D9364E37] [E71C844F]
05 98,8 [3EA8CE3B] [11161613]
06 98,8 [8149ADEB] [984E4F59]
07 98,8 [1138DD37] [5BCB3536]
08 98,8 [D52EA53C] [930EFE95]
09 98,8 [84888BDA] [465EEA1C]
10 98,8 [38A3E2F3] [67DDD1C0]
11 98,8 [901F97DC] [3EEF035B]

Layla Zoe - The Lily (2013)


All thanks go to Гордый

>>> My Blog <<<

DOWNLOAD: