Tags
Language
Tags

Leopold Stokowski - Decca Recordings 1965-1972: Original Masters (2003) 5CD Box Set

Posted By: Designol
Leopold Stokowski - Decca Recordings 1965-1972: Original Masters (2003) 5CD Box Set

Leopold Stokowski - Decca Recordings 1965-1972: Original Masters (2003) 5CD Box Set
with Czech Philharmonic Orchestra; London Symphony Orchestra & Chorus
New Philharmonia Orchestra; Hilversum Radio Philharmonic Orchestra
J.S. Bach, William Byrd, Jeremiah Clarke, Franz Schubert, Frédéric Chopin, Henri Duparc
P.I. Tchaikovsky, Sergei Rachmaninov, Alexander Scriabin, Igor Stravinsky, Edward Elgar
Cezar Franck, Hector Berlioz, Maurice Ravel, Claude Debussy, Olivier Messiaen

EAC | FLAC | Image (Cue&Log) ~ 1.85 Gb | Mp3 (CBR320) ~ 881 Mb | Scans included
Genre: Classical | Label: Decca | # 475 145-2 | Time: 06:14:01

This fabulous five disc set is replete with some of those old Stokowski warhorses all recorded in absolutely mind boggling Phase 4 sound, overblown perhaps but astounding for its time. I am lucky to have a number of the original LPs to which I could compare the CD remastering and can safely say that the CDs are distinctly superior to the occasionally distorted pressings that marred most Phase 4 releases.

The Bach orchestrations are typical Stokowski with a mystic tapestry of drama added to the great 'Passacaglia and Fugue in C minor' I also enjoyed the pieces by Byrd, Clarke and Chopin which come to life in the conductor's dazzling orchestrations. Here, the sound is magnificent and a real party for hi-fi enthusiasts.

The second disc includes a rather maverick performance of Tchaikovsky's Fifth Symphony. The contrast with the white 'Poem of Ecstacy' is pretty striking as here the great conductor provides an incredible interpretation that is probably the best performance in the set.

The third CD contains two of my favourite works, Franck's Symphony and Elgar's 'Enigma Variations'. The Franck receives a sweeping, highly dramatic performance although it is a might too expansive. The Hilversum Orchestra leaves a bit to be desired with respect to quality of playing. The Enigma Variations are given their full due with a noble 'Nimrod' and a rousingly emotional Finale. This would be my personal pick alongside the Scriabin.

Berlioz was another Stokowski speciality and his 'Fantastique' is another memorable performance. The Ravel pieces are also winningly done especially the sweeping 'Daphnis et Chloé' Suite #2 with all its wonderful orchestration. The final disc is dedicated to 20th Century music with an excellent portrayal of Stravinsky's 'L'Oiseau du Feu' and Debussy's 'La Mer'.

As I already mentioned, Decca's remastering is absolutely magnificent and the discs are jam packed with almost six hours of music. This is another fine memorial to a great conductor who remained astonishingly vital until the very end of his life.

Review by Gerald Fenech, Classical.Net

RECORDING OF THE MONTH

The charisma and daring of Leopold Stokowski lives on to this day. Although born in London on 18 April 1882 he was the least ‘British’ of conductors. I doubt he learnt his flamboyance at the Royal College of Music yet that is where he studied. His first significant orchestra was the Cincinnati where he was conductor for three brief years (1909-12). His next stop was Philadelphia where he put down roots for twenty-four years. The Philadelphia made Stokowski and Stokowski made Philadelphia. The Festival of Britain saw Stokowski’s return to conducting in the UK for the first time since 1912. Although something of a gypsy after his stormy departure from Philadelphia Stokowski founded the American Symphony Orchestra and worked often with youth orchestras across the world. His gorgeous OTT orchestral transcriptions became a ‘signature’ for the man. He continued his advocacy of twentieth century music as he had to the point of dictatorial teaching while at Philadelphia. In his final years he recorded often in London for Desmar, Sony, Everest and Decca. This set enshrines his Phase Four work for Decca - a garish technique for a conductor himself an advocate of gaudy colours and the intoxication of opulent sound.

Lushly coloured and often retouched music-making was the order of the day with Stokowski. This generously packed box of five discs (each in its own card sleeve) offers his trademark approach, unshakeably confident and belligerently gripping. If you have been reared on sane, refined, neatly sustained readings of the great classics by Haitink, Böhm, Davis, Jochum or Boult the day will come when you will want an adventure; that is what each of these recordings is. Stokowski may phrase and balance things is a surprising way. He might sometimes offend you with his adjustments and re-colourings but he will not bore you. You get the impression that every single iota of each score has been calculated, freshly envisioned and then let loose in spontaneity and often awe.

The first disc starts with his ‘signature’ the Toccata and Fugue in D minor which glows and smiles, glares and gibbers, rocks and roars. Perhaps hear this first to make sure that you want the set as a whole. If you like the approach you will like the rest.

This is a section of the Stokowski legacy that was much derided because of its zoomed-in Phase Four recording technology. This entailed intimate microphone placement and a twenty channel mixer desk. The result was highly detailed, not natural but having plenty of physical, sensual and emotional impact. Reviewers at the time were either dismissive or uncomfortable with the technology although one wonders whether much would have been said if Decca had not branded the line so prominently and made Phase Four a unique selling point. It must have had some perceived success if only because EMI Classics responded with its own short-lived Studio Four line.

Decca's engineers certainly piled the tension on to those analogue tapes and I hear some congestion in the fire-hose pressure of the sobbing massed violin writing in the Corale from Jesus Christus, Gottes Sohn (*tr.5 CD1). The conductor’s orchestration of the BWV582 Passacaglia and Fugue is at first so dark that you could swear Balakirev's Thamar might have had a hand in the proceedings. Stokowski seems, in this work, to be building a bridge across the golden firmament such is its majestic awe and regal pacing.

The Byrd Pavan is likewise gorged with romantic feeling although Howard Snell's trumpet is not as lithe and smoothly produced as it might have been on a better day. Stokowski is much more at ease in the tremblingly gracious Schubert Moment Musical No. 3, given a decidedly Straussian lilt. This might even have passed muster as to a Beecham lollipop. The Chopin Mazurka in A Op.17 No. 4 is coloured as if a companion on the one hand to Ravel's Pavane and on the other to Debussy's Faune. Tchaikovsky's Chants sans parole Op. 49 No. 6 sounds authentically Tchaikovskian perhaps because Stokowski's sympathies are much closer to Tchaikovsky’s in the first place. It is however the least memorable of these small pieces. The Duparc Extase has David Gray's solo horn in the place of the singer's line. It is al done with yearning sweetness seemingly irradiated with a golden glow. After so much serenity and light the orchestration of Rachmaninov's Prelude in C sharp minor Op. 3 No. 2 is a welcome contrast for its fantastic atmosphere painting - what would he have made of the Rachmaninov Etudes-Tableaux (of course Respighi another super-colourist beat Stokowski to it with five of those) or to the Medtner Skazki. Stokowski here shows lessons learnt from the Rachmaninov works he championed such as the Third Symphony as well as ladling on the starry treatment. Hearing his way with La Cathédrale Engloutie one wishes he might have taken some recorded interest in Griffes’ Pleasure Dome - the read-across is clear although the Hollywood light is also evident. The deep bell tones are touched in iron and golden glory by the brass and by the tense trembling of the massed violins.

The Fifth Symphony of Tchaikovsky does not have the instantaneous and totally sustained grip of Monteux with the LSO in Vienna but is not far behind. Stokowski is quite understated at first - almost modest - much the same as he is in the finale. Gurgling woodwind figures are flattered by the Phase Four process which is presumably little more than calculated spotlighting and level adjustment. The recording is very good and the New Philharmonia are on form to match. This is not as febrile as Mravinsky in the same work but it is full of feeling as the stately andante cantabile complete with Alan Civil's solo French Horn, tells us. By the way I loved Decca's long long pause between the end of the third movement and the start of the finale which has a satisfyingly squat growl to the brass. There are eccentric moments as in the mannered brass adumbration at 9.45 in the finale and 12.40 where Stokowski adds a ‘yip’ to the brass that I have never previously heard. In fact the presence and accentuation of the brass sometimes suggests an approach like a high cholesterol Capriccio Italien on steroids.

We change orchestra and locale to the Czech Phil and to Prague's luxuriantly detailed Rudolfinum for a Stokowski speciality: Scriabin's Poem of Ecstasy. Stokowski and Decca assure us of transparently intimate focus on the many soloistic lines. This is a performance that swoons and vapours. There the priapic trumpet is heard crying in defiant and heaven-clawing pride - as Flecker said - riding secure the cruel skies. Such a pity that the Czech Phil's first trumpet, who injects a trace of central European 'bray', remains uncredited - who was it? Very special! What on earth would Stokowski have made of Bax's voluptuous Spring Fire or indeed Szymanowski's diaphanously scored Harnasie or Song of the Night.

The third CD is allocated to the Franck Symphony and Elgar's Enigma. The Franck is given a fine performance with stunning detail communicated in a work that conventionally rather opaque and congested. The textures sound almost Ravel-like in the central movement, such is Stokowski's sense of time and place. Delicacy of touch gives ground to the sweep and intoxication of the finale with its fine tune spun and re-spun. Franck spends that tune like a child in a sweet shop all in one uninhibited splurge and then lets it run back and forth through the allegro non troppo alongside reminiscences of the other two movements.

The Czech Phil are unlikely partners for the Stokowski Enigma. However this goes tenderly if not absolutely tidily in H.D.S-P. The Ysobel movement is taken more rapidly than usual - it feels breathless. Hearing the rapid ascent of the brass in Troyte at 00.25 I regret that Stokowski did not have a go at the Elgar Second Symphony while he was in Prague. The Romanza goes with such a steady lilt that it loses direction. The EDU finale has plenty of spit and polish - not band-master stuff but fiery. The grand theme for ‘our hero’ (how much more palatable than Strauss in Heldenleben) portrays a believable Elgar who can laugh, and grieve as well as take eager delight (tr. 18 2.01) in his creative powers.

Stokowski's Berlioz Symphonie Fantastique is more mannered than the famous Beecham recording (now on EMI’s GROC) but it is full of details that catch the attention. The New Philharmonia in the Kingsway Hall retain a silkiness to their string tone where a hardness can be heard with the Hilversum Radio Phil. Listen to the repeated swirling high violins at 6.10 where not a hint of shrillness enters the reckoning. Mannered or not it is gorgeous even heard now after the passage of 35 years. What a revolutionary work too. No wonder Stokowski, the experimenter and pioneer, recorded it. The multiple harp descent at 00.31 simply has to be heard. For all his delight in detail abetted by Phase Four 'zooming', Stokowski keeps control over the architecture. I first noticed analogue hiss, though deeply pressed down, at the awed and haunting start of the Scene au champs. The Marche au supplice starts with the promise of rain, a gun metal sky and glistening cobbles. Stereo effects abound with the guttural double basses and cellos grunting and the left-hand channel catching the squat deep notes of tuba and trombones in a drench of Tchaikovskian doom. The capering familiars and leering sprites are vividly portrayed in the finale. This is a Symphonie Fantastique to be reckoned with. The doom-laden bell strokes at 3.03 confirm the point. Tape print-through is no exclusive province of the amateur as you can hear at 3.31 before the first statement of the dies irae in the finale. This laudanum dream of a piece is caught with spectral energy and phantasmal imagination by Stokowski even if in the last pages it gallumphs rather than flies.

Two lollipops follow. The Berlioz Ballet des Sylphes is gracious and sweet-toned. Ravel's explosively insistent fanfare for the collaborative work L'Eventail de Jeanne is vivid although the principal trumpet of Hilversum orchestra has some real problems with his exposed line.

After the pressurised Fanfare it is a joy to relax into the detail and voluptuary ease and flow of Lever du Jour from the second Daphnis suite. Details leap out at you to beguile and enthuse. This is of a piece with his Scriabin Poème de l’Extase. The debit side of close proximity is that when the great choral statements come they cannot register with as much contrast as you would ideally want … but the effect is there. The range of this exciting recording can be heard in the Pantomime second movement. In the gorgeous Danse générale we hear the influence of the Russian Ballet - a voice close to Stokowski’s heart.

Stokowski makes a slow motion harmonic slaloming dream out of the Introduction to the Firebird Suite (1919 version). The Infernal Dance is shattering even if the sound does beetle over the head of the listener. The accelerations at the end of the Dance go right off the scale. And in the finale at 1.43, 1.50 and 2.00 the whooped horns rasp out their wild music exhorting the orchestra to new mornings and new victories. A special event then even if the continuous in-your-face balance may tire you and bring you back to Dorati and the LSO in his wondrous 1960 performance (Mercury).

The Debussy Faune is taken from a live 1972 RFH concert. It is breathy and sensuous with lashings of flute vibrato which rather dilutes the effect. This recording is so powerful it makes the ideal study companion for the full score. La Mer is taken at a leisurely pace with the high noon shatteringly magnificent - end of tr. 7. The Russian influence (Borodin and Balakirev) is emphasised by Stokowski in the Jeux de Vagues at 00.53 slurred and accented with microscopic attention to detailing. This is a potent La Mer even if a more mainstream recommendation might come from Serge Baudo (Supraphon) or Haitink (Philips).

The only work in this five disc set that reaches towards modernity is the Messiaen L'Ascension. Originally written for organ (now there's a surprise) Messiaen orchestrated the piece in 1935. Stokowski relishes the piled-on slow skidding string cascade of the Prière du Christ (tr.14) and makes me wonder what he might made of Penderecki's Threnody for the Victims of Hiroshima.

You could do a great deal worse than give this box to someone about to set out on the journey through classical music. There is nothing ascetic or bleached out in this set in which each CD is packed close to capacity. Of course this is also de rigueur for Stokowskians who will find that many of these recordings have not previously been issued on CD. The music overflows with gorgeous orchestral colours. It is the aural equivalent of a box of luxury Belgian chocolates. All the usual health warnings apply but overall this is a lovely set which is bound to make new friends for Stokowski. Heard with the recently released Cala CD of the Phase Four Scheherazade this introduces or reminds listeners to Stokowski's phenomenally sensual range as well as his gift for visceral excitement.

Review by Rob Barnett, MusicWeb-International.com


Leopold Stokowski - Decca Recordings 1965-1972: Original Masters (2003) 5CD Box Set

Leopold Stokowski - Decca Recordings 1965-1972: Original Masters (2003) 5CD Box Set






Tracklist CD1:

Johann Sebastian Bach (1685-1750)
01. Toccata and Fugue for Organ in D minor, BWV 565 10:17
02. Prelude in E flat minor (Well-Tempered Clavier, Book 1, BWV 853) 5:12
03. Mein Jesu, was fur Seelenweh (Schemelli Gesangbuch, BWV 487) 5:27
04. Wir glauben all' an einen Gott (Chorale prelude for Organ, BWV 680) 3:28
05. Chorale ("Jesus Christus, Gottes Sohn") 4:32
06. Passacaglia and Fugue in C minor for organ, BWV 582 14:59

William Byrd (1543-1623)
07. Pavan "The Earl of Salisbury" and Galliard (after Francis Tregian) 5:18

Jeremiah Clarke (c. 1670-1707)
08. Trumpet voluntary (Howard Snell solo trumpet) 2:25

Franz Schubert (1797-1828)
09. Moment musical №3 in F minor, D780 2:07

Frédéric Chopin (1810-1849)
10. Mazurka in A minor, op.17 no.4 5:54

P.I. Tchaikovsky (1840-1893)
11. Chant sans paroles, op.40 no.6 3:17

Henri Duparc (1848-1933)
12. Extase (David Gray solo horn) 3:07

Sergei Rachmaninov (1873-1943)
13. Prelude in C sharp minor, op.3 no.2 4:41

Claude Debussy (1862-1918)
14. La Cathedrale engloutie 6:37

- Czech Philharmonic Orchestra (1-6, 13)
- London Symphony Orchestra (7-12)
- New Philharmonia Orchestra (14)

Recorded in the Kingsway Hall, London, September 1965 (14) - PFS 4095;
live at the Rudolfinum, Prague, 7 & 8 September 1972 (1-6, 13);
in London, 1974 (7-12) - PFS 4278 (1-6), PFS 4351 (7-13)


Exact Audio Copy V0.99 prebeta 5 from 4. May 2009

Отчёт EAC об извлечении, выполненном 30. ноября 2009, 10:33

Leopold Stokowski / Stokowski - Decca Recordings 1965-1972 [Disc 1]

Дисковод: _NEC DVD_RW ND-3500AG Adapter: 0 ID: 1

Режим чтения : Достоверность
Использование точного потока : Да
Отключение кэша аудио : Да
Использование указателей C2 : Нет

Коррекция смещения при чтении : 48
Способность читать области Lead-in и Lead-out : Нет
Заполнение пропущенных сэмплов тишиной : Да
Удаление блоков с тишиной в начале и конце : Нет
При вычислениях CRC использовались нулевые сэмплы : Да
Интерфейс : Установленный внешний ASPI-интерфейс

Выходной формат : Внутренние WAV-операции
Формат сэмплов : 44.100 Гц; 16 бит; стерео


TOC извлечённого CD

Трек | Старт | Длительность | Начальный сектор | Конечный сектор
––––––––––––––––––––––––––––––––––-
1 | 0:00.00 | 10:21.00 | 0 | 46574
2 | 10:21.00 | 5:16.00 | 46575 | 70274
3 | 15:37.00 | 5:30.74 | 70275 | 95098
4 | 21:07.74 | 3:32.01 | 95099 | 110999
5 | 24:40.00 | 4:36.00 | 111000 | 131699
6 | 29:16.00 | 15:05.00 | 131700 | 199574
7 | 44:21.00 | 5:22.00 | 199575 | 223724
8 | 49:43.00 | 2:29.00 | 223725 | 234899
9 | 52:12.00 | 2:12.00 | 234900 | 244799
10 | 54:24.00 | 5:58.00 | 244800 | 271649
11 | 60:22.00 | 3:20.00 | 271650 | 286649
12 | 63:42.00 | 3:10.00 | 286650 | 300899
13 | 66:52.00 | 4:44.74 | 300900 | 322273
14 | 71:36.74 | 6:37.01 | 322274 | 352049


Характеристики диапазона извлечения и сообщения об ошибках

Выбранный диапазон

Имя файла D:\Мои рипы\Original Masters - Leopold Stokowski - Decca Recordings 1965 - 1972\CD 1\Leopold Stokowski - Stokowski - Decca Recordings 1965-1972 [Disc 1].wav

Пиковый уровень 92.6 %
Качество диапазона 100.0 %
CRC копии BBE2D176
Копирование… OK

Ошибок не произошло


AccurateRip: сводка

Трек 1 точное извлечение (доверие 3) [9F6E98E6]
Трек 2 точное извлечение (доверие 3) [D838928D]
Трек 3 точное извлечение (доверие 3) [B4881D7E]
Трек 4 точное извлечение (доверие 3) [891B8F24]
Трек 5 точное извлечение (доверие 3) [F5DEB10D]
Трек 6 точное извлечение (доверие 3) [9C0935D9]
Трек 7 точное извлечение (доверие 3) [12A58B01]
Трек 8 точное извлечение (доверие 3) [BA75A574]
Трек 9 точное извлечение (доверие 3) [D4751086]
Трек 10 точное извлечение (доверие 3) [FAF333B9]
Трек 11 точное извлечение (доверие 3) [45790B15]
Трек 12 точное извлечение (доверие 2) [51274FBB]
Трек 13 точное извлечение (доверие 3) [C90F7C1E]
Трек 14 точное извлечение (доверие 2) [5AFEC9A2]

Все треки извлечены точно

Конец отчёта

[CUETools log; Date: 11.02.2018 16:23:59; Version: 2.1.4]
[CTDB TOCID: VczTZciLgULKrakO0buukmyHvYg-] found.
Track | CTDB Status
1 | (24/24) Accurately ripped
2 | (24/24) Accurately ripped
3 | (24/24) Accurately ripped
4 | (24/24) Accurately ripped
5 | (24/24) Accurately ripped
6 | (24/24) Accurately ripped
7 | (24/24) Accurately ripped
8 | (24/24) Accurately ripped
9 | (23/24) Accurately ripped
10 | (23/24) Accurately ripped
11 | (24/24) Accurately ripped
12 | (24/24) Accurately ripped
13 | (24/24) Accurately ripped
14 | (24/24) Accurately ripped
[AccurateRip ID: 002c1da5-01c866cd-dd12560e] found.
Track [ CRC | V2 ] Status
01 [9f6e98e6|a4b19d72] (06+23/29) Accurately ripped
02 [d838928d|bb4265d5] (06+23/29) Accurately ripped
03 [b4881d7e|54a834a5] (06+23/29) Accurately ripped
04 [891b8f24|9c29403d] (06+23/29) Accurately ripped
05 [f5deb10d|b39fca0b] (06+23/29) Accurately ripped
06 [9c0935d9|17661f56] (06+23/29) Accurately ripped
07 [12a58b01|fb6864c4] (06+23/29) Accurately ripped
08 [ba75a574|76ee3df9] (06+23/29) Accurately ripped
09 [d4751086|eaf69723] (06+23/29) Accurately ripped
10 [faf333b9|5c6b6213] (06+23/29) Accurately ripped
11 [45790b15|25dd3b63] (06+23/29) Accurately ripped
12 [51274fbb|c4aa37f7] (05+23/28) Accurately ripped
13 [c90f7c1e|51a87920] (06+23/29) Accurately ripped
14 [5afec9a2|94873ca8] (05+22/27) Accurately ripped

Track Peak [ CRC32 ] [W/O NULL] [ LOG ]
– 92,6 [BBE2D176] [517F974A] CRC32
01 92,6 [F71E2A22] [BDCF4C21]
02 63,7 [2B3F94D7] [F9F55070]
03 45,4 [3E4ECD49] [E86A2AD6]
04 77,9 [873EF705] [D33CC5FD]
05 77,7 [2E290E87] [1A680653]
06 88,3 [B8B39695] [6BE56580]
07 71,7 [D5AB072C] [7608C611]
08 85,4 [1069A62B] [9F1A599E]
09 63,0 [EC990003] [8099C08B]
10 61,8 [97A58112] [DEF68859]
11 76,1 [F64E2CA4] [92770554]
12 41,7 [66268A1C] [7B862B93]
13 89,7 [AF7549F5] [BA7659C0]
14 91,0 [371FCB2D] [12484520]

foobar2000 1.2 / Dynamic Range Meter 1.1.1
log date: 2018-02-11 16:30:49

––––––––––––––––––––––––––––––––––––––––
Analyzed: Leopold Stokowski / Stokowski - Decca Recordings 1965-1972 [Disc 1]
––––––––––––––––––––––––––––––––––––––––

DR Peak RMS Duration Track
––––––––––––––––––––––––––––––––––––––––
DR10 -0.66 dB -15.06 dB 10:21 01-Bach-Stokowski: Toccata and Fugue for organ in D minor, BWV 565
DR12 -3.91 dB -22.83 dB 5:16 02-Bach-Stokowski: Prelude in E-flat minor, BWV 853 (from WWC I)
DR11 -6.84 dB -24.52 dB 5:31 03-Bach-Stokowski: Mein, Jesu, was fьr Seelenweh (Schemilli Gesangbuch, BWV 487)
DR10 -2.16 dB -17.82 dB 3:32 04-Bach-Stokowski: 'Wir glauben all'an einen Gott' (Chorale prelude for organ, B…
DR10 -2.19 dB -16.97 dB 4:36 05-Bach-Stokowski: Cantata No.4 'Jesus Christus, Gottes Sohn' from Easter Cantat…
DR9 -1.08 dB -15.26 dB 15:05 06-Bach-Stokowski: Passacaglia and Fugue in C minor, BWV 582
DR12 -2.88 dB -20.32 dB 5:22 07-Byrd-Stokowski: Pavan 'The Earl of Salisbury' and Galliard (after Francis Tre…
DR11 -1.37 dB -17.51 dB 2:29 08-Jeremiah Clark-Stokowski: Trumpet Voluntary (trump. Howard Snell)
DR13 -4.01 dB -23.84 dB 2:12 09-Schubert-Stokowski: Moment musical No.3 in F minor, D.780
DR15 -4.17 dB -26.07 dB 5:58 10-Chopin-Stokowski: Mazurka in A minor, op.17 no.4
DR12 -2.37 dB -20.39 dB 3:20 11-Tchaikovsky-Stokowski: Chant sans paroles, op.40 no.6
DR12 -7.59 dB -26.65 dB 3:10 12-Duparc-Stokowski: Extase (David Gray, horn)
DR11 -0.94 dB -18.68 dB 4:45 13-Rachmaninov-Stokowski: Prelude in C-sharp minor, op.3 no.2
DR10 -0.81 dB -17.56 dB 6:37 14-Debussy-Stokowski: La Cathйdrale engloutie
––––––––––––––––––––––––––––––––––––––––

Number of tracks: 14
Official DR value: DR11

Samplerate: 44100 Hz
Channels: 2
Bits per sample: 16
Bitrate: 664 kbps
Codec: FLAC
================================================================================




Tracklist CD2:

P.I. Tchaikovsky
Symphony No.5 in E minor, Op.64
1. I Andante - Allegro con anima 15:48
2. II Andante cantabile, con alcuna licenza - Moderato (Alan Civil solo horn) 15:05
3. III Valse: Allegro moderato 6:38
4. IV Finale: Andante maestoso - Allegrovivace

- New Philharmonia Orchestra
Recorded at the Kingsway Hall, London, 14-16 September 1966 - PFS 4129

Alexander Scriabin (1872-1915)
5. Le Poeme de L'Extase, Op.54 19:11

- Czech Philharmonic Orchestra
Recorded at the Rudolfinum, Prague, September 1972 - PFS 4333


Exact Audio Copy V0.99 prebeta 5 from 4. May 2009

Отчёт EAC об извлечении, выполненном 30. ноября 2009, 10:48

Leopold Stokowski / Stokowski - Decca Recordings 1965-1972 [Disc 2]

Дисковод: _NEC DVD_RW ND-3500AG Adapter: 0 ID: 1

Режим чтения : Достоверность
Использование точного потока : Да
Отключение кэша аудио : Да
Использование указателей C2 : Нет

Коррекция смещения при чтении : 48
Способность читать области Lead-in и Lead-out : Нет
Заполнение пропущенных сэмплов тишиной : Да
Удаление блоков с тишиной в начале и конце : Нет
При вычислениях CRC использовались нулевые сэмплы : Да
Интерфейс : Установленный внешний ASPI-интерфейс

Выходной формат : Внутренние WAV-операции
Формат сэмплов : 44.100 Гц; 16 бит; стерео


TOC извлечённого CD

Трек | Старт | Длительность | Начальный сектор | Конечный сектор
––––––––––––––––––––––––––––––––––-
1 | 0:00.00 | 15:48.00 | 0 | 71099
2 | 15:48.00 | 15:05.00 | 71100 | 138974
3 | 30:53.00 | 6:38.01 | 138975 | 168825
4 | 37:31.01 | 13:05.74 | 168826 | 227774
5 | 50:37.00 | 19:11.00 | 227775 | 314099


Характеристики диапазона извлечения и сообщения об ошибках

Выбранный диапазон

Имя файла D:\Мои рипы\Original Masters - Leopold Stokowski - Decca Recordings 1965 - 1972\CD 2\Leopold Stokowski - Stokowski - Decca Recordings 1965-1972 [Disc 2].wav

Пиковый уровень 100.0 %
Качество диапазона 99.9 %
CRC копии A849DD36
Копирование… OK

Ошибок не произошло


AccurateRip: сводка

Трек 1 нет в базе данных
Трек 2 нет в базе данных
Трек 3 нет в базе данных
Трек 4 нет в базе данных
Трек 5 нет в базе данных

Ни одного трека нет в базе AccurateRip

Конец отчёта

[CUETools log; Date: 11.02.2018 16:24:17; Version: 2.1.4]
[CTDB TOCID: _giRkUFS3NcoWvhvgUxK3cB4lNw-] found.
Track | CTDB Status
1 | (26/26) Accurately ripped
2 | (26/26) Accurately ripped
3 | (26/26) Accurately ripped
4 | (26/26) Accurately ripped
5 | (26/26) Accurately ripped
[AccurateRip ID: 000e0cc8-0040f871-3e105c05] found.
Track [ CRC | V2 ] Status
01 [fd1bcb94|df26490d] (05+20/25) Accurately ripped
02 [e9f36ab7|3070f7ac] (05+20/25) Accurately ripped
03 [a6db7f13|66aa2b36] (05+20/25) Accurately ripped
04 [b2f34f81|966dc2f4] (05+20/25) Accurately ripped
05 [785a6f15|3081849f] (05+21/26) Accurately ripped

Track Peak [ CRC32 ] [W/O NULL] [ LOG ]
– 100,0 [A849DD36] [917A2934] CRC32
01 93,1 [D926F3EA] [2C69DACC]
02 95,2 [1E0C3DC7] [060A3DD6]
03 85,8 [6D360415] [669A718E]
04 100,0 [69753443] [F1387525]
05 97,9 [978474ED] [F4D403CF]

foobar2000 1.2 / Dynamic Range Meter 1.1.1
log date: 2018-02-11 16:31:15

––––––––––––––––––––––––––––––––––––––––
Analyzed: Leopold Stokowski / Stokowski - Decca Recordings 1965-1972 [Disc 2]
––––––––––––––––––––––––––––––––––––––––

DR Peak RMS Duration Track
––––––––––––––––––––––––––––––––––––––––
DR10 -0.62 dB -14.84 dB 15:48 01-Tchaikovsky: Symphony No.5 in E minor, op.64 - 1. Andante - Allegro con anima
DR9 -0.42 dB -14.83 dB 15:05 02-Tchaikovsky: Symphony No.5 in E minor, op.64 - 2. Andante cantabile, con alcu…
DR12 -1.33 dB -18.28 dB 6:38 03-Tchaikovsky: Symphony No.5 in E minor, op.64 - 3. Valse. Allegro moderato
DR9 0.00 dB -11.92 dB 13:06 04-Tchaikovsky: Symphony No.5 in E minor, op.64 - 4. Finale. Andante maestoso - …
DR10 -0.18 dB -16.26 dB 19:11 05-Scriabin: Le Poиme de l'extase, op.54
––––––––––––––––––––––––––––––––––––––––

Number of tracks: 5
Official DR value: DR10

Samplerate: 44100 Hz
Channels: 2
Bits per sample: 16
Bitrate: 752 kbps
Codec: FLAC
================================================================================




Tracklist CD3:

Cezar Franck (1822-1890)
Symphony in D Minor
01. I Lento - Allegro non troppo - Allegro 18:07
02. II Allegretto 12:36
03. III Allegro non troppo 12:51

- Hilversum Radio Philharmonic Orchestra
Recorded at Hilversum Radio Stidios, The Netherlands, September 1970 - PFS 4218

Edward Elgar (1857-1934)
Variations on an Original Theme, Op.36 "Enigma"
04. Theme (Andante) 1:20
05. I C.A.E. (Andante) 2:02
06. II H.D.S.P. (Allegro) 0:47
07. III R.B.T. (Allegretto) 1:37
08. IV W.M.B. (Allegro di molto) 0:31
09. V R.P.A. (Moderato) 2:05
10. VI Ysobel (Andantino) 0:59
11. VII Troyte (Presto) 0:58
12. VIII W.N. (Allegretto) 1:39
13. IX Nimrod (Adagio) 4:07
14. X Dorabella: Intermezzo (Allegretto) 3:00
15. XI G.R.S. (Allegro di molto) 1:05
16. XII B.G.N. (Andante) 2:59
17. XIII Romanza*** (Moderato) 3:15
18. XIV Finale: E.D.U. (Allegro - Presto) 5:25

Czech Philharmonic Orcestra
Recorded at the Rudolfinum, Prague, 1972 - PFS 4338


Exact Audio Copy V0.99 prebeta 5 from 4. May 2009

Отчёт EAC об извлечении, выполненном 30. ноября 2009, 11:02

Leopold Stokowski / Stokowski - Decca Recordings 1965-1972 [Disc 3]

Дисковод: _NEC DVD_RW ND-3500AG Adapter: 0 ID: 1

Режим чтения : Достоверность
Использование точного потока : Да
Отключение кэша аудио : Да
Использование указателей C2 : Нет

Коррекция смещения при чтении : 48
Способность читать области Lead-in и Lead-out : Нет
Заполнение пропущенных сэмплов тишиной : Да
Удаление блоков с тишиной в начале и конце : Нет
При вычислениях CRC использовались нулевые сэмплы : Да
Интерфейс : Установленный внешний ASPI-интерфейс

Выходной формат : Внутренние WAV-операции
Формат сэмплов : 44.100 Гц; 16 бит; стерео


TOC извлечённого CD

Трек | Старт | Длительность | Начальный сектор | Конечный сектор
––––––––––––––––––––––––––––––––––-
1 | 0:00.00 | 18:06.62 | 0 | 81511
2 | 18:06.62 | 12:35.67 | 81512 | 138203
3 | 30:42.54 | 12:57.22 | 138204 | 196500
4 | 43:40.01 | 1:20.48 | 196501 | 202548
5 | 45:00.49 | 2:02.16 | 202549 | 211714
6 | 47:02.65 | 0:47.27 | 211715 | 215266
7 | 47:50.17 | 1:37.40 | 215267 | 222581
8 | 49:27.57 | 0:31.24 | 222582 | 224930
9 | 49:59.06 | 2:05.04 | 224931 | 234309
10 | 52:04.10 | 0:59.10 | 234310 | 238744
11 | 53:03.20 | 0:57.70 | 238745 | 243089
12 | 54:01.15 | 1:39.22 | 243090 | 250536
13 | 55:40.37 | 4:07.63 | 250537 | 269124
14 | 59:48.25 | 3:00.20 | 269125 | 282644
15 | 62:48.45 | 1:04.43 | 282645 | 287487
16 | 63:53.13 | 2:59.45 | 287488 | 300957
17 | 66:52.58 | 3:14.70 | 300958 | 315577
18 | 70:07.53 | 5:25.23 | 315578 | 339975


Характеристики диапазона извлечения и сообщения об ошибках

Выбранный диапазон

Имя файла D:\Мои рипы\Original Masters - Leopold Stokowski - Decca Recordings 1965 - 1972\CD 3\Leopold Stokowski - Stokowski - Decca Recordings 1965-1972 [Disc 3].wav

Пиковый уровень 99.4 %
Качество диапазона 99.9 %
CRC копии 44C153AA
Копирование… OK

Ошибок не произошло


AccurateRip: сводка

Трек 1 нет в базе данных
Трек 2 нет в базе данных
Трек 3 нет в базе данных
Трек 4 нет в базе данных
Трек 5 нет в базе данных
Трек 6 нет в базе данных
Трек 7 нет в базе данных
Трек 8 нет в базе данных
Трек 9 нет в базе данных
Трек 10 нет в базе данных
Трек 11 нет в базе данных
Трек 12 нет в базе данных
Трек 13 нет в базе данных
Трек 14 нет в базе данных
Трек 15 нет в базе данных
Трек 16 нет в базе данных
Трек 17 нет в базе данных
Трек 18 нет в базе данных

Ни одного трека нет в базе AccurateRip

Конец отчёта

[CUETools log; Date: 11.02.2018 16:24:37; Version: 2.1.4]
[CTDB TOCID: iB8s6aad8fFA4g6tF_T7vdasOD4-] found.
Track | CTDB Status
1 | (25/25) Accurately ripped
2 | (24/25) Accurately ripped
3 | (24/25) Accurately ripped
4 | (25/25) Accurately ripped
5 | (25/25) Accurately ripped
6 | (25/25) Accurately ripped
7 | (25/25) Accurately ripped
8 | (25/25) Accurately ripped
9 | (25/25) Accurately ripped
10 | (25/25) Accurately ripped
11 | (24/25) Accurately ripped
12 | (25/25) Accurately ripped
13 | (24/25) Accurately ripped
14 | (24/25) Accurately ripped
15 | (24/25) Accurately ripped
16 | (24/25) Accurately ripped
17 | (24/25) Accurately ripped
18 | (24/25) Accurately ripped
[AccurateRip ID: 0040efe1-02fa695b-fe11b512] found.
Track [ CRC | V2 ] Status
01 [4e964823|87f9b8a9] (00+04/26) Accurately ripped
02 [977cac54|dd42a717] (00+04/26) Accurately ripped
03 [bd625146|fb888ef2] (00+04/26) Accurately ripped
04 [9abb3eee|52416330] (00+04/26) Accurately ripped
05 [3a4fa18c|1f02bebb] (00+04/26) Accurately ripped
06 [03ec60f4|1a0b0f85] (00+04/26) Accurately ripped
07 [63c9db31|6ccedad0] (00+04/26) Accurately ripped
08 [1659d418|3d36bf88] (00+04/26) Accurately ripped
09 [20c52999|62159d02] (00+04/26) Accurately ripped
10 [826c0ee8|f9d32a9b] (00+04/26) Accurately ripped
11 [47a284ad|9a08ab47] (00+04/26) Accurately ripped
12 [bca861fb|73f75ecf] (00+04/26) Accurately ripped
13 [446f0762|9d91efea] (00+04/26) Accurately ripped
14 [8db7a01b|c8c91a0e] (00+04/26) Accurately ripped
15 [4f369b77|5b8ed95b] (00+04/26) Accurately ripped
16 [aa2933d2|3a8141fe] (00+04/26) Accurately ripped
17 [9d6add1c|388487be] (00+04/25) Accurately ripped
18 [85271abf|0b515a27] (00+04/25) Accurately ripped
Offsetted by 664:
01 [efdf8e09] (04/26) Accurately ripped
02 [4af554c1] (04/26) Accurately ripped
03 [704a4bef] (04/26) Accurately ripped
04 [b96e2b3a] (04/26) Accurately ripped
05 [7aba35fe] (04/26) Accurately ripped
06 [4f6d17c3] (04/26) Accurately ripped
07 [b8ad49f6] (04/26) Accurately ripped
08 [76a7cef7] (04/26) Accurately ripped
09 [d96b3792] (04/26) Accurately ripped
10 [f5ce767f] (04/26) Accurately ripped
11 [a9f6aad3] (04/26) Accurately ripped
12 [befddc1f] (04/26) Accurately ripped
13 [a04a2bb4] (04/26) Accurately ripped
14 [0afccc78] (04/26) Accurately ripped
15 [ff1ece5c] (04/26) Accurately ripped
16 [f867e901] (04/26) Accurately ripped
17 [69b0c988] (04/25) Accurately ripped
18 [1b768d45] (04/25) Accurately ripped

Track Peak [ CRC32 ] [W/O NULL] [ LOG ]
– 99,4 [44C153AA] [A1C28D92] CRC32
01 99,4 [8DF50789] [CDD9F6F5]
02 82,5 [6948FF68] [7C83B20C]
03 97,5 [803EA69C] [58B140AD]
04 50,6 [144C71CF] [AD596485]
05 99,4 [1C1C6CB6] [1DE63DFC]
06 76,1 [19AC0FF9] [0FFCD0CE]
07 78,9 [EFBBA47C] [CFEA1D55]
08 99,4 [2FB118B8] [E3851DFF]
09 99,4 [FEBD66BE] [5CC4A391]
10 45,2 [528B5D2D] [3E29F14B]
11 99,4 [6A241F73] [DA5F89A7]
12 85,6 [688CAC5F] [C732FD8E]
13 99,4 [3E431FD5] [060D717A]
14 40,5 [C7D4CF44] [36AE259E]
15 99,4 [F6158D68] [2ACA7AD3]
16 84,6 [78E60C1B] [5BCF19BF]
17 99,1 [7EAA123E] [7AB0CFFA]
18 99,4 [4F79CB40] [3996D756]

foobar2000 1.2 / Dynamic Range Meter 1.1.1
log date: 2018-02-11 16:38:06

––––––––––––––––––––––––––––––––––––––––
Analyzed: Leopold Stokowski / Stokowski - Decca Recordings 1965-1972 [Disc 3]
––––––––––––––––––––––––––––––––––––––––

DR Peak RMS Duration Track
––––––––––––––––––––––––––––––––––––––––
DR11 -0.05 dB -15.90 dB 18:07 01-Franck: Symphony in D minor (1888) - 1. Lento - Allegro non troppo - Allegro
DR12 -1.67 dB -20.10 dB 12:36 02-Franck: Symphony in D minor (1888) - 2. Allegretto
DR10 -0.21 dB -15.34 dB 12:57 03-Franck: Symphony in D minor (1888) - 3. Allegro non troppo
DR10 -5.91 dB -23.19 dB 1:21 04-Elgar: Variations on an Original Theme, op.36 'Enigma' - Theme. Andante
DR12 -0.05 dB -17.71 dB 2:02 05-Elgar: Variations on an Original Theme, op.36 'Enigma' - 1. CAE. Andante
DR11 -2.37 dB -22.51 dB 0:47 06-Elgar: Variations on an Original Theme, op.36 'Enigma' - 2. HDS-P. Allegro
DR13 -2.06 dB -21.95 dB 1:38 07-Elgar: Variations on an Original Theme, op.36 'Enigma' - 3. RBT. Allegretto
DR10 -0.05 dB -13.40 dB 0:31 08-Elgar: Variations on an Original Theme, op.36 'Enigma' - 4. WMB. Allegro di m…
DR11 -0.05 dB -18.89 dB 2:05 09-Elgar: Variations on an Original Theme, op.36 'Enigma' - 5. RPA. Moderato
DR11 -6.88 dB -24.15 dB 0:59 10-Elgar: Variations on an Original Theme, op.36 'Enigma' - 6. Ysobel. Andantino
DR10 -0.05 dB -11.80 dB 0:58 11-Elgar: Variations on an Original Theme, op.36 'Enigma' - 7. Troyte. Presto
DR12 -1.34 dB -20.15 dB 1:39 12-Elgar: Variations on an Original Theme, op.36 'Enigma' - 8. WN. Allegretto
DR8 -0.05 dB -13.15 dB 4:08 13-Elgar: Variations on an Original Theme, op.36 'Enigma' - 9. Nimrod. Adagio
DR12 -7.83 dB -26.09 dB 3:00 14-Elgar: Variations on an Original Theme, op.36 'Enigma' - 10. Dorabella - Inte…
DR10 -0.05 dB -13.84 dB 1:05 15-Elgar: Variations on an Original Theme, op.36 'Enigma' - 11. GRS. Allegro di …
DR12 -1.45 dB -20.23 dB 3:00 16-Elgar: Variations on an Original Theme, op.36 'Enigma' - 12. BGN. Andante
DR15 -0.08 dB -22.67 dB 3:15 17-Elgar: Variations on an Original Theme, op.36 'Enigma' - 13. Romanza. Moderato
DR8 -0.05 dB -11.72 dB 5:25 18-Elgar: Variations on an Original Theme, op.36 'Enigma' - 14. Finale - EDU. Al…
––––––––––––––––––––––––––––––––––––––––

Number of tracks: 18
Official DR value: DR11

Samplerate: 44100 Hz
Channels: 2
Bits per sample: 16
Bitrate: 712 kbps
Codec: FLAC
================================================================================




Tracklist CD4:

Hector Berlioz (1803-1869)
Symphonie Fantastique, Op.14
1. I Reveries - Passions (Largo - Allegro agitato ed appassionato assai) 14:07
2. II Un bal (Valse: Allegro non troppo) 6:22
3. III Scene aux champs (Adagio) 17:24
4. IV Marche au supplice (Allegretto non troppo) 4:18
5. V Songe d'une nuit de Sabbat (Larghetto - Allegro) 10:25

- New Philharmonia Orchestra
Recorded in the Kingsway Hall, London, November 1968 - PFS 4160

6. Ballet des Sylphes (La Damnation de Faust, Op.24 ) 3:12

- London Symphony Orchestra
Recorded in the Kingsway Hall, London, November 1969 - PFS 4220

Maurice Ravel (1875-1937)
7. Fanfare (L'Eventail De Jeanne) 2:09

- Hilversum Radio Philharmonic Orchestra
Recorded at Hilversum Radio Studios, The Netherlands, September 1970 - PFS 4218

Daphnis Et Chloe - Suite No.2
8. I Lever du jour 9:22
9. II Pantomine 3:50
10. III Danse generale 3:43

- London Symphony Chorus
- London Symphony Orchestra
Recorded in the Kingsway Hall, London, 1969 - PFS 4220


Exact Audio Copy V0.99 prebeta 5 from 4. May 2009

Отчёт EAC об извлечении, выполненном 30. ноября 2009, 11:16

Leopold Stokowski / Stokowski - Decca Recordings 1965-1972 [Disc 4]

Дисковод: _NEC DVD_RW ND-3500AG Adapter: 0 ID: 1

Режим чтения : Достоверность
Использование точного потока : Да
Отключение кэша аудио : Да
Использование указателей C2 : Нет

Коррекция смещения при чтении : 48
Способность читать области Lead-in и Lead-out : Нет
Заполнение пропущенных сэмплов тишиной : Да
Удаление блоков с тишиной в начале и конце : Нет
При вычислениях CRC использовались нулевые сэмплы : Да
Интерфейс : Установленный внешний ASPI-интерфейс

Выходной формат : Внутренние WAV-операции
Формат сэмплов : 44.100 Гц; 16 бит; стерео


TOC извлечённого CD

Трек | Старт | Длительность | Начальный сектор | Конечный сектор
––––––––––––––––––––––––––––––––––-
1 | 0:00.00 | 14:07.00 | 0 | 63524
2 | 14:07.00 | 6:22.00 | 63525 | 92174
3 | 20:29.00 | 17:24.00 | 92175 | 170474
4 | 37:53.00 | 4:18.00 | 170475 | 189824
5 | 42:11.00 | 10:31.00 | 189825 | 237149
6 | 52:42.00 | 3:20.00 | 237150 | 252149
7 | 56:02.00 | 2:14.00 | 252150 | 262199
8 | 58:16.00 | 9:21.43 | 262200 | 304317
9 | 67:37.43 | 3:50.32 | 304318 | 321599
10 | 71:28.00 | 3:45.00 | 321600 | 338474


Характеристики диапазона извлечения и сообщения об ошибках

Выбранный диапазон

Имя файла D:\Мои рипы\Original Masters - Leopold Stokowski - Decca Recordings 1965 - 1972\CD 4\Leopold Stokowski - Stokowski - Decca Recordings 1965-1972 [Disc 4].wav

Пиковый уровень 100.0 %
Качество диапазона 100.0 %
CRC копии 6069DE13
Копирование… OK

Ошибок не произошло


AccurateRip: сводка

Трек 1 нет в базе данных
Трек 2 нет в базе данных
Трек 3 нет в базе данных
Трек 4 нет в базе данных
Трек 5 нет в базе данных
Трек 6 нет в базе данных
Трек 7 точность не определена (достоверность 2) [5739ECA6], AccurateRip вернул [744DD81A]
Трек 8 нет в базе данных
Трек 9 нет в базе данных
Трек 10 нет в базе данных

1 трек(и) не удалось проверить на точность
9 трек(и) не содержатся в базе AccurateRip

Ни один трек не прошёл проверки на точность
В вашей базе может быть иной вариант штамповки диска

Конец отчёта

[CUETools log; Date: 11.02.2018 16:24:57; Version: 2.1.4]
[CTDB TOCID: 2XQESpciz89GvEfEHstUc8dbzuQ-] found.
Track | CTDB Status
1 | (57/57) Accurately ripped
2 | (57/57) Accurately ripped
3 | (57/57) Accurately ripped
4 | (57/57) Accurately ripped
5 | (57/57) Accurately ripped
6 | (57/57) Accurately ripped
7 | (57/57) Accurately ripped
8 | (57/57) Accurately ripped
9 | (57/57) Accurately ripped
10 | (57/57) Accurately ripped
[AccurateRip ID: 00220e55-01035f5e-9211a10a] found.
Track [ CRC | V2 ] Status
01 [2e561d4d|8915d469] (04+07/46) Accurately ripped
02 [a2650963|2e4a81a8] (04+07/46) Accurately ripped
03 [0548f964|bf4a68fb] (04+07/46) Accurately ripped
04 [b4e15405|4b66a633] (04+07/46) Accurately ripped
05 [75fb071c|f66f07bf] (04+07/46) Accurately ripped
06 [1d863d6b|aeb9caee] (04+07/46) Accurately ripped
07 [5739eca6|260bd6b1] (04+07/48) Accurately ripped
08 [d3847898|234c0af7] (04+07/46) Accurately ripped
09 [f9902ea0|c3afff52] (04+07/46) Accurately ripped
10 [b547d04e|a4d0c36d] (04+07/45) Accurately ripped
Offsetted by 664:
01 [0546359d] (00/46) No match (V2 was not tested)
02 [4073f23a] (00/46) No match (V2 was not tested)
03 [1fc0f42d] (00/46) No match (V2 was not tested)
04 [0fd8ff86] (00/46) No match (V2 was not tested)
05 [6e7db440] (00/46) No match (V2 was not tested)
06 [2a9da221] (00/46) No match (V2 was not tested)
07 [744dd81a] (02/48) Accurately ripped
08 [955825ee] (00/46) No match (V2 was not tested)
09 [4e49a9ce] (00/46) No match (V2 was not tested)
10 [89cbbf97] (00/45) No match (V2 was not tested)

Track Peak [ CRC32 ] [W/O NULL] [ LOG ]
– 100,0 [6069DE13] [6DA169CD] CRC32
01 99,5 [0E4BFF24] [70E9909E]
02 84,5 [D1FE11B3] [DE123DD1]
03 84,0 [88C22E9E] [7FDD6898]
04 100,0 [621F9376] [3B355E62]
05 91,0 [905E0992] [46C7C625]
06 26,6 [719F405A] [597C55FE]
07 84,5 [69C0597D] [912FF9DB]
08 92,8 [6EF32FD3] [994EF449]
09 100,0 [66EB0F85] [E7FFBB7E]
10 100,0 [0A0C194F] [B11B5C0E]

foobar2000 1.2 / Dynamic Range Meter 1.1.1
log date: 2018-02-11 16:31:42

––––––––––––––––––––––––––––––––––––––––
Analyzed: Leopold Stokowski / Stokowski - Decca Recordings 1965-1972 [Disc 4]
––––––––––––––––––––––––––––––––––––––––

DR Peak RMS Duration Track
––––––––––––––––––––––––––––––––––––––––
DR15 -0.04 dB -21.15 dB 14:07 01-Berlioz: Symphonie fantastique, op.14 - 1. Rкveries - Passions. Largo - Alleg…
DR13 -1.46 dB -20.27 dB 6:22 02-Berlioz: Symphonie fantastique, op.14 - 2. Un bal - Valse. Allegro non troppo
DR16 -1.51 dB -24.68 dB 17:24 03-Berlioz: Symphonie fantastique, op.14 - 3. Scиne aux champs. Adagio
DR13 0.00 dB -17.71 dB 4:18 04-Berlioz: Symphonie fantastique, op.14 - 4. Marche au supplice. Allegreto non …
DR13 -0.82 dB -18.52 dB 10:31 05-Berlioz: Symphonie fantastique, op.14 - 5. Sogne d'une nuit de Sabbat. Larghe…
DR14 -11.48 dB -33.12 dB 3:20 06-Berloiz: La danmation de Faust, op.24 - Ballet des Sylphes
DR9 -1.45 dB -16.79 dB 2:14 07-Ravel: Fanfare (L'Йventail de Jeanne)
DR13 -0.64 dB -21.08 dB 9:22 08-Ravel: Daphins et Chloй - Suite No.2 - 1. Lever du jour
DR13 0.00 dB -18.82 dB 3:50 09-Ravel: Daphins et Chloй - Suite No.2 - 2. Pantomime
DR11 0.00 dB -14.75 dB 3:45 10-Ravel: Daphins et Chloй - Suite No.2 - 3. Danse gйnйrale
––––––––––––––––––––––––––––––––––––––––

Number of tracks: 10
Official DR value: DR13

Samplerate: 44100 Hz
Channels: 2
Bits per sample: 16
Bitrate: 651 kbps
Codec: FLAC
================================================================================




Tracklist CD5:

Igor Stravinsky (1882-1971)
L'Oiseau De Feu - Suite (1919 version)
1. I Introduction 3:30
2. II Dance of the Firebird 1:09
3. III Round dance of the Princessess 5:42
4. IV Infernal dance of King Kashchei 4:31
5. V Lullaby 3:46
6. VI Finale 3:24

Recorded in the Kingsway Hall, London, 16 June 1967 - PFS 4139

Claude Debussy (1862-1918)

7. Prelude A L'Apres-Midi D'Un Faune 11:45

Recorded "live" at the Royal Festival Hall, London, 14 June 1972 - OPFS 3

La Mer
8. I De l'aube a midi sur la mer 9:45
9. II Jeux de vagues 7:58
10. III Dialogue du vent et de la mer 8:51

Recorded in the Kingsway Hall, London, 1969 - PFS 4220

Olivier Messiaen (1908-1992)
L'Ascension - Quatre Meditations Symphoniques pour Orchestre
11. I Majeste du Christ demandant sa gloire a son Pere (Tres lent et majestueux) 3:41
12. II Alleluias sereins d'une ame qui destre le ciel(Bien modere, clair) 5:07
13. III Alleluia sur la trompette, alleluia sur ka cymbale (Vif et joyeux) 6:15
14. IV Priere du Christ montant vers son Pere (Extremement lent, emu et solennel) 4:34

Recorded in the Kingsway Hall, London, June 1970 - PFS 4203

- London Symphony Orchestra


Exact Audio Copy V0.99 prebeta 5 from 4. May 2009

Отчёт EAC об извлечении, выполненном 30. ноября 2009, 11:30

Leopold Stokowski / Stokowski - Decca Recordings 1965-1972 [Disc 5]

Дисковод: _NEC DVD_RW ND-3500AG Adapter: 0 ID: 1

Режим чтения : Достоверность
Использование точного потока : Да
Отключение кэша аудио : Да
Использование указателей C2 : Нет

Коррекция смещения при чтении : 48
Способность читать области Lead-in и Lead-out : Нет
Заполнение пропущенных сэмплов тишиной : Да
Удаление блоков с тишиной в начале и конце : Нет
При вычислениях CRC использовались нулевые сэмплы : Да
Интерфейс : Установленный внешний ASPI-интерфейс

Выходной формат : Внутренние WAV-операции
Формат сэмплов : 44.100 Гц; 16 бит; стерео


TOC извлечённого CD

Трек | Старт | Длительность | Начальный сектор | Конечный сектор
––––––––––––––––––––––––––––––––––-
1 | 0:00.00 | 3:34.28 | 0 | 16077
2 | 3:34.28 | 1:09.17 | 16078 | 21269
3 | 4:43.45 | 5:42.06 | 21270 | 46925
4 | 10:25.51 | 4:30.61 | 46926 | 67236
5 | 14:56.37 | 3:46.07 | 67237 | 84193
6 | 18:42.44 | 3:32.29 | 84194 | 100122
7 | 22:14.73 | 11:53.02 | 100123 | 153599
8 | 34:08.00 | 9:44.74 | 153600 | 197473
9 | 43:52.74 | 7:58.39 | 197474 | 233362
10 | 51:51.38 | 8:59.37 | 233363 | 273824
11 | 60:51.00 | 3:41.37 | 273825 | 290436
12 | 64:32.37 | 5:07.01 | 290437 | 313462
13 | 69:39.38 | 6:15.37 | 313463 | 341624
14 | 75:55.00 | 4:43.00 | 341625 | 362849


Характеристики диапазона извлечения и сообщения об ошибках

Выбранный диапазон

Имя файла D:\Мои рипы\Original Masters - Leopold Stokowski - Decca Recordings 1965 - 1972\CD 5\Leopold Stokowski - Stokowski - Decca Recordings 1965-1972 [Disc 5].wav

Пиковый уровень 98.4 %
Качество диапазона 100.0 %
CRC копии F53963ED
Копирование… OK

Ошибок не произошло


AccurateRip: сводка

Трек 1 точное извлечение (доверие 2) [5B992508]
Трек 2 точное извлечение (доверие 2) [B645C377]
Трек 3 точное извлечение (доверие 2) [1E59FF6B]
Трек 4 точное извлечение (доверие 2) [024F7119]
Трек 5 точное извлечение (доверие 2) [2313C581]
Трек 6 точное извлечение (доверие 2) [03FBBC14]
Трек 7 точное извлечение (доверие 2) [20115303]
Трек 8 точное извлечение (доверие 2) [E3F96041]
Трек 9 точное извлечение (доверие 2) [5DAEDDCB]
Трек 10 точное извлечение (доверие 2) [FBAFB6E4]
Трек 11 точное извлечение (доверие 2) [342AB340]
Трек 12 точное извлечение (доверие 2) [678372B0]
Трек 13 точное извлечение (доверие 2) [0393710B]
Трек 14 точное извлечение (доверие 2) [3A3F0502]

Все треки извлечены точно

Конец отчёта

[CUETools log; Date: 11.02.2018 16:25:18; Version: 2.1.4]
[CTDB TOCID: JRi81FeIUg1GxSEnLT5HfmHd59g-] found.
Track | CTDB Status
1 | (21/21) Accurately ripped
2 | (21/21) Accurately ripped
3 | (21/21) Accurately ripped
4 | (21/21) Accurately ripped
5 | (21/21) Accurately ripped
6 | (21/21) Accurately ripped
7 | (21/21) Accurately ripped
8 | (21/21) Accurately ripped
9 | (21/21) Accurately ripped
10 | (21/21) Accurately ripped
11 | (21/21) Accurately ripped
12 | (21/21) Accurately ripped
13 | (21/21) Accurately ripped
14 | (21/21) Accurately ripped
[AccurateRip ID: 00262f41-01aab017-bf12e60e] found.
Track [ CRC | V2 ] Status
01 [5b992508|fc58ff30] (05+20/25) Accurately ripped
02 [b645c377|aff87dbe] (05+20/25) Accurately ripped
03 [1e59ff6b|3800a669] (05+20/25) Accurately ripped
04 [024f7119|e8db9660] (05+20/25) Accurately ripped
05 [2313c581|0a46912f] (05+20/25) Accurately ripped
06 [03fbbc14|f7bc300c] (05+20/25) Accurately ripped
07 [20115303|bdc87e4c] (05+20/25) Accurately ripped
08 [e3f96041|126b874c] (05+20/25) Accurately ripped
09 [5daeddcb|df62599b] (05+20/25) Accurately ripped
10 [fbafb6e4|15eaa429] (05+20/25) Accurately ripped
11 [342ab340|672bdf0e] (05+20/25) Accurately ripped
12 [678372b0|0687f1c4] (05+20/25) Accurately ripped
13 [0393710b|5a59794a] (05+20/25) Accurately ripped
14 [3a3f0502|db57c18f] (05+19/24) Accurately ripped

Track Peak [ CRC32 ] [W/O NULL] [ LOG ]
– 98,4 [F53963ED] [9C26BEE7] CRC32
01 71,4 [DBBBB9CF] [FF524370]
02 82,5 [76EE2F20] [2EC8BE35]
03 71,6 [2534C5DE] [2B824BC4]
04 98,4 [16455DC0] [4F8D6EF8]
05 78,8 [1A06F436] [0FCB7EA8]
06 98,4 [C0FCFA90] [38D8D3BA]
07 69,9 [1FC7B4EE] [B635A832]
08 91,9 [AC58E495] [C772FD9B]
09 88,8 [CF26CE3C] [45048E1F]
10 97,9 [BA4000A7] [C6B8591B]
11 80,3 [3CE62B31] [FACC44B4]
12 76,4 [76236952] [4E370B76]
13 87,1 [5A175719] [50D4902C]
14 65,2 [82617AD8] [6EFE2F2F]

foobar2000 1.2 / Dynamic Range Meter 1.1.1
log date: 2018-02-11 16:32:15

––––––––––––––––––––––––––––––––––––––––
Analyzed: Leopold Stokowski / Stokowski - Decca Recordings 1965-1972 [Disc 5]
––––––––––––––––––––––––––––––––––––––––

DR Peak RMS Duration Track
––––––––––––––––––––––––––––––––––––––––
DR13 -2.92 dB -21.57 dB 3:34 01-Stravinsky: L'Oiseau de feu, Suite (1919) - 1. Introduction
DR11 -1.67 dB -15.32 dB 1:09 02-Stravinsky: L'Oiseau de feu, Suite (1919) - 2. Dance of the firebird
DR12 -2.90 dB -20.50 dB 5:42 03-Stravinsky: L'Oiseau de feu, Suite (1919) - 3. Round dance of the princesses
DR8 -0.13 dB -11.33 dB 4:31 04-Stravinsky: L'Oiseau de feu, Suite (1919) - 4. Infernal dance of king Kashchei
DR9 -2.07 dB -18.17 dB 3:46 05-Stravinsky: L'Oiseau de feu, Suite (1919) - 5. Lullaby
DR7 -0.13 dB -10.69 dB 3:32 06-Stravinsky: L'Oiseau de feu, Suite (1919) - 6. Finale
DR12 -3.10 dB -21.71 dB 11:53 07-Debussy: Prйlude а l'aprиs midi d'un faune (1894)
DR13 -0.73 dB -20.38 dB 9:45 08-Debussy: La Mer (1905) - 1. De l'aube а midi sur la mer
DR12 -1.03 dB -19.91 dB 7:59 09-Debussy: La Mer (1905) - 2. Jeux de vagues
DR11 -0.18 dB -16.34 dB 8:59 10-Debussy: La Mer (1905) - 3. Dialogue du vent et de la mer
DR10 -1.90 dB -18.85 dB 3:41 11-Messiaen: L'Ascension, Quatre mйditations symphoniques - 1. Majestй du Christ…
DR11 -2.33 dB -19.84 dB 5:07 12-Messiaen: L'Ascension, Quatre mйditations symphoniques - 2. Allйluias sereins…
DR11 -1.19 dB -16.05 dB 6:15 13-Messiaen: L'Ascension, Quatre mйditations symphoniques - 3. Allйluia sur la t…
DR9 -3.71 dB -17.11 dB 4:43 14-Messiaen: L'Ascension, Quatre mйditations symphoniques - 4. Priиre du Christ …
––––––––––––––––––––––––––––––––––––––––

Number of tracks: 14
Official DR value: DR11

Samplerate: 44100 Hz
Channels: 2
Bits per sample: 16
Bitrate: 690 kbps
Codec: FLAC
================================================================================




Leopold Stokowski - Decca Recordings 1965-1972: Original Masters (2003) 5CD Box Set

All thanks to original releaser - Segey61

More interesting music in My Blog