Tags
Language
Tags

Leos Janacek - Chamber Music, Orchestral Works (2004) 5CD Box Set

Posted By:
Leos Janacek - Chamber Music, Orchestral Works (2004) 5CD Box Set

Leos Janáček - Chamber Music, Orchestral Works (2004) 5CD Box Set
Paul Crossley, Christopher Van Kampen, Kenneth Sillito, Thomas Trotter
Gabrieli String Quartet, London Sinfonietta, Los Angeles Chamber Orchestra
Slovak Philharmonic Choir, Wiener Philharmoniker, Riccardo Chailly
Charles Mackerras, François Huybrechts, Neville Marriner, David Atherton
Eva Urbanová, Vladimir Bogachov, Marta Benacková, Richard Novák

EAC | FLAC | Image (Cue&Log) ~ 1.48 Gb | Mp3 (CBR320) ~ 837 Mb | Scans ~ 20 Mb
Genre: Classical | Label: Decca | # 475 523-2 DC5 | Time: 06:04:07

To celebrate the 150th anniversary of Janáček’s birth, this Decca Collector Edition brings together most of the composer’s chamber works and solo pieces plus his most popular orchestral works and the magnificent Glagolitic Mass in a superb digital recording with Riccardo Chailly and Wiener Philharmoniker. The recordings of the solo works and chamber pieces feature one of the world’s most distinguished ensembles: the London Sinfonietta and David Atherton. Their recordings were originally released as a 5-LP set in 1981 and many of these performances have not been available for several years; many also make their first international appearance on CD. This set provides the listener with all the essential non-operatic Janáček in one convenient collection.

This may not need to be the only Janácek set on the shelf, but it is surely a good place to start a Janácek collection. Outside of the operas, all Janácek's core works are here as well as a few oddballs. But for the core works, the performances in this set are as good or better than any other non-Czech performance. Paul Crossley's performances of the piano works are startlingly expressionistic and completely convincing. The Gabrieli String Quartet's performances of the string quartets are stunningly erotic and absolutely persuasive. And, of course, Charles Mackerras and the Vienna Philharmonic's performances of the Sinfonietta and Taras Bulba are staggeringly dramatic and utterly compelling. Even in the oddball works like the Nursery Rhymes and Youth, the predominantly English performers are credible enough. Neville Marriner's recording of the Suite for strings is in the same ineffable league as Mackerras and only Riccardo Chailly's Glagolic Mass is distinctly substandard. While a truly representative Janácek shelf would include at least four of the operas, plus recordings of the core works by Czech performers, this Decca set is well worth hearing. With recordings as old as 1970 and as recent as 1997, Decca's sound is uniformly clear and warm.

Review by James Leonard, Allmusic.com

Leos Janacek - Chamber Music, Orchestral Works (2004) 5CD Box Set



Tracklist:

CD1 (1:13:30):

On an overgrown path - First Series
01. 1. Our evenings (3:48)
02. 2. A blown away leaf (3:15)
03. 3. Come with us! (1:13)
04. 4. The Madonna of Frydek (4:09)
05. 5. They chattered like swallows (2:03)
06. 6. Words fail! (2:17)
07. 7. Good night! (2:47)
08. 8. Unutterable anguish (2:56)
09. 9. In tears (3:00)
10. 10. The barn owl has not flown away! (3:41)

On an overgrown path - Second Series
11. 1. Andante (2:49)
12. 2. Allegretto (3:16)

On an overgrown path - Suplementum
13. 1. Piu mosso (2:36)
14. 2. Allegro (5:11)
15. 3. Vivo (2:01)

16. Theme and Variations for solo piano (11:36)

In the Mists, JW 8/22
17. I. Andante (3:38)
18. II. Molto adagio - Presto (4:40)
19. III. Andantino (2:42)
20. IV. Presto (4:44)

21. Reminiscence (Vzpominka) for piano solo (1:08)

- Paul Crossley, piano (01-21)
Decca Studios, West Hampstead, London, July 1978, November 1979

–––––––––––––––––––––––––-
–––––––––––––––––––––––––-

CD2(1:14:40):

String Quartet No.1 'Kreutzersonate'
01. I- Adagio - con moto (4:36)
02. II- Con moto (4:10)
03. III- Con moto (4:07)
04. IV- Con moto - Adagio (5:47)

String Quartet No.2 'Listy Duverne'
05. I- Andante - Con moto - Allegro (5:56)
06. II- Adagio - Vivace (6:21)
07. III- Moderato - Adagio - Allegro (5:56)
08. IV- Allegro - Andante - Allegro (7:53)

- Gabrieli String Quartet (01-08)
Kenneth Sillito, violin I; Brendan O'Reilly, violin II,
Ian Jewel, viola; Keith Harvey, cello
Recorded at: Rosslyn Hill Chapel, London, May 1977

Violin Sonata
09. I- Con moto (5:43)
10. II- Ballada - Con moto (5:39)
11. III- Allegretto (2:37)
12. IV- Adagio (4:55)


13. Dumka for Violin and Piano (5:48)

14. Romance for Violin and Piano (5:12)

- Kenneth Sillito (violin), Paul Crossley (piano) (09-14)
Decca Studios, West Hampstead, London, July 1978

–––––––––––––––––––––––––-
–––––––––––––––––––––––––-

CD3 (1:10:25):

Mládi, JW 7/10 for wind sextet
01. I- Andante (3:50)
02. II- Moderato (5:10)
03. III- Allegro (3:45)
04. IV- Con moto (4:29)

- Sebastian Bell, flute/piccolo; Janet Craxton, oboe;
Anthony Pay, clarinet; Michael Harris, bass clarinet;
Martin Gatt, bassoon; Phillip Eastop, horn (01-04)
Rosslyn Hill Chapel, London, July 1978

Capriccio 'Vzdor'
05. I- Allegro (5:02)
06. II- Adagio (6:03)
07. III- Allegretto (3:38)
08. IV- Andante (6:32)

- Paul Crossley (piano), London Sinfonietta, David Atherton (05-08)
Rosslyn Hill Chapel, London, January 1978

Concertino
09. I- Moderato (6:03)
10. II- Piu mosso (3:28)
11. III- Con moto (3:41)
12. IV- Allegro (4:28)

- London Sinfonietta, David Atherton (09-12)
Rosslyn Hill Chapel, London, January 1978

Pohadka For Cello And Piano
13. I- Con moto (5:11)
14. II- Con moto (4:19)
15. III- Allegro (2:46)

16. Presto for cello and piano (2:01)

- Christopher van Kampen (cello), Paul Crossley (piano) (13-16)
Decca Studios, West Hampstead, London, January 1979

–––––––––––––––––––––––––-
–––––––––––––––––––––––––-

CD4 (1:10:30):

Sinfonietta
01. I- Allegretto (2:25)
02. II- Andante (6:10)
03. III- Moderato (5:24)
04. IV- Allegretto (3:04)
05. V- Andante con moto (7:23)

Taras Bulba, JW 6/15
06. I- The Death of Andrij (8:54)
07. II- The Death of Ostap (5:31)
08. III- The Prophesy and Death of Taras Bulba (9:10)

- Wiener Philharmoniker, Charles Mackerras (01-08)
Sofiensaal, Vienna, March 1980

Lachian dances
09. I- Starodavny I (6:35)
10. II- Pozehnany (2:28)
11. III- Dymak (2:15)
12. IV- Starodavny II (5:55)
13. V- Celadensky (2:03)
14. VI- Pilky (3:13)

- London Philharmonic Orchestra, François Huybrechts (09-14)
Kingsway Hall, London, October 1970

–––––––––––––––––––––––––-
–––––––––––––––––––––––––-

CD5 (1:15:02):


Suite for String Orchestra
01. I- Moderato (4:37)
02. II- Adagio (3:42)
03. III- Andante con moto (1:22)
04. IV- Presto - Andante - Presto (2:41)
05. V- Adagio (3:12)
06. VI- Andante (3:28)

- Los Angeles Chamber Orchestra, Neville Marriner (01-06)
St John's, Smith Square, London, June 1974


07. Říkadla - Nursery rhymes for Chamber Choir and Ensemble (15:26)

- London Sinfonietta Chorus, London Sinfonietta, David Atherton (07)
Rosslyn Hill Chapel, London, July 1978


Glagolitic Mass
08. I- Uvod (Introduction) (3:33)
09. II- Gospodi pomiluj (Kyrie) (3:30)
10. III- Slava (Gloria) (6:24)
11. IV- Veruju (Credo) (11:38)
12. V- Svet (Sanctus) (6:07)
13. VI- Agnece Bozij (Agnus Dei) (4:49)
14. VII- Allegro (organ solo) (2:49)
15. VIII- Intrada (1:43)

- Eva Urbanova, soprano (09-13), Marta Beňačková, mezzo-soprano (12-13),
Vladimir Bogachov, tenor (10-13), Richard Novak, bass (11-13),
Slovak Philharmonic Choir (10-13), Wiener Philharmoniker, Riccardo Chailly (08-13, 15)
Thomas Trotter, organ (10-11, 14)
Konzerthaus Wien, Austria, June 1997


Exact Audio Copy V0.99 prebeta 4 from 23. January 2008

EAC extraction logfile from 8. September 2009, 2:32

Paul Crossley / Janacek - Chamber & Orchestral Works (CD1, Piano Works)

Used drive : TSSTcorpCD/DVDW TS-L632D Adapter: 5 ID: 0

Read mode : Secure
Utilize accurate stream : Yes
Defeat audio cache : Yes
Make use of C2 pointers : No

Read offset correction : 6
Overread into Lead-In and Lead-Out : No
Fill up missing offset samples with silence : Yes
Delete leading and trailing silent blocks : No
Null samples used in CRC calculations : Yes
Used interface : Native Win32 interface for Win NT & 2000
Gap handling : Appended to previous track

Used output format : User Defined Encoder
Selected bitrate : 1024 kBit/s
Quality : High
Add ID3 tag : No
Command line compressor : C:\Program Files\FLAC\flac.exe
Additional command line options : -5 -V -T "ARTIST=%a" -T "TITLE=%t" -T "ALBUM=%g" -T "DATE=%y" -T "TRACKNUMBER=%n" -T "GENRE=%m" -T "COMMENT=EAC Flac1.1.3 -5" %s


TOC of the extracted CD

Track | Start | Length | Start sector | End sector
––––––––––––––––––––––––––––-
1 | 0:00.00 | 3:47.62 | 0 | 17086
2 | 3:47.62 | 3:15.24 | 17087 | 31735
3 | 7:03.11 | 1:13.13 | 31736 | 37223
4 | 8:16.24 | 4:09.17 | 37224 | 55915
5 | 12:25.41 | 2:03.13 | 55916 | 65153
6 | 14:28.54 | 2:16.39 | 65154 | 75392
7 | 16:45.18 | 2:46.57 | 75393 | 87899
8 | 19:32.00 | 2:56.08 | 87900 | 101107
9 | 22:28.08 | 2:59.66 | 101108 | 114598
10 | 25:27.74 | 3:41.12 | 114599 | 131185
11 | 29:09.11 | 2:49.28 | 131186 | 143888
12 | 31:58.39 | 3:15.57 | 143889 | 158570
13 | 35:14.21 | 2:35.68 | 158571 | 170263
14 | 37:50.14 | 5:10.57 | 170264 | 193570
15 | 43:00.71 | 2:00.50 | 193571 | 202620
16 | 45:01.46 | 11:36.33 | 202621 | 254853
17 | 56:38.04 | 3:37.62 | 254854 | 271190
18 | 60:15.66 | 4:40.04 | 271191 | 292194
19 | 64:55.70 | 2:42.37 | 292195 | 304381
20 | 67:38.32 | 4:43.54 | 304382 | 325660
21 | 72:22.11 | 1:08.23 | 325661 | 330783


Track 1

Filename D:\Music\My Torrents\Janacek - Chamber Music, Orchestral Works (2004) [FLAC]\Disc 1 of 5\01 - On an overgrown path - First Series - 1. Our evenings.wav

Pre-gap length 0:00:02.00

Peak level 99.4 %
Track quality 100.0 %
Test CRC 0318A423
Copy CRC 0318A423
Accurately ripped (confidence 3) [98055AC6]
Copy OK

Track 2

Filename D:\Music\My Torrents\Janacek - Chamber Music, Orchestral Works (2004) [FLAC]\Disc 1 of 5\02 - On an overgrown path - First Series - 2. A blown away leaf.wav

Peak level 99.4 %
Track quality 100.0 %
Test CRC DC3316DE
Copy CRC DC3316DE
Accurately ripped (confidence 3) [902627AF]
Copy OK

Track 3

Filename D:\Music\My Torrents\Janacek - Chamber Music, Orchestral Works (2004) [FLAC]\Disc 1 of 5\03 - On an overgrown path - First Series - 3. Come with us!.wav

Peak level 66.9 %
Track quality 100.0 %
Test CRC 54629AA7
Copy CRC 54629AA7
Accurately ripped (confidence 3) [8AC92AEE]
Copy OK

Track 4

Filename D:\Music\My Torrents\Janacek - Chamber Music, Orchestral Works (2004) [FLAC]\Disc 1 of 5\04 - On an overgrown path - First Series - 4. The Madonna of Frydek.wav

Peak level 99.4 %
Track quality 100.0 %
Test CRC 6FFD5E96
Copy CRC 6FFD5E96
Accurately ripped (confidence 3) [20DD1767]
Copy OK

Track 5

Filename D:\Music\My Torrents\Janacek - Chamber Music, Orchestral Works (2004) [FLAC]\Disc 1 of 5\05 - On an overgrown path - First Series - 5. They chattered like swallows.wav

Peak level 68.6 %
Track quality 99.9 %
Test CRC 30818523
Copy CRC 30818523
Accurately ripped (confidence 3) [6C7C0BE4]
Copy OK

Track 6

Filename D:\Music\My Torrents\Janacek - Chamber Music, Orchestral Works (2004) [FLAC]\Disc 1 of 5\06 - On an overgrown path - First Series - 6. Words fail!.wav

Peak level 53.2 %
Track quality 100.0 %
Test CRC 099E9808
Copy CRC 099E9808
Accurately ripped (confidence 3) [C4A38001]
Copy OK

Track 7

Filename D:\Music\My Torrents\Janacek - Chamber Music, Orchestral Works (2004) [FLAC]\Disc 1 of 5\07 - On an overgrown path - First Series - 7. Good night!.wav

Peak level 76.0 %
Track quality 100.0 %
Test CRC ADD82E8F
Copy CRC ADD82E8F
Accurately ripped (confidence 3) [34D4B779]
Copy OK

Track 8

Filename D:\Music\My Torrents\Janacek - Chamber Music, Orchestral Works (2004) [FLAC]\Disc 1 of 5\08 - On an overgrown path - First Series - 8. Unutterable anguish.wav

Peak level 77.5 %
Track quality 100.0 %
Test CRC 021254F2
Copy CRC 021254F2
Accurately ripped (confidence 3) [7C07937C]
Copy OK

Track 9

Filename D:\Music\My Torrents\Janacek - Chamber Music, Orchestral Works (2004) [FLAC]\Disc 1 of 5\09 - On an overgrown path - First Series - 9. In tears.wav

Peak level 52.9 %
Track quality 100.0 %
Test CRC AD0283CE
Copy CRC AD0283CE
Accurately ripped (confidence 3) [C74B1BDA]
Copy OK

Track 10

Filename D:\Music\My Torrents\Janacek - Chamber Music, Orchestral Works (2004) [FLAC]\Disc 1 of 5\10 - On an overgrown path - First Series - 10. The barn owl has not flown away!.wav

Peak level 99.4 %
Track quality 99.9 %
Test CRC BF90FB89
Copy CRC BF90FB89
Accurately ripped (confidence 3) [3AAF3DCF]
Copy OK

Track 11

Filename D:\Music\My Torrents\Janacek - Chamber Music, Orchestral Works (2004) [FLAC]\Disc 1 of 5\11 - On an overgrown path - Second Series - 1. Andante.wav

Peak level 95.0 %
Track quality 100.0 %
Test CRC A8889292
Copy CRC A8889292
Accurately ripped (confidence 3) [0188CB52]
Copy OK

Track 12

Filename D:\Music\My Torrents\Janacek - Chamber Music, Orchestral Works (2004) [FLAC]\Disc 1 of 5\12 - On an overgrown path - Second Series - 2. Allegretto.wav

Peak level 97.9 %
Track quality 100.0 %
Test CRC 415B3CA2
Copy CRC 415B3CA2
Accurately ripped (confidence 3) [2B7FB84D]
Copy OK

Track 13

Filename D:\Music\My Torrents\Janacek - Chamber Music, Orchestral Works (2004) [FLAC]\Disc 1 of 5\13 - On an overgrown path - Suplementum - 1. Piu mosso.wav

Peak level 69.8 %
Track quality 100.0 %
Test CRC E0B0C03F
Copy CRC E0B0C03F
Accurately ripped (confidence 3) [32397BA9]
Copy OK

Track 14

Filename D:\Music\My Torrents\Janacek - Chamber Music, Orchestral Works (2004) [FLAC]\Disc 1 of 5\14 - On an overgrown path - Suplementum - 2. Allegro.wav

Peak level 89.2 %
Track quality 100.0 %
Test CRC BC8D9344
Copy CRC BC8D9344
Accurately ripped (confidence 3) [300E07B8]
Copy OK

Track 15

Filename D:\Music\My Torrents\Janacek - Chamber Music, Orchestral Works (2004) [FLAC]\Disc 1 of 5\15 - On an overgrown path - Suplementum - 3. Vivo.wav

Peak level 97.7 %
Track quality 100.0 %
Test CRC 91C81BE1
Copy CRC 91C81BE1
Accurately ripped (confidence 3) [4B70D464]
Copy OK

Track 16

Filename D:\Music\My Torrents\Janacek - Chamber Music, Orchestral Works (2004) [FLAC]\Disc 1 of 5\16 - Tema con variazioni.wav

Pre-gap length 0:00:04.36

Peak level 99.4 %
Track quality 100.0 %
Test CRC E53D49DC
Copy CRC E53D49DC
Accurately ripped (confidence 3) [EFCA5952]
Copy OK

Track 17

Filename D:\Music\My Torrents\Janacek - Chamber Music, Orchestral Works (2004) [FLAC]\Disc 1 of 5\17 - In the mist - I. Andante.wav

Pre-gap length 0:00:04.76

Peak level 74.8 %
Track quality 99.9 %
Test CRC B72F0DBD
Copy CRC B72F0DBD
Accurately ripped (confidence 3) [F82FE2B3]
Copy OK

Track 18

Filename D:\Music\My Torrents\Janacek - Chamber Music, Orchestral Works (2004) [FLAC]\Disc 1 of 5\18 - In the mist - II. Molto adagio - Presto.wav

Peak level 98.0 %
Track quality 100.0 %
Test CRC 4E4AE571
Copy CRC 4E4AE571
Accurately ripped (confidence 3) [D849887B]
Copy OK

Track 19

Filename D:\Music\My Torrents\Janacek - Chamber Music, Orchestral Works (2004) [FLAC]\Disc 1 of 5\19 - In the mist - III. Andantino.wav

Peak level 80.4 %
Track quality 100.0 %
Test CRC B78E872D
Copy CRC B78E872D
Accurately ripped (confidence 3) [BAD884EC]
Copy OK

Track 20

Filename D:\Music\My Torrents\Janacek - Chamber Music, Orchestral Works (2004) [FLAC]\Disc 1 of 5\20 - In the mist - IV. Presto.wav

Peak level 96.0 %
Track quality 100.0 %
Test CRC 38788A67
Copy CRC 38788A67
Accurately ripped (confidence 3) [398BDEEB]
Copy OK

Track 21

Filename D:\Music\My Torrents\Janacek - Chamber Music, Orchestral Works (2004) [FLAC]\Disc 1 of 5\21 - A Recollection.wav

Pre-gap length 0:00:04.76

Peak level 96.0 %
Track quality 100.0 %
Test CRC 062B701D
Copy CRC 062B701D
Accurately ripped (confidence 3) [E80761F5]
Copy OK


All tracks accurately ripped

No errors occurred

End of status report

[CUETools log; Date: 27.06.2017 21:11:35; Version: 2.1.4]
[CTDB TOCID: SWSi2V9Rw_oTtYbjGIdZe7p5OJM-] found.
Track | CTDB Status
1 | (13/13) Accurately ripped
2 | (13/13) Accurately ripped
3 | (13/13) Accurately ripped
4 | (13/13) Accurately ripped
5 | (13/13) Accurately ripped
6 | (13/13) Accurately ripped
7 | (13/13) Accurately ripped
8 | (13/13) Accurately ripped
9 | (13/13) Accurately ripped
10 | (13/13) Accurately ripped
11 | (13/13) Accurately ripped
12 | (13/13) Accurately ripped
13 | (13/13) Accurately ripped
14 | (13/13) Accurately ripped
15 | (13/13) Accurately ripped
16 | (13/13) Accurately ripped
17 | (13/13) Accurately ripped
18 | (13/13) Accurately ripped
19 | (13/13) Accurately ripped
20 | (13/13) Accurately ripped
21 | (13/13) Accurately ripped
[AccurateRip ID: 003359a6-03283054-1a113a15] found.
Track [ CRC | V2 ] Status
01 [98055ac6|3035fdee] (08+11/21) Accurately ripped
02 [902627af|302d4adb] (08+11/21) Accurately ripped
03 [8ac92aee|e74d2f43] (08+11/21) Accurately ripped
04 [20dd1767|2b69ce5c] (08+11/21) Accurately ripped
05 [6c7c0be4|62db96c6] (08+11/21) Accurately ripped
06 [c4a38001|5a8a13bc] (08+11/21) Accurately ripped
07 [34d4b779|60ebe517] (08+10/20) Accurately ripped
08 [7c07937c|d204211a] (08+11/21) Accurately ripped
09 [c74b1bda|7c9d2dbf] (08+11/21) Accurately ripped
10 [3aaf3dcf|29a80e74] (08+10/20) Accurately ripped
11 [0188cb52|66e43211] (08+10/20) Accurately ripped
12 [2b7fb84d|7126934e] (08+11/21) Accurately ripped
13 [32397ba9|cd705565] (08+11/21) Accurately ripped
14 [300e07b8|481b3e30] (08+11/21) Accurately ripped
15 [4b70d464|19bf8243] (08+11/21) Accurately ripped
16 [efca5952|49c55fa3] (08+11/21) Accurately ripped
17 [f82fe2b3|efa27a25] (08+11/21) Accurately ripped
18 [d849887b|cef6c87f] (08+11/21) Accurately ripped
19 [bad884ec|c539137f] (08+10/20) Accurately ripped
20 [398bdeeb|f759bd49] (08+11/21) Accurately ripped
21 [e80761f5|da4ce879] (08+11/21) Accurately ripped
Offsetted by -6:
01 [e59bc2fa] (02/21) Accurately ripped
02 [33023a2b] (02/21) Accurately ripped
03 [5dca129e] (02/21) Accurately ripped
04 [ac3d78fe] (02/21) Accurately ripped
05 [d08078f6] (02/21) Accurately ripped
06 [4d95221c] (02/21) Accurately ripped
07 [99821850] (02/20) Accurately ripped
08 [cfcc4393] (02/21) Accurately ripped
09 [9dbcf15d] (02/21) Accurately ripped
10 [e471621e] (02/20) Accurately ripped
11 [6ec43b40] (02/20) Accurately ripped
12 [24fe0470] (02/21) Accurately ripped
13 [ba15164f] (02/21) Accurately ripped
14 [b8176982] (02/21) Accurately ripped
15 [4ebbcb1f] (02/21) Accurately ripped
16 [9ff3fb66] (02/21) Accurately ripped
17 [5decaf4c] (02/21) Accurately ripped
18 [8648d6ae] (02/21) Accurately ripped
19 [7e2545ca] (02/20) Accurately ripped
20 [252e1681] (02/21) Accurately ripped
21 [71a0fd3b] (02/21) Accurately ripped

Track Peak [ CRC32 ] [W/O NULL] [ LOG ]
– 99,4 [39972294] [128850DC]
01 99,4 [0318A423] [835C3AF8] CRC32
02 99,4 [DC3316DE] [65033A8C] CRC32
03 66,9 [54629AA7] [FEF5470E] CRC32
04 99,4 [6FFD5E96] [5EF0BED3] CRC32
05 68,6 [30818523] [5C38F419] CRC32
06 53,2 [099E9808] [CB1BB261] CRC32
07 76,0 [ADD82E8F] [C6F975CC] CRC32
08 77,5 [021254F2] [F4733A06] CRC32
09 52,9 [AD0283CE] [FFECFEC6] CRC32
10 99,4 [BF90FB89] [B252237D] CRC32
11 95,0 [A8889292] [D4A25334] CRC32
12 97,9 [415B3CA2] [B8156B26] CRC32
13 69,8 [E0B0C03F] [D813C095] CRC32
14 89,2 [BC8D9344] [98BF2116] CRC32
15 97,7 [91C81BE1] [B354D4CC] CRC32
16 99,4 [E53D49DC] [0744E076] CRC32
17 74,8 [B72F0DBD] [8D4132F7] CRC32
18 98,0 [4E4AE571] [5E32AD13] CRC32
19 80,4 [B78E872D] [F3D5479D] CRC32
20 96,0 [38788A67] [CC464E7F] CRC32
21 96,0 [062B701D] [98A0FC7F] CRC32

foobar2000 1.2 / Dynamic Range Meter 1.1.1
log date: 2017-06-28 02:32:17

––––––––––––––––––––––––––––––––––––––––
Analyzed: Paul Crossley / Janacek - Chamber & Orchestral Works (CD1, Piano Works)
––––––––––––––––––––––––––––––––––––––––

DR Peak RMS Duration Track
––––––––––––––––––––––––––––––––––––––––
DR15 -0.05 dB -22.09 dB 3:48 01-On an overgrown path - First Series - 1. Our evenings
DR14 -0.05 dB -19.06 dB 3:15 02-On an overgrown path - First Series - 2. A blown away leaf
DR12 -3.49 dB -21.89 dB 1:13 03-On an overgrown path - First Series - 3. Come with us!
DR16 -0.05 dB -22.54 dB 4:09 04-On an overgrown path - First Series - 4. The Madonna of Frydek
DR11 -3.27 dB -19.03 dB 2:03 05-On an overgrown path - First Series - 5. They chattered like swallows
DR13 -5.48 dB -23.95 dB 2:17 06-On an overgrown path - First Series - 6. Words fail!
DR13 -2.38 dB -22.72 dB 2:47 07-On an overgrown path - First Series - 7. Good night!
DR11 -2.21 dB -19.12 dB 2:56 08-On an overgrown path - First Series - 8. Unutterable anguish
DR13 -5.52 dB -24.79 dB 3:00 09-On an overgrown path - First Series - 9. In tears
DR14 -0.05 dB -19.10 dB 3:41 10-On an overgrown path - First Series - 10. The barn owl has not flown away!
DR13 -0.44 dB -20.56 dB 2:49 11-On an overgrown path - Second Series - 1. Andante
DR12 -0.18 dB -18.91 dB 3:16 12-On an overgrown path - Second Series - 2. Allegretto
DR12 -3.12 dB -20.15 dB 2:36 13-On an overgrown path - Suplementum - 1. Piu mosso
DR13 -0.99 dB -20.27 dB 5:11 14-On an overgrown path - Suplementum - 2. Allegro
DR11 -0.20 dB -16.68 dB 2:01 15-On an overgrown path - Suplementum - 3. Vivo
DR13 -0.05 dB -18.88 dB 11:36 16-Tema con variazioni
DR12 -2.51 dB -21.39 dB 3:38 17-In the mist - I. Andante
DR14 -0.17 dB -23.29 dB 4:40 18-In the mist - II. Molto adagio - Presto
DR13 -1.89 dB -20.80 dB 2:42 19-In the mist - III. Andantino
DR13 -0.35 dB -20.01 dB 4:44 20-In the mist - IV. Presto
DR12 -0.35 dB -17.79 dB 1:08 21-A Recollection
––––––––––––––––––––––––––––––––––––––––

Number of tracks: 21
Official DR value: DR13

Samplerate: 44100 Hz
Channels: 2
Bits per sample: 16
Bitrate: 495 kbps
Codec: FLAC
================================================================================


Exact Audio Copy V0.99 prebeta 4 from 23. January 2008

EAC extraction logfile from 8. September 2009, 3:30

Gabrieli String Quartet, Crossley, Stillito / Janacek - Chamber Music (CD2)

Used drive : TSSTcorpCD/DVDW TS-L632D Adapter: 5 ID: 0

Read mode : Secure
Utilize accurate stream : Yes
Defeat audio cache : Yes
Make use of C2 pointers : No

Read offset correction : 6
Overread into Lead-In and Lead-Out : No
Fill up missing offset samples with silence : Yes
Delete leading and trailing silent blocks : No
Null samples used in CRC calculations : Yes
Used interface : Native Win32 interface for Win NT & 2000
Gap handling : Appended to previous track

Used output format : User Defined Encoder
Selected bitrate : 1024 kBit/s
Quality : High
Add ID3 tag : No
Command line compressor : C:\Program Files\FLAC\flac.exe
Additional command line options : -5 -V -T "ARTIST=%a" -T "TITLE=%t" -T "ALBUM=%g" -T "DATE=%y" -T "TRACKNUMBER=%n" -T "GENRE=%m" -T "COMMENT=EAC Flac1.1.3 -5" %s


TOC of the extracted CD

Track | Start | Length | Start sector | End sector
––––––––––––––––––––––––––––-
1 | 0:00.00 | 4:36.10 | 0 | 20709
2 | 4:36.10 | 4:09.40 | 20710 | 39424
3 | 8:45.50 | 4:06.55 | 39425 | 57929
4 | 12:52.30 | 5:46.55 | 57930 | 83934
5 | 18:39.10 | 5:55.70 | 83935 | 110629
6 | 24:35.05 | 6:20.43 | 110630 | 139172
7 | 30:55.48 | 5:56.27 | 139173 | 165899
8 | 36:52.00 | 7:53.00 | 165900 | 201374
9 | 44:45.00 | 5:43.00 | 201375 | 227099
10 | 50:28.00 | 5:38.43 | 227100 | 252492
11 | 56:06.43 | 2:37.25 | 252493 | 264292
12 | 58:43.68 | 4:54.67 | 264293 | 286409
13 | 63:38.60 | 5:48.35 | 286410 | 312544
14 | 69:27.20 | 5:12.30 | 312545 | 335974


Track 1

Filename D:\Music\My Torrents\Janacek - Chamber Music, Orchestral Works (2004) [FLAC]\Disc 2 of 5\01 - String Quartet No.1 'Kreutzersonate' -I- Adagio - con moto.wav

Pre-gap length 0:00:02.00

Peak level 57.3 %
Track quality 100.0 %
Test CRC 1D31ABC5
Copy CRC 1D31ABC5
Accurately ripped (confidence 2) [98DCC0BD]
Copy OK

Track 2

Filename D:\Music\My Torrents\Janacek - Chamber Music, Orchestral Works (2004) [FLAC]\Disc 2 of 5\02 - String Quartet No.1 'Kreutzersonate' -II- Con moto.wav

Pre-gap length 0:00:05.80

Peak level 83.0 %
Track quality 100.0 %
Test CRC F605702B
Copy CRC F605702B
Accurately ripped (confidence 2) [DDAB6B1B]
Copy OK

Track 3

Filename D:\Music\My Torrents\Janacek - Chamber Music, Orchestral Works (2004) [FLAC]\Disc 2 of 5\03 - String Quartet No.1 'Kreutzersonate' -III- Con moto.wav

Pre-gap length 0:00:05.66

Peak level 61.1 %
Track quality 99.9 %
Test CRC DFF68440
Copy CRC DFF68440
Accurately ripped (confidence 2) [C702CB3B]
Copy OK

Track 4

Filename D:\Music\My Torrents\Janacek - Chamber Music, Orchestral Works (2004) [FLAC]\Disc 2 of 5\04 - String Quartet No.1 'Kreutzersonate' -IV- Con moto - Adagio.wav

Pre-gap length 0:00:05.66

Peak level 50.9 %
Track quality 100.0 %
Test CRC 429B33E0
Copy CRC 429B33E0
Accurately ripped (confidence 2) [71A8FB89]
Copy OK

Track 5

Filename D:\Music\My Torrents\Janacek - Chamber Music, Orchestral Works (2004) [FLAC]\Disc 2 of 5\05 - String Quartet No.2 'Listy Duverne' -I- Andante - Con moto - Allegro.wav

Pre-gap length 0:00:06.82

Peak level 55.9 %
Track quality 100.0 %
Test CRC 68BAEE21
Copy CRC 68BAEE21
Accurately ripped (confidence 2) [8FBA4DFF]
Copy OK

Track 6

Filename D:\Music\My Torrents\Janacek - Chamber Music, Orchestral Works (2004) [FLAC]\Disc 2 of 5\06 - String Quartet No.2 'Listy Duverne' -II- Adagio - Vivace.wav

Pre-gap length 0:00:05.36

Peak level 64.1 %
Track quality 100.0 %
Test CRC BD11B5EF
Copy CRC BD11B5EF
Accurately ripped (confidence 2) [1DFAF81B]
Copy OK

Track 7

Filename D:\Music\My Torrents\Janacek - Chamber Music, Orchestral Works (2004) [FLAC]\Disc 2 of 5\07 - String Quartet No.2 'Listy Duverne' -III- Moderato - Adagio - Allegro.wav

Pre-gap length 0:00:05.53

Peak level 79.9 %
Track quality 100.0 %
Test CRC 9E1C8B91
Copy CRC 9E1C8B91
Accurately ripped (confidence 2) [49B7023A]
Copy OK

Track 8

Filename D:\Music\My Torrents\Janacek - Chamber Music, Orchestral Works (2004) [FLAC]\Disc 2 of 5\08 - String Quartet No.2 'Listy Duverne' -IV- Allegro - Andante - Allegro.wav

Pre-gap length 0:00:04.49

Peak level 83.0 %
Track quality 100.0 %
Test CRC 812F4C9A
Copy CRC 812F4C9A
Accurately ripped (confidence 2) [3BFD845A]
Copy OK

Track 9

Filename D:\Music\My Torrents\Janacek - Chamber Music, Orchestral Works (2004) [FLAC]\Disc 2 of 5\09 - Violin Sonata -I- Con moto.wav

Pre-gap length 0:00:07.66

Peak level 63.8 %
Track quality 99.9 %
Test CRC 06B747C4
Copy CRC 06B747C4
Accurately ripped (confidence 2) [E43D30E3]
Copy OK

Track 10

Filename D:\Music\My Torrents\Janacek - Chamber Music, Orchestral Works (2004) [FLAC]\Disc 2 of 5\10 - Violin Sonata -II- Ballada - Con moto.wav

Pre-gap length 0:00:04.22

Peak level 54.0 %
Track quality 100.0 %
Test CRC A625FA9E
Copy CRC A625FA9E
Accurately ripped (confidence 2) [D9C1392F]
Copy OK

Track 11

Filename D:\Music\My Torrents\Janacek - Chamber Music, Orchestral Works (2004) [FLAC]\Disc 2 of 5\11 - Violin Sonata -III- Allegretto.wav

Pre-gap length 0:00:02.04

Peak level 73.4 %
Track quality 100.0 %
Test CRC 057383D8
Copy CRC 057383D8
Accurately ripped (confidence 2) [77AF0C70]
Copy OK

Track 12

Filename D:\Music\My Torrents\Janacek - Chamber Music, Orchestral Works (2004) [FLAC]\Disc 2 of 5\12 - Violin Sonata -IV- Adagio.wav

Pre-gap length 0:00:02.90

Peak level 66.1 %
Track quality 100.0 %
Test CRC FC0D9790
Copy CRC FC0D9790
Accurately ripped (confidence 2) [466FCCBF]
Copy OK

Track 13

Filename D:\Music\My Torrents\Janacek - Chamber Music, Orchestral Works (2004) [FLAC]\Disc 2 of 5\13 - Dumka for Violin and Piano.wav

Pre-gap length 0:00:08.46

Peak level 74.3 %
Track quality 100.0 %
Test CRC F6EF2F4D
Copy CRC F6EF2F4D
Accurately ripped (confidence 2) [B8699873]
Copy OK

Track 14

Filename D:\Music\My Torrents\Janacek - Chamber Music, Orchestral Works (2004) [FLAC]\Disc 2 of 5\14 - Romance for Violin and Piano.wav

Pre-gap length 0:00:03.60

Peak level 55.8 %
Track quality 100.0 %
Test CRC 7E853CDE
Copy CRC 7E853CDE
Accurately ripped (confidence 2) [E3A07BE5]
Copy OK


All tracks accurately ripped

No errors occurred

End of status report

[CUETools log; Date: 27.06.2017 21:11:54; Version: 2.1.4]
[CTDB TOCID: cbVU9xrpGM9E8VpY__IUHu_c6rY-] found.
Track | CTDB Status
1 | (18/18) Accurately ripped
2 | (18/18) Accurately ripped
3 | (18/18) Accurately ripped
4 | (18/18) Accurately ripped
5 | (18/18) Accurately ripped
6 | (18/18) Accurately ripped
7 | (18/18) Accurately ripped
8 | (18/18) Accurately ripped
9 | (18/18) Accurately ripped
10 | (17/18) Accurately ripped
11 | (17/18) Accurately ripped
12 | (18/18) Accurately ripped
13 | (18/18) Accurately ripped
14 | (17/18) Accurately ripped
[AccurateRip ID: 00261d66-019b2e6d-ca117f0e] found.
Track [ CRC | V2 ] Status
01 [98dcc0bd|1c8b14a1] (07+10/17) Accurately ripped
02 [ddab6b1b|9c7f8890] (07+10/17) Accurately ripped
03 [c702cb3b|9e3f23ef] (07+11/18) Accurately ripped
04 [71a8fb89|b1b94bd1] (07+11/18) Accurately ripped
05 [8fba4dff|d1c76c53] (07+11/18) Accurately ripped
06 [1dfaf81b|42839a90] (07+11/18) Accurately ripped
07 [49b7023a|9b46dad2] (07+11/18) Accurately ripped
08 [3bfd845a|ea361e0b] (07+11/18) Accurately ripped
09 [e43d30e3|39f6e273] (07+11/18) Accurately ripped
10 [d9c1392f|e88b75bd] (07+11/18) Accurately ripped
11 [77af0c70|8ec55553] (07+11/18) Accurately ripped
12 [466fccbf|a8673425] (07+11/18) Accurately ripped
13 [b8699873|e56d0809] (07+11/18) Accurately ripped
14 [e3a07be5|b1369492] (08+10/18) Accurately ripped

Track Peak [ CRC32 ] [W/O NULL] [ LOG ]
– 83,0 [AA59456C] [6B634DB8]
01 57,3 [1D31ABC5] [8339CED9] CRC32
02 83,0 [F605702B] [A1AE4D34] CRC32
03 61,1 [DFF68440] [DF0BF8F6] CRC32
04 50,9 [429B33E0] [EA26E636] CRC32
05 55,9 [68BAEE21] [51421E54] CRC32
06 64,1 [BD11B5EF] [39629F30] CRC32
07 79,9 [9E1C8B91] [5E2875F8] CRC32
08 83,0 [812F4C9A] [90E3E136] CRC32
09 63,8 [06B747C4] [3CFB07CC] CRC32
10 54,0 [A625FA9E] [894DDAD9] CRC32
11 73,4 [057383D8] [BD6FBD00] CRC32
12 66,1 [FC0D9790] [4DBA5070] CRC32
13 74,3 [F6EF2F4D] [FF402C7B] CRC32
14 55,8 [7E853CDE] [B78035AF] CRC32

foobar2000 1.2 / Dynamic Range Meter 1.1.1
log date: 2017-06-28 02:32:47

––––––––––––––––––––––––––––––––––––––––
Analyzed: Gabrieli String Quartet, Crossley, Stillito / Janacek - Chamber Music (CD2)
––––––––––––––––––––––––––––––––––––––––

DR Peak RMS Duration Track
––––––––––––––––––––––––––––––––––––––––
DR12 -4.82 dB -22.00 dB 4:36 01-String Quartet No.1 'Kreutzersonate' -I- Adagio - con moto
DR13 -1.61 dB -20.88 dB 4:10 02-String Quartet No.1 'Kreutzersonate' -II- Con moto
DR15 -4.27 dB -23.55 dB 4:07 03-String Quartet No.1 'Kreutzersonate' -III- Con moto
DR13 -5.85 dB -24.24 dB 5:47 04-String Quartet No.1 'Kreutzersonate' -IV- Con moto - Adagio
DR12 -5.04 dB -22.07 dB 5:56 05-String Quartet No.2 'Listy Duverne' -I- Andante - Con moto - Allegro
DR13 -3.85 dB -22.12 dB 6:21 06-String Quartet No.2 'Listy Duverne' -II- Adagio - Vivace
DR14 -1.95 dB -21.41 dB 5:56 07-String Quartet No.2 'Listy Duverne' -III- Moderato - Adagio - Allegro
DR15 -1.61 dB -21.81 dB 7:53 08-String Quartet No.2 'Listy Duverne' -IV- Allegro - Andante - Allegro
DR14 -3.90 dB -23.72 dB 5:43 09-Violin Sonata -I- Con moto
DR13 -5.34 dB -25.69 dB 5:39 10-Violin Sonata -II- Ballada - Con moto
DR14 -2.68 dB -21.50 dB 2:37 11-Violin Sonata -III- Allegretto
DR14 -3.59 dB -24.33 dB 4:55 12-Violin Sonata -IV- Adagio
DR14 -2.58 dB -23.92 dB 5:48 13-Dumka for Violin and Piano
DR14 -5.06 dB -25.43 dB 5:12 14-Romance for Violin and Piano
––––––––––––––––––––––––––––––––––––––––

Number of tracks: 14
Official DR value: DR13

Samplerate: 44100 Hz
Channels: 2
Bits per sample: 16
Bitrate: 559 kbps
Codec: FLAC
================================================================================


Exact Audio Copy V0.99 prebeta 4 from 23. January 2008

EAC extraction logfile from 8. September 2009, 4:48

Members of London Sinfonietta et al / Janacek - Chamber music (CD3)

Used drive : TSSTcorpCD/DVDW TS-L632D Adapter: 5 ID: 0

Read mode : Secure
Utilize accurate stream : Yes
Defeat audio cache : Yes
Make use of C2 pointers : No

Read offset correction : 6
Overread into Lead-In and Lead-Out : No
Fill up missing offset samples with silence : Yes
Delete leading and trailing silent blocks : No
Null samples used in CRC calculations : Yes
Used interface : Native Win32 interface for Win NT & 2000
Gap handling : Appended to previous track

Used output format : User Defined Encoder
Selected bitrate : 1024 kBit/s
Quality : High
Add ID3 tag : No
Command line compressor : C:\Program Files\FLAC\flac.exe
Additional command line options : -5 -V -T "ARTIST=%a" -T "TITLE=%t" -T "ALBUM=%g" -T "DATE=%y" -T "TRACKNUMBER=%n" -T "GENRE=%m" -T "COMMENT=EAC Flac1.1.3 -5" %s


TOC of the extracted CD

Track | Start | Length | Start sector | End sector
––––––––––––––––––––––––––––-
1 | 0:00.00 | 3:49.60 | 0 | 17234
2 | 3:49.60 | 5:09.43 | 17235 | 40452
3 | 8:59.28 | 3:45.10 | 40453 | 57337
4 | 12:44.38 | 4:28.72 | 57338 | 77509
5 | 17:13.35 | 5:01.48 | 77510 | 100132
6 | 22:15.08 | 6:02.60 | 100133 | 127342
7 | 28:17.68 | 3:38.22 | 127343 | 143714
8 | 31:56.15 | 6:32.20 | 143715 | 173134
9 | 38:28.35 | 6:02.70 | 173135 | 200354
10 | 44:31.30 | 3:28.15 | 200355 | 215969
11 | 47:59.45 | 3:40.63 | 215970 | 232532
12 | 51:40.33 | 4:27.67 | 232533 | 252624
13 | 56:08.25 | 5:10.73 | 252625 | 275947
14 | 61:19.23 | 4:18.40 | 275948 | 295337
15 | 65:37.63 | 2:45.57 | 295338 | 307769
16 | 68:23.45 | 2:01.20 | 307770 | 316864


Track 1

Filename D:\Music\My Torrents\Janacek - Chamber Music, Orchestral Works (2004) [FLAC]\Disc 3 of 5\01 - 'Mladi' for wind sextet -I- Andante.wav

Pre-gap length 0:00:02.00

Peak level 33.0 %
Track quality 99.9 %
Test CRC CF2B32E9
Copy CRC CF2B32E9
Accurately ripped (confidence 3) [D6EABBBB]
Copy OK

Track 2

Filename D:\Music\My Torrents\Janacek - Chamber Music, Orchestral Works (2004) [FLAC]\Disc 3 of 5\02 - 'Mladi' for wind sextet -II- Moderato.wav

Pre-gap length 0:00:04.26

Peak level 32.7 %
Track quality 100.0 %
Test CRC 764A81CE
Copy CRC 764A81CE
Accurately ripped (confidence 3) [A9BF9DD3]
Copy OK

Track 3

Filename D:\Music\My Torrents\Janacek - Chamber Music, Orchestral Works (2004) [FLAC]\Disc 3 of 5\03 - 'Mladi' for wind sextet -III- Allegro.wav

Pre-gap length 0:00:03.50

Peak level 30.0 %
Track quality 99.9 %
Test CRC 12D754E1
Copy CRC 12D754E1
Accurately ripped (confidence 2) [CC04E1AE]
Copy OK

Track 4

Filename D:\Music\My Torrents\Janacek - Chamber Music, Orchestral Works (2004) [FLAC]\Disc 3 of 5\04 - 'Mladi' for wind sextet -IV- Con moto.wav

Pre-gap length 0:00:03.84

Peak level 44.5 %
Track quality 99.9 %
Test CRC F7BB3DEB
Copy CRC F7BB3DEB
Accurately ripped (confidence 2) [FF6F63FB]
Copy OK

Track 5

Filename D:\Music\My Torrents\Janacek - Chamber Music, Orchestral Works (2004) [FLAC]\Disc 3 of 5\05 - Capriccio 'Vzdor' -I- Allegro.wav

Pre-gap length 0:00:07.22

Peak level 84.5 %
Track quality 100.0 %
Test CRC E3B445B6
Copy CRC E3B445B6
Accurately ripped (confidence 2) [AEBD651B]
Copy OK

Track 6

Filename D:\Music\My Torrents\Janacek - Chamber Music, Orchestral Works (2004) [FLAC]\Disc 3 of 5\06 - Capriccio 'Vzdor' -II- Adagio.wav

Pre-gap length 0:00:05.00

Peak level 96.3 %
Track quality 100.0 %
Test CRC 287BCCC9
Copy CRC 287BCCC9
Accurately ripped (confidence 2) [33875C83]
Copy OK

Track 7

Filename D:\Music\My Torrents\Janacek - Chamber Music, Orchestral Works (2004) [FLAC]\Disc 3 of 5\07 - Capriccio 'Vzdor' -III- Allegretto.wav

Pre-gap length 0:00:05.90

Peak level 49.7 %
Track quality 100.0 %
Test CRC 1949D82C
Copy CRC 1949D82C
Accurately ripped (confidence 2) [94FE84A0]
Copy OK

Track 8

Filename D:\Music\My Torrents\Janacek - Chamber Music, Orchestral Works (2004) [FLAC]\Disc 3 of 5\08 - Capriccio 'Vzdor' -IV- Andante.wav

Pre-gap length 0:00:05.26

Peak level 88.3 %
Track quality 100.0 %
Test CRC C057C30A
Copy CRC C057C30A
Accurately ripped (confidence 2) [C29259CF]
Copy OK

Track 9

Filename D:\Music\My Torrents\Janacek - Chamber Music, Orchestral Works (2004) [FLAC]\Disc 3 of 5\09 - Concertino -I- Moderato.wav

Pre-gap length 0:00:08.69

Peak level 48.0 %
Track quality 99.9 %
Test CRC 44F8A7E8
Copy CRC 44F8A7E8
Accurately ripped (confidence 2) [6DE09FBC]
Copy OK

Track 10

Filename D:\Music\My Torrents\Janacek - Chamber Music, Orchestral Works (2004) [FLAC]\Disc 3 of 5\10 - Concertino -II- Piu mosso.wav

Pre-gap length 0:00:03.60

Peak level 71.9 %
Track quality 99.9 %
Test CRC 8CF3F440
Copy CRC 8CF3F440
Accurately ripped (confidence 2) [309177F8]
Copy OK

Track 11

Filename D:\Music\My Torrents\Janacek - Chamber Music, Orchestral Works (2004) [FLAC]\Disc 3 of 5\11 - Concertino -III- Con moto.wav

Pre-gap length 0:00:00.46

Peak level 82.2 %
Track quality 99.9 %
Test CRC 22D6A90E
Copy CRC 22D6A90E
Accurately ripped (confidence 2) [B1CBB800]
Copy OK

Track 12

Filename D:\Music\My Torrents\Janacek - Chamber Music, Orchestral Works (2004) [FLAC]\Disc 3 of 5\12 - Concertino -IV- Allegro.wav

Peak level 73.5 %
Track quality 100.0 %
Test CRC D6020596
Copy CRC D6020596
Accurately ripped (confidence 2) [87B61337]
Copy OK

Track 13

Filename D:\Music\My Torrents\Janacek - Chamber Music, Orchestral Works (2004) [FLAC]\Disc 3 of 5\13 - Pohadka For Cello And Piano -I- Con moto.wav

Pre-gap length 0:00:07.46

Peak level 63.5 %
Track quality 100.0 %
Test CRC 98A4B434
Copy CRC 98A4B434
Accurately ripped (confidence 2) [46000B3C]
Copy OK

Track 14

Filename D:\Music\My Torrents\Janacek - Chamber Music, Orchestral Works (2004) [FLAC]\Disc 3 of 5\14 - Pohadka For Cello And Piano -II- Con moto.wav

Pre-gap length 0:00:03.30

Peak level 42.8 %
Track quality 100.0 %
Test CRC 52EC6AC7
Copy CRC 52EC6AC7
Accurately ripped (confidence 2) [BE46E780]
Copy OK

Track 15

Filename D:\Music\My Torrents\Janacek - Chamber Music, Orchestral Works (2004) [FLAC]\Disc 3 of 5\15 - Pohadka For Cello And Piano -III- Allegro.wav

Pre-gap length 0:00:00.70

Peak level 29.4 %
Track quality 100.0 %
Test CRC CC09479A
Copy CRC CC09479A
Accurately ripped (confidence 2) [7FAA5013]
Copy OK

Track 16

Filename D:\Music\My Torrents\Janacek - Chamber Music, Orchestral Works (2004) [FLAC]\Disc 3 of 5\16 - Presto for cello and piano.wav

Pre-gap length 0:00:05.56

Peak level 48.6 %
Track quality 100.0 %
Test CRC BC3EF98D
Copy CRC BC3EF98D
Accurately ripped (confidence 2) [C3D27E07]
Copy OK


All tracks accurately ripped

No errors occurred

End of status report

[CUETools log; Date: 27.06.2017 21:12:14; Version: 2.1.4]
[CTDB TOCID: 02Dnf6_0emt78wWQ3Riil1lKuBw-] found.
Track | CTDB Status
1 | (18/19) Accurately ripped
2 | (18/19) Accurately ripped
3 | (18/19) Accurately ripped
4 | (18/19) Accurately ripped
5 | (18/19) Accurately ripped
6 | (18/19) Accurately ripped
7 | (18/19) Accurately ripped
8 | (18/19) Accurately ripped
9 | (18/19) Accurately ripped
10 | (18/19) Accurately ripped
11 | (18/19) Accurately ripped
12 | (18/19) Accurately ripped
13 | (18/19) Accurately ripped
14 | (18/19) Accurately ripped
15 | (18/19) Accurately ripped
16 | (18/19) Accurately ripped
[AccurateRip ID: 002b3f5a-0207457e-da108010] found.
Track [ CRC | V2 ] Status
01 [d6eabbbb|2a3a6491] (07+08/15) Accurately ripped
02 [a9bf9dd3|13cc26f8] (07+08/15) Accurately ripped
03 [cc04e1ae|0c0175b8] (06+08/14) Accurately ripped
04 [ff6f63fb|3d34fca4] (06+08/14) Accurately ripped
05 [aebd651b|4b597fb8] (06+08/14) Accurately ripped
06 [33875c83|1e605d00] (06+09/15) Accurately ripped
07 [94fe84a0|3b3fede9] (06+09/15) Accurately ripped
08 [c29259cf|7d2253c9] (06+09/15) Accurately ripped
09 [6de09fbc|f84b23fc] (06+08/14) Accurately ripped
10 [309177f8|785d08cf] (06+08/14) Accurately ripped
11 [b1cbb800|ac7aa42e] (06+08/14) Accurately ripped
12 [87b61337|2656f81d] (06+08/14) Accurately ripped
13 [46000b3c|0cea4906] (06+08/14) Accurately ripped
14 [be46e780|3f2bef91] (06+08/14) Accurately ripped
15 [7faa5013|7fd171ca] (06+08/14) Accurately ripped
16 [c3d27e07|4caeeed5] (06+08/14) Accurately ripped

Track Peak [ CRC32 ] [W/O NULL] [ LOG ]
– 96,3 [EF0F57B2] [0EFDE11A]
01 33,0 [CF2B32E9] [45EBF8C6] CRC32
02 32,7 [764A81CE] [B799F546] CRC32
03 30,0 [12D754E1] [1E50A8D6] CRC32
04 44,5 [F7BB3DEB] [BE02E712] CRC32
05 84,5 [E3B445B6] [8C315584] CRC32
06 96,3 [287BCCC9] [F0DEF2A0] CRC32
07 49,7 [1949D82C] [5C65ABBB] CRC32
08 88,3 [C057C30A] [D1AB24A3] CRC32
09 48,0 [44F8A7E8] [25F4A37B] CRC32
10 71,9 [8CF3F440] [A1177C64] CRC32
11 82,2 [22D6A90E] [C47FAF62] CRC32
12 73,5 [D6020596] [44635015] CRC32
13 63,5 [98A4B434] [152D6E33] CRC32
14 42,8 [52EC6AC7] [2D692BC1] CRC32
15 29,4 [CC09479A] [666E1C8F] CRC32
16 48,6 [BC3EF98D] [0120E7DA] CRC32

foobar2000 1.2 / Dynamic Range Meter 1.1.1
log date: 2017-06-28 02:33:10

––––––––––––––––––––––––––––––––––––––––
Analyzed: Members of London Sinfonietta et al / Janacek - Chamber music (CD3)
––––––––––––––––––––––––––––––––––––––––

DR Peak RMS Duration Track
––––––––––––––––––––––––––––––––––––––––
DR12 -9.62 dB -26.51 dB 3:50 01-'Mladi' for wind sextet -I- Andante
DR12 -9.68 dB -28.17 dB 5:10 02-'Mladi' for wind sextet -II- Moderato
DR13 -10.44 dB -30.53 dB 3:45 03-'Mladi' for wind sextet -III- Allegro
DR13 -7.02 dB -27.18 dB 4:29 04-'Mladi' for wind sextet -IV- Con moto
DR15 -1.46 dB -22.07 dB 5:02 05-Capriccio 'Vzdor' -I- Allegro
DR16 -0.32 dB -23.77 dB 6:03 06-Capriccio 'Vzdor' -II- Adagio
DR12 -6.06 dB -22.86 dB 3:38 07-Capriccio 'Vzdor' -III- Allegretto
DR14 -1.07 dB -20.34 dB 6:32 08-Capriccio 'Vzdor' -IV- Andante
DR14 -6.36 dB -25.99 dB 6:03 09-Concertino -I- Moderato
DR16 -2.86 dB -23.14 dB 3:28 10-Concertino -II- Piu mosso
DR13 -1.70 dB -21.29 dB 3:41 11-Concertino -III- Con moto
DR15 -2.67 dB -21.35 dB 4:28 12-Concertino -IV- Allegro
DR13 -3.94 dB -25.35 dB 5:11 13-Pohadka For Cello And Piano -I- Con moto
DR13 -7.35 dB -26.88 dB 4:19 14-Pohadka For Cello And Piano -II- Con moto
DR11 -10.61 dB -27.23 dB 2:46 15-Pohadka For Cello And Piano -III- Allegro
DR11 -6.25 dB -23.13 dB 2:01 16-Presto for cello and piano
––––––––––––––––––––––––––––––––––––––––

Number of tracks: 16
Official DR value: DR13

Samplerate: 44100 Hz
Channels: 2
Bits per sample: 16
Bitrate: 555 kbps
Codec: FLAC
================================================================================


Exact Audio Copy V0.99 prebeta 4 from 23. January 2008

EAC extraction logfile from 8. September 2009, 19:15

WP, LPO, Mackerras, Huybrechts / Janacek - Chamber Music Orchestral Works (CD4)

Used drive : HL-DT-STDVD-ROM GDR8161B Adapter: 1 ID: 1

Read mode : Secure
Utilize accurate stream : Yes
Defeat audio cache : Yes
Make use of C2 pointers : No

Read offset correction : 102
Overread into Lead-In and Lead-Out : No
Fill up missing offset samples with silence : Yes
Delete leading and trailing silent blocks : No
Null samples used in CRC calculations : Yes
Used interface : Native Win32 interface for Win NT & 2000
Gap handling : Appended to previous track

Used output format : User Defined Encoder
Selected bitrate : 1024 kBit/s
Quality : High
Add ID3 tag : No
Command line compressor : C:\Program Files\FLAC\flac.exe
Additional command line options : -5 -V -T "ARTIST=%a" -T "TITLE=%t" -T "ALBUM=%g" -T "DATE=%y" -T "TRACKNUMBER=%n" -T "GENRE=%m" -T "COMMENT=EAC Flac1.1.3 -5" %s


TOC of the extracted CD

Track | Start | Length | Start sector | End sector
––––––––––––––––––––––––––––-
1 | 0:00.33 | 2:25.27 | 33 | 10934
2 | 2:25.60 | 6:10.00 | 10935 | 38684
3 | 8:35.60 | 5:23.48 | 38685 | 62957
4 | 13:59.33 | 3:04.00 | 62958 | 76757
5 | 17:03.33 | 7:23.00 | 76758 | 109982
6 | 24:26.33 | 8:54.00 | 109983 | 150032
7 | 33:20.33 | 5:30.55 | 150033 | 174837
8 | 38:51.13 | 9:10.20 | 174838 | 216107
9 | 48:01.33 | 6:34.67 | 216108 | 245724
10 | 54:36.25 | 2:27.48 | 245725 | 256797
11 | 57:03.73 | 2:14.67 | 256798 | 266914
12 | 59:18.65 | 5:55.05 | 266915 | 293544
13 | 65:13.70 | 2:03.05 | 293545 | 302774
14 | 67:17.00 | 3:13.32 | 302775 | 317281


Track 1

Filename D:\Music\My Torrents\Janacek - Chamber Music, Orchestral Works (2004) [FLAC]\Disc 4 of 5\01 - Sinfonietta -I- Allegretto.wav

Pre-gap length 0:00:02.44

Peak level 99.3 %
Track quality 100.0 %
Test CRC 35EF8D94
Copy CRC 35EF8D94
Track not present in AccurateRip database
Copy OK

Track 2

Filename D:\Music\My Torrents\Janacek - Chamber Music, Orchestral Works (2004) [FLAC]\Disc 4 of 5\02 - Sinfonietta -II- Andante.wav

Pre-gap length 0:00:01.00

Peak level 98.1 %
Track quality 100.0 %
Test CRC FBA867B4
Copy CRC FBA867B4
Track not present in AccurateRip database
Copy OK

Track 3

Filename D:\Music\My Torrents\Janacek - Chamber Music, Orchestral Works (2004) [FLAC]\Disc 4 of 5\03 - Sinfonietta -III- Moderato.wav

Peak level 97.7 %
Track quality 100.0 %
Test CRC F38F795B
Copy CRC F38F795B
Track not present in AccurateRip database
Copy OK

Track 4

Filename D:\Music\My Torrents\Janacek - Chamber Music, Orchestral Works (2004) [FLAC]\Disc 4 of 5\04 - Sinfonietta -IV- Allegretto.wav

Pre-gap length 0:00:02.00

Peak level 82.8 %
Track quality 100.0 %
Test CRC 24D00626
Copy CRC 24D00626
Track not present in AccurateRip database
Copy OK

Track 5

Filename D:\Music\My Torrents\Janacek - Chamber Music, Orchestral Works (2004) [FLAC]\Disc 4 of 5\05 - Sinfonietta -V- Andante con moto.wav

Pre-gap length 0:00:02.00

Peak level 99.7 %
Track quality 100.0 %
Test CRC 2F52A73A
Copy CRC 2F52A73A
Track not present in AccurateRip database
Copy OK

Track 6

Filename D:\Music\My Torrents\Janacek - Chamber Music, Orchestral Works (2004) [FLAC]\Disc 4 of 5\06 - Taras Bulba -I- The Death of Andrij.wav

Pre-gap length 0:00:10.00

Peak level 97.4 %
Track quality 100.0 %
Test CRC A3B04A92
Copy CRC A3B04A92
Track not present in AccurateRip database
Copy OK

Track 7

Filename D:\Music\My Torrents\Janacek - Chamber Music, Orchestral Works (2004) [FLAC]\Disc 4 of 5\07 - Taras Bulba -II- The Death of Ostap.wav

Pre-gap length 0:00:03.00

Peak level 97.0 %
Track quality 99.9 %
Test CRC 0310836F
Copy CRC 0310836F
Track not present in AccurateRip database
Copy OK

Track 8

Filename D:\Music\My Torrents\Janacek - Chamber Music, Orchestral Works (2004) [FLAC]\Disc 4 of 5\08 - Taras Bulba -III- The Prophesy and Death of Taras Bulba.wav

Pre-gap length 0:00:02.00

Peak level 96.8 %
Track quality 100.0 %
Test CRC A19B79CA
Copy CRC A19B79CA
Track not present in AccurateRip database
Copy OK

Track 9

Filename D:\Music\My Torrents\Janacek - Chamber Music, Orchestral Works (2004) [FLAC]\Disc 4 of 5\09 - Lachian dances -I- Starodavny I.wav

Pre-gap length 0:00:10.00

Peak level 100.0 %
Track quality 100.0 %
Test CRC A2E5CAAF
Copy CRC A2E5CAAF
Track not present in AccurateRip database
Copy OK

Track 10

Filename D:\Music\My Torrents\Janacek - Chamber Music, Orchestral Works (2004) [FLAC]\Disc 4 of 5\10 - Lachian dances -II- Pozehnany.wav

Pre-gap length 0:00:03.00

Peak level 100.0 %
Track quality 100.0 %
Test CRC A109C2A7
Copy CRC A109C2A7
Track not present in AccurateRip database
Copy OK

Track 11

Filename D:\Music\My Torrents\Janacek - Chamber Music, Orchestral Works (2004) [FLAC]\Disc 4 of 5\11 - Lachian dances -III- Dymak.wav

Pre-gap length 0:00:02.00

Peak level 96.4 %
Track quality 100.0 %
Test CRC 107A76B7
Copy CRC 107A76B7
Track not present in AccurateRip database
Copy OK

Track 12

Filename D:\Music\My Torrents\Janacek - Chamber Music, Orchestral Works (2004) [FLAC]\Disc 4 of 5\12 - Lachian dances -IV- Starodavny II.wav

Pre-gap length 0:00:02.00

Peak level 81.3 %
Track quality 100.0 %
Test CRC B3578B68
Copy CRC B3578B68
Track not present in AccurateRip database
Copy OK

Track 13

Filename D:\Music\My Torrents\Janacek - Chamber Music, Orchestral Works (2004) [FLAC]\Disc 4 of 5\13 - Lachian dances -V- Celadensky.wav

Pre-gap length 0:00:02.50

Peak level 100.0 %
Track quality 100.0 %
Test CRC CB7EB886
Copy CRC CB7EB886
Track not present in AccurateRip database
Copy OK

Track 14

Filename D:\Music\My Torrents\Janacek - Chamber Music, Orchestral Works (2004) [FLAC]\Disc 4 of 5\14 - Lachian dances -VI- Pilky.wav

Pre-gap length 0:00:03.00

Peak level 99.9 %
Track quality 100.0 %
Test CRC 1C3D5A81
Copy CRC 1C3D5A81
Track not present in AccurateRip database
Copy OK


None of the tracks are present in the AccurateRip database

No errors occurred

End of status report

[CUETools log; Date: 27.06.2017 21:12:36; Version: 2.1.4]
Pregap length 00:00:33.
[CTDB TOCID: PVHXMptr01ZaDcs28eoITg5JBIk-] found.
Track | CTDB Status
1 | (18/18) Accurately ripped
2 | (18/18) Accurately ripped
3 | (18/18) Accurately ripped
4 | (18/18) Accurately ripped
5 | (18/18) Accurately ripped
6 | (18/18) Accurately ripped
7 | (18/18) Accurately ripped
8 | (18/18) Accurately ripped
9 | (18/18) Accurately ripped
10 | (18/18) Accurately ripped
11 | (18/18) Accurately ripped
12 | (18/18) Accurately ripped
13 | (18/18) Accurately ripped
14 | (18/18) Accurately ripped
[AccurateRip ID: 002680eb-019deb1e-b910860e] found.
Track [ CRC | V2 ] Status
01 [319b6a09|eecd1236] (06+18/24) Accurately ripped
02 [e1ff5b8f|00af77f9] (06+18/24) Accurately ripped
03 [ff9a260f|d8ae6eac] (06+18/24) Accurately ripped
04 [6bc65a6d|6a83186e] (06+18/24) Accurately ripped
05 [a7829a8d|54b079c0] (06+17/23) Accurately ripped
06 [43583ff8|c4b92bc7] (06+18/24) Accurately ripped
07 [e823e848|cc62ce31] (06+18/24) Accurately ripped
08 [a7691e12|e02d15b0] (06+17/23) Accurately ripped
09 [2ec54557|16ff67d1] (06+17/23) Accurately ripped
10 [b21241f2|66144036] (06+18/24) Accurately ripped
11 [d41dd693|a5614ea2] (06+18/24) Accurately ripped
12 [d7513a22|ffa666dd] (06+17/23) Accurately ripped
13 [ca31307f|794b017f] (06+18/24) Accurately ripped
14 [8cafbc1c|0bf24a0a] (06+18/24) Accurately ripped

Track Peak [ CRC32 ] [W/O NULL] [ LOG ]
– 100,0 [8FDB5760] [FCDB6B5D]
01 99,3 [35EF8D94] [F3BD0A2A] CRC32
02 98,1 [FBA867B4] [E5723DA5] CRC32
03 97,7 [F38F795B] [48F4ECEF] CRC32
04 82,8 [24D00626] [7A33DC1B] CRC32
05 99,7 [2F52A73A] [8A37C7D9] CRC32
06 97,4 [A3B04A92] [8B5BE456] CRC32
07 97,0 [0310836F] [AA2D8779] CRC32
08 96,8 [A19B79CA] [5A0CA81C] CRC32
09 100,0 [A2E5CAAF] [071EDEEE] CRC32
10 100,0 [A109C2A7] [FF088979] CRC32
11 96,4 [107A76B7] [FCFA4D74] CRC32
12 81,3 [B3578B68] [FC0BBCBC] CRC32
13 100,0 [CB7EB886] [78845535] CRC32
14 99,9 [1C3D5A81] [483148C8] CRC32

foobar2000 1.2 / Dynamic Range Meter 1.1.1
log date: 2017-06-28 02:33:37

––––––––––––––––––––––––––––––––––––––––
Analyzed: WP, LPO, Mackerras, Huybrechts / Janacek - Chamber Music Orchestral Works (CD4)
––––––––––––––––––––––––––––––––––––––––

DR Peak RMS Duration Track
––––––––––––––––––––––––––––––––––––––––
DR12 -0.06 dB -14.84 dB 2:25 01-Sinfonietta -I- Allegretto
DR15 -0.16 dB -21.46 dB 6:10 02-Sinfonietta -II- Andante
DR15 -0.20 dB -21.89 dB 5:24 03-Sinfonietta -III- Moderato
DR13 -1.63 dB -21.85 dB 3:04 04-Sinfonietta -IV- Allegretto
DR12 -0.02 dB -16.26 dB 7:23 05-Sinfonietta -V- Andante con moto
DR14 -0.23 dB -19.43 dB 8:54 06-Taras Bulba -I- The Death of Andrij
DR16 -0.26 dB -21.70 dB 5:31 07-Taras Bulba -II- The Death of Ostap
DR13 -0.28 dB -17.49 dB 9:10 08-Taras Bulba -III- The Prophesy and Death of Taras Bulba
DR11 0.00 dB -15.40 dB 6:35 09-Lachian dances -I- Starodavny I
DR12 0.00 dB -19.24 dB 2:28 10-Lachian dances -II- Pozehnany
DR12 -0.31 dB -15.73 dB 2:15 11-Lachian dances -III- Dymak
DR15 -1.80 dB -22.20 dB 5:55 12-Lachian dances -IV- Starodavny II
DR11 0.00 dB -16.02 dB 2:03 13-Lachian dances -V- Celadensky
DR13 0.00 dB -18.79 dB 3:13 14-Lachian dances -VI- Pilky
––––––––––––––––––––––––––––––––––––––––

Number of tracks: 14
Official DR value: DR13

Samplerate: 44100 Hz
Channels: 2
Bits per sample: 16
Bitrate: 664 kbps
Codec: FLAC
================================================================================


Exact Audio Copy V0.99 prebeta 4 from 23. January 2008

EAC extraction logfile from 8. September 2009, 18:47

VPO - Slovak Philharmonic Choir - Soloists - Trotter - Chailly / Janacek - Chamber Music and Orchestral Works (CD5)

Used drive : HL-DT-STDVD-ROM GDR8161B Adapter: 1 ID: 1

Read mode : Secure
Utilize accurate stream : Yes
Defeat audio cache : Yes
Make use of C2 pointers : No

Read offset correction : 102
Overread into Lead-In and Lead-Out : No
Fill up missing offset samples with silence : Yes
Delete leading and trailing silent blocks : No
Null samples used in CRC calculations : Yes
Used interface : Native Win32 interface for Win NT & 2000
Gap handling : Appended to previous track

Used output format : User Defined Encoder
Selected bitrate : 1024 kBit/s
Quality : High
Add ID3 tag : No
Command line compressor : C:\Program Files\FLAC\flac.exe
Additional command line options : -5 -V -T "ARTIST=%a" -T "TITLE=%t" -T "ALBUM=%g" -T "DATE=%y" -T "TRACKNUMBER=%n" -T "GENRE=%m" -T "COMMENT=EAC Flac1.1.3 -5" %s


TOC of the extracted CD

Track | Start | Length | Start sector | End sector
––––––––––––––––––––––––––––-
1 | 0:00.00 | 4:36.67 | 0 | 20766
2 | 4:36.67 | 3:42.36 | 20767 | 37452
3 | 8:19.28 | 1:22.27 | 37453 | 43629
4 | 9:41.55 | 2:41.11 | 43630 | 55715
5 | 12:22.66 | 3:12.10 | 55716 | 70125
6 | 15:35.01 | 3:27.55 | 70126 | 85705
7 | 19:02.56 | 15:26.23 | 85706 | 155178
8 | 34:29.04 | 3:32.73 | 155179 | 171151
9 | 38:02.02 | 3:30.11 | 171152 | 186912
10 | 41:32.13 | 6:24.13 | 186913 | 215725
11 | 47:56.26 | 11:38.09 | 215726 | 268084
12 | 59:34.35 | 6:06.53 | 268085 | 295587
13 | 65:41.13 | 4:49.13 | 295588 | 317275
14 | 70:30.26 | 2:48.53 | 317276 | 329928
15 | 73:19.04 | 1:43.20 | 329929 | 337673


Track 1

Filename D:\Music\My Torrents\Janacek - Chamber Music, Orchestral Works (2004) [FLAC]\Disc 5 of 5\01 - Suite for String Orchestra -I- Moderato.wav

Pre-gap length 0:00:02.00

Peak level 73.2 %
Track quality 100.0 %
Test CRC D4438978
Copy CRC D4438978
Accurately ripped (confidence 2) [B7D3BB5D]
Copy OK

Track 2

Filename D:\Music\My Torrents\Janacek - Chamber Music, Orchestral Works (2004) [FLAC]\Disc 5 of 5\02 - Suite for String Orchestra -II- Adagio.wav

Peak level 26.8 %
Track quality 99.9 %
Test CRC 4BB68E9A
Copy CRC 4BB68E9A
Accurately ripped (confidence 2) [BC2A0B4C]
Copy OK

Track 3

Filename D:\Music\My Torrents\Janacek - Chamber Music, Orchestral Works (2004) [FLAC]\Disc 5 of 5\03 - Suite for String Orchestra -III- Andante con moto.wav

Peak level 52.2 %
Track quality 99.8 %
Test CRC 769240FE
Copy CRC 769240FE
Accurately ripped (confidence 2) [D6DD803D]
Copy OK

Track 4

Filename D:\Music\My Torrents\Janacek - Chamber Music, Orchestral Works (2004) [FLAC]\Disc 5 of 5\04 - Suite for String Orchestra -IV- Presto - Andante - Presto.wav

Peak level 78.7 %
Track quality 100.0 %
Test CRC 454488C7
Copy CRC 454488C7
Accurately ripped (confidence 2) [24A33482]
Copy OK

Track 5

Filename D:\Music\My Torrents\Janacek - Chamber Music, Orchestral Works (2004) [FLAC]\Disc 5 of 5\05 - Suite for String Orchestra -V- Adagio.wav

Peak level 16.0 %
Track quality 100.0 %
Test CRC 9042392C
Copy CRC 9042392C
Accurately ripped (confidence 2) [68DAC0C0]
Copy OK

Track 6

Filename D:\Music\My Torrents\Janacek - Chamber Music, Orchestral Works (2004) [FLAC]\Disc 5 of 5\06 - Suite for String Orchestra -VI- Andante.wav

Peak level 80.8 %
Track quality 100.0 %
Test CRC C49D466A
Copy CRC C49D466A
Accurately ripped (confidence 2) [6255FC28]
Copy OK

Track 7

Filename D:\Music\My Torrents\Janacek - Chamber Music, Orchestral Works (2004) [FLAC]\Disc 5 of 5\07 - Rikadla - Nursery rhymes for Chamber Choir and Ensemble.wav

Pre-gap length 0:00:08.33

Peak level 85.9 %
Track quality 100.0 %
Test CRC 5C418A51
Copy CRC 5C418A51
Accurately ripped (confidence 2) [FCF18F73]
Copy OK

Track 8

Filename D:\Music\My Torrents\Janacek - Chamber Music, Orchestral Works (2004) [FLAC]\Disc 5 of 5\08 - Glagolitic Mass -I- Uvod (Introduction).wav

Pre-gap length 0:00:05.72

Peak level 83.4 %
Track quality 100.0 %
Test CRC 9A5DF207
Copy CRC 9A5DF207
Accurately ripped (confidence 2) [B0A6F1AB]
Copy OK

Track 9

Filename D:\Music\My Torrents\Janacek - Chamber Music, Orchestral Works (2004) [FLAC]\Disc 5 of 5\09 - Glagolitic Mass -II- Gospodi pomiluj (Kyrie).wav

Peak level 99.1 %
Track quality 100.0 %
Test CRC 0BE92796
Copy CRC 0BE92796
Accurately ripped (confidence 2) [A5EFFE78]
Copy OK

Track 10

Filename D:\Music\My Torrents\Janacek - Chamber Music, Orchestral Works (2004) [FLAC]\Disc 5 of 5\10 - Glagolitic Mass -III- Slava (Gloria).wav

Peak level 100.0 %
Track quality 99.9 %
Test CRC CF1D45CA
Copy CRC CF1D45CA
Accurately ripped (confidence 2) [C16169F1]
Copy OK

Track 11

Filename D:\Music\My Torrents\Janacek - Chamber Music, Orchestral Works (2004) [FLAC]\Disc 5 of 5\11 - Glagolitic Mass -IV- Veruju (Credo).wav

Peak level 100.0 %
Track quality 100.0 %
Test CRC 99A503AB
Copy CRC 99A503AB
Accurately ripped (confidence 2) [4EBCB96E]
Copy OK

Track 12

Filename D:\Music\My Torrents\Janacek - Chamber Music, Orchestral Works (2004) [FLAC]\Disc 5 of 5\12 - Glagolitic Mass -V- Svet (Sanctus).wav

Peak level 97.4 %
Track quality 100.0 %
Test CRC 8E107744
Copy CRC 8E107744
Accurately ripped (confidence 2) [8B622431]
Copy OK

Track 13

Filename D:\Music\My Torrents\Janacek - Chamber Music, Orchestral Works (2004) [FLAC]\Disc 5 of 5\13 - Glagolitic Mass -VI- Agnece Bozij (Agnus Dei).wav

Peak level 56.1 %
Track quality 100.0 %
Test CRC 6A4B50D2
Copy CRC 6A4B50D2
Accurately ripped (confidence 2) [2C52D163]
Copy OK

Track 14

Filename D:\Music\My Torrents\Janacek - Chamber Music, Orchestral Works (2004) [FLAC]\Disc 5 of 5\14 - Glagolitic Mass -VII- Allegro (organ solo).wav

Peak level 93.7 %
Track quality 100.0 %
Test CRC 711C283E
Copy CRC 711C283E
Accurately ripped (confidence 2) [899C68B7]
Copy OK

Track 15

Filename D:\Music\My Torrents\Janacek - Chamber Music, Orchestral Works (2004) [FLAC]\Disc 5 of 5\15 - Glagolitic Mass -VIII- Intrada.wav

Peak level 99.7 %
Track quality 99.7 %
Test CRC 32842EF3
Copy CRC 32842EF3
Accurately ripped (confidence 2) [DD67DBDE]
Copy OK


All tracks accurately ripped

No errors occurred

End of status report

[CUETools log; Date: 27.06.2017 21:13:01; Version: 2.1.4]
[CTDB TOCID: pKfgzaZy8B_aOm8T61FW.JYZSPg-] found.
Track | CTDB Status
1 | (15/15) Accurately ripped
2 | (15/15) Accurately ripped
3 | (15/15) Accurately ripped
4 | (15/15) Accurately ripped
5 | (15/15) Accurately ripped
6 | (15/15) Accurately ripped
7 | (15/15) Accurately ripped
8 | (15/15) Accurately ripped
9 | (15/15) Accurately ripped
10 | (15/15) Accurately ripped
11 | (15/15) Accurately ripped
12 | (15/15) Accurately ripped
13 | (15/15) Accurately ripped
14 | (15/15) Accurately ripped
15 | (15/15) Accurately ripped
[AccurateRip ID: 002788c8-01d17797-d711960f] found.
Track [ CRC | V2 ] Status
01 [b7d3bb5d|ffa4b77a] (05+00/17) Accurately ripped
02 [bc2a0b4c|6a7fde00] (05+00/17) Accurately ripped
03 [d6dd803d|edf2fb13] (05+00/16) Accurately ripped
04 [24a33482|8588cff4] (05+00/17) Accurately ripped
05 [68dac0c0|060fb541] (05+00/17) Accurately ripped
06 [6255fc28|6da0b758] (05+00/17) Accurately ripped
07 [fcf18f73|b884220f] (05+00/17) Accurately ripped
08 [b0a6f1ab|27a6f29d] (05+00/17) Accurately ripped
09 [a5effe78|3b4adbce] (05+00/17) Accurately ripped
10 [c16169f1|6c7b2ba4] (05+00/17) Accurately ripped
11 [4ebcb96e|ab4efae9] (05+00/17) Accurately ripped
12 [8b622431|c1233d26] (05+00/17) Accurately ripped
13 [2c52d163|ab2faa8e] (05+00/17) Accurately ripped
14 [899c68b7|5989c997] (05+00/17) Accurately ripped
15 [dd67dbde|aca27438] (05+00/17) Accurately ripped
Offsetted by 664:
01 [f4fd21f7] (03/17) Accurately ripped
02 [d565ccf1] (03/17) Accurately ripped
03 [217dbe77] (03/16) Accurately ripped
04 [05435ac8] (03/17) Accurately ripped
05 [1fa56914] (03/17) Accurately ripped
06 [4732c5c9] (03/17) Accurately ripped
07 [cf0d8b3b] (04/17) Accurately ripped
08 [25711b18] (03/17) Accurately ripped
09 [58dec631] (03/17) Accurately ripped
10 [ce37ff58] (03/17) Accurately ripped
11 [b26d76af] (03/17) Accurately ripped
12 [c1239d96] (03/17) Accurately ripped
13 [4bf095cd] (03/17) Accurately ripped
14 [a9d1dd06] (03/17) Accurately ripped
15 [28c5140c] (03/17) Accurately ripped

Track Peak [ CRC32 ] [W/O NULL] [ LOG ]
– 100,0 [29ECA540] [CFA9A21B]
01 73,2 [D4438978] [D6E324C7] CRC32
02 26,8 [4BB68E9A] [5E0BDE1B] CRC32
03 52,2 [769240FE] [B883AB2E] CRC32
04 78,7 [454488C7] [7DE60F6E] CRC32
05 16,0 [9042392C] [34F3781D] CRC32
06 80,8 [C49D466A] [36A63178] CRC32
07 85,9 [5C418A51] [FC7EE5D5] CRC32
08 83,4 [9A5DF207] [6C9F2D18] CRC32
09 99,1 [0BE92796] [984FFC66] CRC32
10 100,0 [CF1D45CA] [E6753761] CRC32
11 100,0 [99A503AB] [8F6693F4] CRC32
12 97,4 [8E107744] [0F62F292] CRC32
13 56,1 [6A4B50D2] [7FC622EC] CRC32
14 93,7 [711C283E] [54C9E641] CRC32
15 99,7 [32842EF3] [74C85D3A] CRC32

foobar2000 1.2 / Dynamic Range Meter 1.1.1
log date: 2017-06-28 02:34:04

––––––––––––––––––––––––––––––––––––––––
Analyzed: VPO - Slovak Philharmonic Choir - Soloists - Trotter - Chailly / Janacek - Chamber Music and Orchestral Works (CD5)
––––––––––––––––––––––––––––––––––––––––

DR Peak RMS Duration Track
––––––––––––––––––––––––––––––––––––––––
DR12 -2.71 dB -20.51 dB 4:37 01-Suite for String Orchestra -I- Moderato
DR13 -11.42 dB -31.82 dB 3:42 02-Suite for String Orchestra -II- Adagio
DR13 -5.65 dB -23.80 dB 1:22 03-Suite for String Orchestra -III- Andante con moto
DR14 -2.08 dB -22.38 dB 2:41 04-Suite for String Orchestra -IV- Presto - Andante - Presto
DR11 -15.88 dB -33.76 dB 3:12 05-Suite for String Orchestra -V- Adagio
DR13 -1.85 dB -18.81 dB 3:28 06-Suite for String Orchestra -VI- Andante
DR16 -1.32 dB -22.24 dB 15:26 07-Rikadla - Nursery rhymes for Chamber Choir and Ensemble
DR12 -1.57 dB -21.04 dB 3:33 08-Glagolitic Mass -I- Uvod (Introduction)
DR14 -0.08 dB -22.68 dB 3:30 09-Glagolitic Mass -II- Gospodi pomiluj (Kyrie)
DR14 0.00 dB -18.69 dB 6:24 10-Glagolitic Mass -III- Slava (Gloria)
DR15 0.00 dB -20.57 dB 11:38 11-Glagolitic Mass -IV- Veruju (Credo)
DR15 -0.22 dB -20.70 dB 6:07 12-Glagolitic Mass -V- Svet (Sanctus)
DR14 -5.01 dB -25.99 dB 4:49 13-Glagolitic Mass -VI- Agnece Bozij (Agnus Dei)
DR12 -0.56 dB -17.49 dB 2:49 14-Glagolitic Mass -VII- Allegro (organ solo)
DR12 -0.02 dB -15.65 dB 1:43 15-Glagolitic Mass -VIII- Intrada
––––––––––––––––––––––––––––––––––––––––

Number of tracks: 15
Official DR value: DR13

Samplerate: 44100 Hz
Channels: 2
Bits per sample: 16
Bitrate: 766 kbps
Codec: FLAC
================================================================================



Leos Janacek - Chamber Music, Orchestral Works (2004) 5CD Box Set

All thanks to original releaser - kapump

More interesting music in My Blog