Tags
Language
Tags

Limp Bizkit: Singles Collection part 1 (1997-2000)

Posted By: v3122
Limp Bizkit: Singles Collection part 1 (1997-2000)

Limp Bizkit: Singles Collection part 1 (1997-2000)
EAC | Flac(Image) + Cue + Log & MP3 CBR 320Kbps
12CD | Label: various | ~ 1716 or 588 Mb | Artwork(jpg) -> 35 Mb
Nu Metal

Limp Bizkit is an American rap rock band from Jacksonville, Florida. Its lineup consists of Fred Durst (lead vocals), Sam Rivers (bass, backing vocals), John Otto (drums, percussion), DJ Lethal (turntables), and Wes Borland (guitars, vocals). The band's music is marked by Durst's angry vocal delivery and Borland's sonic experimentation. Borland's elaborate visual appearance, which includes face and body paint, masks and uniforms, also plays a large role in Limp Bizkit's live shows. The band has been nominated for three Grammy Awards, sold 40 million records worldwide, and won several other awards.

Formed in 1994, Limp Bizkit became popular playing in the Jacksonville underground music scene in the late 1990s, and signed with Flip Records, a subsidiary of Interscope, which released the band's debut album, Three Dollar Bill, Y'all (1997). The band achieved mainstream success with its second and third studio albums, Significant Other (1999) and Chocolate Starfish and the Hot Dog Flavored Water (2000), although this success was marred by a series of controversies surrounding its performances at Woodstock '99 and the 2001 Big Day Out festival.

Borland left the group in 2001, but Durst, Rivers, Otto and Lethal continued to record and tour with guitarist Mike Smith. Following the release of its album Results May Vary (2003), Borland rejoined the band and recorded The Unquestionable Truth (Part 1) (2005) with Durst, Rivers, Lethal and drummer Sammy Siegler before entering a hiatus. In 2009, the band reunited with Borland playing guitar and began touring, culminating with the recording of the album Gold Cobra (2011), after which it left Interscope and later signed with Cash Money Records; DJ Lethal quit the band soon afterward, returning in 2018. As of 2021, the band was still recording its sixth studio album, Stampede of the Disco Elephants…

~ wiki
Limp Bizkit: Singles Collection part 1 (1997-2000)

Limp Bizkit: Singles Collection part 1 (1997-2000):

Limp Bizkit: Singles Collection part 1 (1997-2000)

Tracklist CD01. 1997 - Counterfeit / Nobody Loves Me [Interscope Records, Promo, INT5P-6194, USA]:

01. Counterfeit (Radio Edit) [00:04:14]
02. Nobody Loves Me [00:04:01]
03. Counterfeit (Album Version) [00:05:05]

Exact Audio Copy V0.99 prebeta 5 from 4. May 2009

Отчёт EAC об извлечении, выполненном 15. марта 2010, 22:56

Limp Bizkit / Counterfeit - Nobody Loves Me (Promo) (Single)

Дисковод: ASUS DRW-1814BLT Adapter: 5 ID: 0

Режим чтения : Достоверность
Использование точного потока : Да
Отключение кэша аудио : Да
Использование указателей C2 : Нет

Коррекция смещения при чтении : 6
Способность читать области Lead-in и Lead-out : Нет
Заполнение пропущенных сэмплов тишиной : Да
Удаление блоков с тишиной в начале и конце : Нет
При вычислениях CRC использовались нулевые сэмплы : Да
Интерфейс : Встроенный Win32-интерфейс для Win NT/2000

Выходной формат : Пользовательский кодировщик
Выбранный битрейт : 1024 kBit/s
Качество : Высокий
Добавление ID3-тэга : Нет
Утилита сжатия : C:\Program Files (x86)\Exact Audio Copy\wavpack.exe
Дополнительные параметры : -h %s %d


TOC извлечённого CD

Трек | Старт | Длительность | Начальный сектор | Конечный сектор
––––––––––––––––––––––––––––––––––-
1 | 0:00.00 | 4:16.57 | 0 | 19256
2 | 4:16.57 | 4:04.15 | 19257 | 37571
3 | 8:20.72 | 5:08.13 | 37572 | 60684


Характеристики диапазона извлечения и сообщения об ошибках

Выбранный диапазон

Имя файла C:\Users\Admin\Desktop\Limp Bizkit - Counterfeit - Nobody Loves Me (Promo) (Single) '97\Limp Bizkit - Counterfeit - Nobody Loves Me (Promo) (Single).wav

Пиковый уровень 100.0 %
Качество диапазона 100.0 %
CRC теста 18A067EF
CRC копии 18A067EF
Копирование… OK

Ошибок не произошло


AccurateRip: сводка

Трек 1 нет в базе данных
Трек 2 нет в базе данных
Трек 3 нет в базе данных

Ни одного трека нет в базе AccurateRip

Конец отчёта


Limp Bizkit: Singles Collection part 1 (1997-2000)

Tracklist CD02. 1997 - Counterfeit Countdown [Flip/Interscope Records, MVCT-12003, Japan]:

01. Counterfiet (Album Version) [00:05:09]
02. Counterfeit (Lethal Dose Extreme Guitar Remix) [00:03:30]
03. Counterfeit (Lethal Dose Remix) [00:03:22]
04. Counterfeit (Phat Ass Remix) [00:03:03]
05. Counterfeit (USA Radio Edit) [00:04:14]

Exact Audio Copy V0.99 prebeta 5 from 4. May 2009

Отчёт EAC об извлечении, выполненном 5. апреля 2010, 17:42

Limp Bizkit / Counterfeit Countdown (Single) (Japan Edition)

Дисковод: ASUS DRW-1814BLT Adapter: 5 ID: 0

Режим чтения : Достоверность
Использование точного потока : Да
Отключение кэша аудио : Да
Использование указателей C2 : Нет

Коррекция смещения при чтении : 6
Способность читать области Lead-in и Lead-out : Нет
Заполнение пропущенных сэмплов тишиной : Да
Удаление блоков с тишиной в начале и конце : Нет
При вычислениях CRC использовались нулевые сэмплы : Да
Интерфейс : Встроенный Win32-интерфейс для Win NT/2000

Выходной формат : Пользовательский кодировщик
Выбранный битрейт : 1024 kBit/s
Качество : Высокий
Добавление ID3-тэга : Нет
Утилита сжатия : C:\Program Files (x86)\Exact Audio Copy\wavpack.exe
Дополнительные параметры : -h %s %d


TOC извлечённого CD

Трек | Старт | Длительность | Начальный сектор | Конечный сектор
––––––––––––––––––––––––––––––––––-
1 | 0:00.37 | 5:10.55 | 37 | 23341
2 | 5:11.17 | 3:32.50 | 23342 | 39291
3 | 8:43.67 | 3:24.25 | 39292 | 54616
4 | 12:08.17 | 3:04.53 | 54617 | 68469
5 | 15:12.70 | 4:15.05 | 68470 | 87599


Характеристики диапазона извлечения и сообщения об ошибках

Выбранный диапазон

Имя файла C:\Users\Admin\Desktop\Limp Bizkit - Counterfeit Countdown (Single) (Japan Edition) '97\Limp Bizkit - Counterfeit Countdown (Single) (Japan Edition).wav

Пиковый уровень 100.0 %
Качество диапазона 100.0 %
CRC теста 56BD8F01
CRC копии 56BD8F01
Копирование… OK

Ошибок не произошло


AccurateRip: сводка

Трек 1 нет в базе данных
Трек 2 нет в базе данных
Трек 3 нет в базе данных
Трек 4 нет в базе данных
Трек 5 нет в базе данных

Ни одного трека нет в базе AccurateRip

Конец отчёта


Limp Bizkit: Singles Collection part 1 (1997-2000)

Tracklist CD03. 1999 - Nookie [Flip/Interscope Records, Promo, INT5P-6591, USA]:

01. Nookie (Clean Version) [00:04:27]
02. Nookie (Album Version) [00:04:24]

Exact Audio Copy V0.99 prebeta 5 from 4. May 2009

Отчёт EAC об извлечении, выполненном 15. февраля 2011, 17:56

Limp Bizkit / Nookie

Дисковод: ASUS DRW-1814BLT Adapter: 5 ID: 0

Режим чтения : Достоверность
Использование точного потока : Да
Отключение кэша аудио : Да
Использование указателей C2 : Нет

Коррекция смещения при чтении : 6
Способность читать области Lead-in и Lead-out : Нет
Заполнение пропущенных сэмплов тишиной : Да
Удаление блоков с тишиной в начале и конце : Нет
При вычислениях CRC использовались нулевые сэмплы : Да
Интерфейс : Встроенный Win32-интерфейс для Win NT/2000

Выходной формат : Пользовательский кодировщик
Выбранный битрейт : 1024 kBit/s
Качество : Высокий
Добавление ID3-тэга : Нет
Утилита сжатия : C:\Program Files\Exact Audio Copy\Flac\wavpack.exe
Дополнительные параметры : -hm %s %d


TOC извлечённого CD

Трек | Старт | Длительность | Начальный сектор | Конечный сектор
––––––––––––––––––––––––––––––––––-
1 | 0:00.00 | 4:30.52 | 0 | 20301
2 | 4:30.52 | 4:27.48 | 20302 | 40374


Характеристики диапазона извлечения и сообщения об ошибках

Выбранный диапазон

Имя файла C:\Users\Admin\Desktop\1999 - Nookie [Flip_Interscope Records, Promo, INT5P-6591, USA]\Limp Bizkit - Nookie.wav

Пиковый уровень 97.9 %
Качество диапазона 100.0 %
CRC теста 70B9CC29
CRC копии 70B9CC29
Копирование… OK

Ошибок не произошло


AccurateRip: сводка

Трек 1 нет в базе данных
Трек 2 нет в базе данных

Ни одного трека нет в базе AccurateRip

Конец отчёта


Limp Bizkit: Singles Collection part 1 (1997-2000)

Tracklist CD04. 2000 - My Generation [Flip/Interscope Records, 497 428-2(07), EU]:

01. My Generation (Album Version) [00:03:41]
02. It's Like That Y'All Feat. Run-D.M.C. (Non-LP Version) [00:04:30]
03. Snake In Your Face (Non-LP Version) [00:04:07]

Exact Audio Copy V0.99 prebeta 5 from 4. May 2009

EAC extraction logfile from 28. May 2010, 7:49

Limp Bizkit / My Generation

Used drive : ASUS DRW-1814BLT Adapter: 5 ID: 0

Read mode : Secure
Utilize accurate stream : Yes
Defeat audio cache : Yes
Make use of C2 pointers : No

Read offset correction : 6
Overread into Lead-In and Lead-Out : No
Fill up missing offset samples with silence : Yes
Delete leading and trailing silent blocks : No
Null samples used in CRC calculations : Yes
Used interface : Native Win32 interface for Win NT & 2000

Used output format : User Defined Encoder
Selected bitrate : 1024 kBit/s
Quality : High
Add ID3 tag : No
Command line compressor : C:\Program Files (x86)\Exact Audio Copy\wavpack.exe
Additional command line options : -h %s %d


TOC of the extracted CD

Track | Start | Length | Start sector | End sector
––––––––––––––––––––––––––––-
1 | 0:00.00 | 3:41.15 | 0 | 16589
2 | 3:41.15 | 4:31.15 | 16590 | 36929
3 | 8:12.30 | 4:08.55 | 36930 | 55584


Range status and errors

Selected range

Filename C:\Users\Admin\Desktop\Limp Bizkit - My Generation.wav

Peak level 98.8 %
Range quality 100.0 %
Test CRC 8DACAFEA
Copy CRC 8DACAFEA
Copy OK

No errors occurred


AccurateRip summary

Track 1 accurately ripped (confidence 2) [E321E3D5]
Track 2 accurately ripped (confidence 2) [0B96A1DA]
Track 3 accurately ripped (confidence 2) [5A4BE91B]

All tracks accurately ripped

End of status report


Limp Bizkit: Singles Collection part 1 (1997-2000)

Tracklist CD05. 2000 - My Generation [Flip/Interscope Records, 497 444-2, EU]:

01. My Generation (Radio Edit) [00:03:41]
02. Back O Da Bus (Non-LP Version) [00:01:20]
03. Faith (LP Version) [00:02:25]

Exact Audio Copy V0.99 prebeta 5 from 4. May 2009

EAC extraction logfile from 28. May 2010, 7:59

Limp Bizkit / My Generation

Used drive : ASUS DRW-1814BLT Adapter: 5 ID: 0

Read mode : Secure
Utilize accurate stream : Yes
Defeat audio cache : Yes
Make use of C2 pointers : No

Read offset correction : 6
Overread into Lead-In and Lead-Out : No
Fill up missing offset samples with silence : Yes
Delete leading and trailing silent blocks : No
Null samples used in CRC calculations : Yes
Used interface : Native Win32 interface for Win NT & 2000

Used output format : User Defined Encoder
Selected bitrate : 1024 kBit/s
Quality : High
Add ID3 tag : No
Command line compressor : C:\Program Files (x86)\Exact Audio Copy\wavpack.exe
Additional command line options : -h %s %d


TOC of the extracted CD

Track | Start | Length | Start sector | End sector
––––––––––––––––––––––––––––-
1 | 0:00.00 | 3:41.42 | 0 | 16616
2 | 3:41.42 | 1:21.53 | 16617 | 22744
3 | 5:03.20 | 2:26.42 | 22745 | 33736
4 | 10:01.62 | 7:53.53 | 45137 | 80664


Range status and errors

Selected range

Filename C:\Users\Admin\Desktop\Limp Bizkit - My Generation.wav

Peak level 98.8 %
Range quality 100.0 %
Test CRC 0C8CD7CB
Copy CRC 0C8CD7CB
Copy OK

No errors occurred


AccurateRip summary

Track 1 accurately ripped (confidence 3) [15196739]
Track 2 accurately ripped (confidence 3) [EB5F6604]
Track 3 accurately ripped (confidence 3) [5AE73119]

All tracks accurately ripped

End of status report


Limp Bizkit: Singles Collection part 1 (1997-2000)

Tracklist CD06. 2000 - My Generation / Rollin' [Flip/Interscope Records INTR-10200-2, USA]:

01. My Generation (Radio Edit) [00:03:41]
02. Rollin' (Air Raid Vehicle) (Radio Edit) [00:03:37]

Exact Audio Copy V0.99 prebeta 5 from 4. May 2009

Отчёт EAC об извлечении, выполненном 15. февраля 2011, 13:24

Limp Bizkit / My Generation / Rollin'

Дисковод: ASUS DRW-1814BLT Adapter: 5 ID: 0

Режим чтения : Достоверность
Использование точного потока : Да
Отключение кэша аудио : Да
Использование указателей C2 : Нет

Коррекция смещения при чтении : 6
Способность читать области Lead-in и Lead-out : Нет
Заполнение пропущенных сэмплов тишиной : Да
Удаление блоков с тишиной в начале и конце : Нет
При вычислениях CRC использовались нулевые сэмплы : Да
Интерфейс : Встроенный Win32-интерфейс для Win NT/2000

Выходной формат : Пользовательский кодировщик
Выбранный битрейт : 1024 kBit/s
Качество : Высокий
Добавление ID3-тэга : Нет
Утилита сжатия : C:\Program Files\Exact Audio Copy\Flac\wavpack.exe
Дополнительные параметры : -hm %s %d


TOC извлечённого CD

Трек | Старт | Длительность | Начальный сектор | Конечный сектор
––––––––––––––––––––––––––––––––––-
1 | 0:00.00 | 3:42.47 | 0 | 16696
2 | 3:42.47 | 3:38.50 | 16697 | 33096


Характеристики диапазона извлечения и сообщения об ошибках

Выбранный диапазон

Имя файла C:\Users\Admin\Desktop\2000 - My Generation _ Rollin' [Flip_Interscope Records, Promo, INTR-10200-2, USA]\Limp Bizkit - My Generation Rollin'.wav

Пиковый уровень 98.8 %
Качество диапазона 99.9 %
CRC теста 50525B51
CRC копии 50525B51
Копирование… OK

Ошибок не произошло


AccurateRip: сводка

Трек 1 нет в базе данных
Трек 2 нет в базе данных

Ни одного трека нет в базе AccurateRip

Конец отчёта


Limp Bizkit: Singles Collection part 1 (1997-2000)

Tracklist CD07. 2000 - N 2 Gether Now / Break Stuff [Flip/Interscope Records, 497 309-2, EU]:

01. Break Stuff (Album Version) [00:02:46]
02. Crushed (Album Version) [00:03:23]
03. N2 Gether Now Feat. Method Man (Album Version) [00:03:53]

Exact Audio Copy V0.99 prebeta 5 from 4. May 2009

EAC extraction logfile from 28. May 2010, 8:32

Limp Bizkit / N 2 Gether Now / Break Stuff (Single)

Used drive : ASUS DRW-1814BLT Adapter: 5 ID: 0

Read mode : Secure
Utilize accurate stream : Yes
Defeat audio cache : Yes
Make use of C2 pointers : No

Read offset correction : 6
Overread into Lead-In and Lead-Out : No
Fill up missing offset samples with silence : Yes
Delete leading and trailing silent blocks : No
Null samples used in CRC calculations : Yes
Used interface : Native Win32 interface for Win NT & 2000

Used output format : User Defined Encoder
Selected bitrate : 1024 kBit/s
Quality : High
Add ID3 tag : No
Command line compressor : C:\Program Files (x86)\Exact Audio Copy\wavpack.exe
Additional command line options : -h %s %d


TOC of the extracted CD

Track | Start | Length | Start sector | End sector
––––––––––––––––––––––––––––-
1 | 0:00.00 | 2:48.02 | 0 | 12601
2 | 2:48.02 | 3:25.25 | 12602 | 28001
3 | 6:13.27 | 3:55.28 | 28002 | 45654
4 | 12:40.55 | 9:16.45 | 57055 | 98799


Range status and errors

Selected range

Filename C:\Users\Admin\Desktop\Limp Bizkit - N 2 Gether Now Break Stuff (Single).wav

Peak level 98.8 %
Range quality 100.0 %
Test CRC CBA316A1
Copy CRC CBA316A1
Copy OK

No errors occurred


AccurateRip summary

Track 1 accurately ripped (confidence 3) [C523DAF9]
Track 2 accurately ripped (confidence 3) [D5CD279B]
Track 3 accurately ripped (confidence 3) [5D2EB0D5]

All tracks accurately ripped

End of status report


Limp Bizkit: Singles Collection part 1 (1997-2000)

Tracklist CD08. 2000 - Re-Arranged [Flip/Interscope Records, 497 139-2, EU]:

01. Re-Arranged (Dirty Version) [00:05:54]
02. Faith [00:03:23]
03. Counterfeit (Lethal Dose Remix) [00:02:26]

Exact Audio Copy V0.99 prebeta 5 from 4. May 2009

EAC extraction logfile from 28. May 2010, 7:35

Limp Bizkit / Re-Arranged (Single)

Used drive : ASUS DRW-1814BLT Adapter: 5 ID: 0

Read mode : Secure
Utilize accurate stream : Yes
Defeat audio cache : Yes
Make use of C2 pointers : No

Read offset correction : 6
Overread into Lead-In and Lead-Out : No
Fill up missing offset samples with silence : Yes
Delete leading and trailing silent blocks : No
Null samples used in CRC calculations : Yes
Used interface : Native Win32 interface for Win NT & 2000

Used output format : User Defined Encoder
Selected bitrate : 1024 kBit/s
Quality : High
Add ID3 tag : No
Command line compressor : C:\Program Files (x86)\Exact Audio Copy\wavpack.exe
Additional command line options : -h %s %d


TOC of the extracted CD

Track | Start | Length | Start sector | End sector
––––––––––––––––––––––––––––-
1 | 0:00.00 | 5:56.05 | 0 | 26704
2 | 5:56.05 | 3:23.12 | 26705 | 41941
3 | 9:19.17 | 2:26.55 | 41942 | 52946
4 | 14:17.72 | 7:03.31 | 64347 | 96102


Range status and errors

Selected range

Filename C:\Users\Admin\Desktop\Limp Bizkit - Re-Arranged (Single).wav

Peak level 99.9 %
Range quality 99.9 %
Test CRC 61F16F23
Copy CRC 61F16F23
Copy OK

No errors occurred


AccurateRip summary

Track 1 accurately ripped (confidence 1) [2E260EAB]
Track 2 accurately ripped (confidence 1) [AB505FF7]
Track 3 accurately ripped (confidence 1) [51ABB7CF]

All tracks accurately ripped

End of status report


Limp Bizkit: Singles Collection part 1 (1997-2000)

Tracklist CD09. 2000 - Rollin' [Flip/Interscope Records, IND 97474, EU]:

01. Rollin' (Air Raid Vehicle) [00:03:37]
02. Rollin' (Urban Assault Vehicle) Feat. Method Man, Redman And DMX [00:06:22]
03. Take A Look Around (Theme From MI:2) (Live) [00:06:48]

Exact Audio Copy V0.99 prebeta 5 from 4. May 2009

Отчёт EAC об извлечении, выполненном 26. ноября 2010, 18:55

Limp Bizkit / Rollin' (Single)

Дисковод: ASUS DRW-1814BLT Adapter: 5 ID: 0

Режим чтения : Достоверность
Использование точного потока : Да
Отключение кэша аудио : Да
Использование указателей C2 : Нет

Коррекция смещения при чтении : 6
Способность читать области Lead-in и Lead-out : Нет
Заполнение пропущенных сэмплов тишиной : Да
Удаление блоков с тишиной в начале и конце : Нет
При вычислениях CRC использовались нулевые сэмплы : Да
Интерфейс : Встроенный Win32-интерфейс для Win NT/2000

Выходной формат : Пользовательский кодировщик
Выбранный битрейт : 1024 kBit/s
Качество : Высокий
Добавление ID3-тэга : Нет
Утилита сжатия : C:\Program Files\Exact Audio Copy\Flac\wavpack.exe
Дополнительные параметры : -hm %s %d


TOC извлечённого CD

Трек | Старт | Длительность | Начальный сектор | Конечный сектор
––––––––––––––––––––––––––––––––––-
1 | 0:00.00 | 3:36.55 | 0 | 16254
2 | 3:36.55 | 6:22.10 | 16255 | 44914
3 | 9:58.65 | 6:48.07 | 44915 | 75521
4 | 19:18.72 | 37:55.72 | 86922 | 257618


Характеристики диапазона извлечения и сообщения об ошибках

Выбранный диапазон

Имя файла C:\Users\Admin\Desktop\2001 - Rollin' [Flip_Interscope Records, IND 97474, EU]\Limp Bizkit - Rollin' (Single).wav

Пиковый уровень 100.0 %
Качество диапазона 100.0 %
CRC теста 28D280FB
CRC копии 28D280FB
Копирование… OK

Ошибок не произошло


AccurateRip: сводка

Трек 1 точное извлечение (доверие 4) [93DDDC0A]
Трек 2 точное извлечение (доверие 4) [CC11C4EB]
Трек 3 точное извлечение (доверие 4) [12D95304]

Все треки извлечены точно

Конец отчёта


Limp Bizkit: Singles Collection part 1 (1997-2000)

Tracklist CD10. 2000 - Rollin' [Interscope Records, 497 4802, Australla]:

01. Rollin' (Air Raid Vehicle) [00:03:35]
02. Rollin' (Urban Assault Vehicle) Feat. Method Man, Redman And DMX [00:06:24]
03. I Would For You (Live) [00:04:42]
04. Take A Look Around (Theme From MI:2) (Instrumental) [00:06:21]

Exact Audio Copy V0.99 prebeta 5 from 4. May 2009

Отчёт EAC об извлечении, выполненном 26. ноября 2010, 20:01

Limp Bizkit / Rollin' (Single)

Дисковод: ASUS DRW-1814BLT Adapter: 5 ID: 0

Режим чтения : Достоверность
Использование точного потока : Да
Отключение кэша аудио : Да
Использование указателей C2 : Нет

Коррекция смещения при чтении : 6
Способность читать области Lead-in и Lead-out : Нет
Заполнение пропущенных сэмплов тишиной : Да
Удаление блоков с тишиной в начале и конце : Нет
При вычислениях CRC использовались нулевые сэмплы : Да
Интерфейс : Встроенный Win32-интерфейс для Win NT/2000

Выходной формат : Пользовательский кодировщик
Выбранный битрейт : 1024 kBit/s
Качество : Высокий
Добавление ID3-тэга : Нет
Утилита сжатия : C:\Program Files\Exact Audio Copy\Flac\wavpack.exe
Дополнительные параметры : -hm %s %d


TOC извлечённого CD

Трек | Старт | Длительность | Начальный сектор | Конечный сектор
––––––––––––––––––––––––––––––––––-
1 | 0:00.00 | 3:35.32 | 0 | 16156
2 | 3:35.32 | 6:24.03 | 16157 | 44959
3 | 9:59.35 | 4:41.42 | 44960 | 66076
4 | 14:41.02 | 6:21.35 | 66077 | 94686


Характеристики диапазона извлечения и сообщения об ошибках

Выбранный диапазон

Имя файла C:\Users\Admin\Desktop\2000 - Rollin' [Interscope Records, 497 4802, Australla]\Limp Bizkit - Rollin' (Single).wav

Подозрительная позиция 0:21:02

Пиковый уровень 99.9 %
Качество диапазона 99.9 %
CRC теста 62BFB055
CRC копии 62BFB055
Копирование завершено

Были ошибки


AccurateRip: сводка

Трек 1 нет в базе данных
Трек 2 нет в базе данных
Трек 3 нет в базе данных
Трек 4 нет в базе данных

Ни одного трека нет в базе AccurateRip

Конец отчёта


Limp Bizkit: Singles Collection part 1 (1997-2000)

Tracklist CD11. 2000 - Take A Look Around [Flip/Interscope Records, 497 367-2, EU]:

01. Take A Look Around (Theme From MI: 2) (Radio Edit) [00:04:24]
02. N 2 Gether Now Feat. Method Man (Live) [00:04:02]
03. Nookie (Live) [00:06:51]

Exact Audio Copy V0.99 prebeta 5 from 4. May 2009

EAC extraction logfile from 28. May 2010, 8:17

Limp Bizkit / Take A Look Around (Single)

Used drive : ASUS DRW-1814BLT Adapter: 5 ID: 0

Read mode : Secure
Utilize accurate stream : Yes
Defeat audio cache : Yes
Make use of C2 pointers : No

Read offset correction : 6
Overread into Lead-In and Lead-Out : No
Fill up missing offset samples with silence : Yes
Delete leading and trailing silent blocks : No
Null samples used in CRC calculations : Yes
Used interface : Native Win32 interface for Win NT & 2000

Used output format : User Defined Encoder
Selected bitrate : 1024 kBit/s
Quality : High
Add ID3 tag : No
Command line compressor : C:\Program Files (x86)\Exact Audio Copy\wavpack.exe
Additional command line options : -h %s %d


TOC of the extracted CD

Track | Start | Length | Start sector | End sector
––––––––––––––––––––––––––––-
1 | 0:00.00 | 4:27.22 | 0 | 20046
2 | 4:27.22 | 4:05.28 | 20047 | 38449
3 | 8:32.50 | 6:54.42 | 38450 | 69541
4 | 17:59.17 | 8:18.15 | 80942 | 118306


Range status and errors

Selected range

Filename C:\Users\Admin\Desktop\Limp Bizkit - Take A Look Around (Single).wav

Peak level 96.3 %
Range quality 100.0 %
Test CRC 90298B8E
Copy CRC 90298B8E
Copy OK

No errors occurred


AccurateRip summary

Track 1 accurately ripped (confidence 8) [D70205CC]
Track 2 accurately ripped (confidence 7) [50E38884]
Track 3 accurately ripped (confidence 7) [0E29C5A8]

All tracks accurately ripped

End of status report


Limp Bizkit: Singles Collection part 1 (1997-2000)

Tracklist CD12. 2000 - Take A Look Around [Flip/Interscope Records, 497 369-2, EU]:

01. Take A Look Around (Theme From MI: 2) (Radio Edit) [0:04:26.66]
02. N 2 Gether Now Feat. Method Man (Live) [0:04:05.93]

Exact Audio Copy V0.99 prebeta 5 from 4. May 2009

Отчёт EAC об извлечении, выполненном 14. июля 2010, 12:43

Limp Bizkit / Take A Look Around (Single Part II)

Дисковод: ASUS DRW-1814BLT Adapter: 5 ID: 0

Режим чтения : Достоверность
Использование точного потока : Да
Отключение кэша аудио : Да
Использование указателей C2 : Нет

Коррекция смещения при чтении : 6
Способность читать области Lead-in и Lead-out : Нет
Заполнение пропущенных сэмплов тишиной : Да
Удаление блоков с тишиной в начале и конце : Нет
При вычислениях CRC использовались нулевые сэмплы : Да
Интерфейс : Встроенный Win32-интерфейс для Win NT/2000

Выходной формат : Пользовательский кодировщик
Выбранный битрейт : 128 kBit/s
Качество : Высокий
Добавление ID3-тэга : Нет
Утилита сжатия : C:\Program Files\Exact Audio Copy\Flac\wavpack.exe
Дополнительные параметры : -hm %s %d


TOC извлечённого CD

Трек | Старт | Длительность | Начальный сектор | Конечный сектор
––––––––––––––––––––––––––––––––––-
1 | 0:00.00 | 4:26.50 | 0 | 19999
2 | 4:26.50 | 4:05.70 | 20000 | 38444
3 | 11:04.45 | 8:17.72 | 49845 | 87191


Характеристики диапазона извлечения и сообщения об ошибках

Выбранный диапазон

Имя файла C:\Users\Admin\Desktop\2000 - Take A Look Around (Single Part II)\Limp Bizkit - Take A Look Around (Single Part II).wav

Пиковый уровень 99.3 %
Качество диапазона 100.0 %
CRC теста F74390CC
CRC копии F74390CC
Копирование… OK

Ошибок не произошло


AccurateRip: сводка

Трек 1 точное извлечение (доверие 3) [04BBB08F]
Трек 2 точное извлечение (доверие 3) [4E2BAE18]

Все треки извлечены точно

Конец отчёта


All thanks go to the original releasers

Limp Bizkit in my Blog

Download Limp Bizkit: Singles Collection part 1 (1997-2000):