Tags
Language
Tags

Livin' Blues - The Early Blues Sessions (1993) {Limited Edition, Remastered}

Posted By: popsakov
Livin' Blues - The Early Blues Sessions (1993) {Limited Edition, Remastered}

Livin' Blues - The Early Blues Sessions (1993) {Limited Edition, Remastered}
EAC Rip | FLAC (Img) + Cue + Log ~ 222 Mb | MP3 CBR320 ~ 139 Mb
Full Scans | 00:45:51 | RAR 5% Recovery
Electric Blues / Harmonica Blues / Blues Rock
Pseudonym Records #CDP 1007 DD

This Dutch blues band was formed in the Hague around 1967, becoming a regular outfit from 1969. The early line-up included Bjorn Toll (vocals), John Lagrand (harmonica), Ted Oberg (guitar), Ruud Fransen (bass) and Niek Dijkhuys (drums) but although the name remained wholesale changes soon took place, bringing in a new singer, Nicko Christiansen, and new bass and drums, Peter Kleinjan and Beer Klaasse, the latter pair being swiftly replaced by Gerard Strutbaum and Cesar Zuiderwijk, while keyboard player Henk Smitskamp was added. Other changes followed through the 70s, by which time the band’s repertoire was more inclined towards rock. Musicians involved included bass players Ruud van Buuren, Jan van der Voort, Jaap van Eijk and André Reynen, drummers John Lejeune, Herman van Boeyen, Cor van Beek, Michel Driessen, Kenny Lamb and Arjen Kamminga; the latter pair played in the band simultaneously for a spell. Smitskamp sometimes played bass, singer Johnny Frederiksz came in, as did organist Paul Vin and guitarist Ron Meyes.

Although best known in the Netherlands, Livin’ Blues also gained a following elsewhere in Europe, especially in Poland. At the start of the 80s, the band included Oberg, Christiansen, Evert Willemstein (bass) and Boris Wassenbergh (drums). Spin-off bands formed by ex-members of the Livin’ Blues included Nitehawk and the J&T Band, while most members also played with other Dutch blues and rock bands. The band recorded from 1968, cutting a few singles with its first album coming in 1969. The band appears to have drifted from the limelight after the early 80s but interest in its recorded work remained high into the new millennium.

~ All Music
Livin' Blues - The Early Blues Sessions (1993) {Limited Edition, Remastered}


***************

Livin' Blues - The Early Blues Sessions (1993) {Limited Edition, Remastered}

Livin' Blues - The Early Blues Sessions (1993) {Limited Edition, Remastered}

Track List:

01. One Night Boy [5:06]
02. Rock Me Baby [3:00]
03. Lonesome Road [4:42]
04. Born In Chicago [3:05]
05. Choice [2:31]
06. Selection [5:19]
07. I Don't Know [5:56]
08. Statement [3:53]
09. Polisch Blues [4:41]
10. Going Down Slow [3:52]
11. You Don't Know How Much I Love You [3:45]

Personnel:
Backing Vocals - Hans Vermeulen (tracks: 10, 11)
Bass - Gerard Strotbaum (tracks: 3, 4), Peter Kleinjan (tracks: 1, 2, 10, 11), Ruud Fransen (tracks: 10, 11), Ruud Van Buuren (tracks: 7), Ted Oberg (tracks: 5, 6, 8)
Bass, Organ, Piano - Jan Van Der Voort (tracks: 5, 6)
Drums - Beer Klaassen (tracks: 3, 4), Johnny Le Jeune (tracks: 5 To 7), Nico Dijkhuizen (tracks: 1, 2)
Electric Piano, Clavinet - Marek (25) (tracks: 9)
Harmonica - John La Grand (tracks: 1 To 7)
Lead Guitar - Ted Oberg
Vocals - Djorn Pool (tracks: 10, 11), Nicko Christiansen (tracks: 1 To 7)

Exact Audio Copy V1.1 from 23. June 2015

EAC extraction logfile from 9. July 2018, 17:27

Livin' Blues / The Early Blues Sessions

Used drive : Optiarc DVD RW AD-7283S Adapter: 1 ID: 0

Read mode : Secure
Utilize accurate stream : Yes
Defeat audio cache : Yes
Make use of C2 pointers : No

Read offset correction : 48
Overread into Lead-In and Lead-Out : No
Fill up missing offset samples with silence : Yes
Delete leading and trailing silent blocks : No
Null samples used in CRC calculations : Yes
Used interface : Native Win32 interface for Win NT & 2000

Used output format : User Defined Encoder
Selected bitrate : 128 kBit/s
Quality : High
Add ID3 tag : No
Command line compressor : C:\Program Files (x86)\Exact Audio Copy\Flac\flac.exe
Additional command line options : -V -8 -T "Genre=%genre%" -T "Artist=%artist%" -T "Title=%title%" -T "Album=%albumtitle%" -T "Date=%year%" -T "Tracknumber=%tracknr%" -T "Comment=%comment%" %source%


TOC of the extracted CD

Track | Start | Length | Start sector | End sector
––––––––––––––––––––––––––––-
1 | 0:00.32 | 5:06.28 | 32 | 23009
2 | 5:06.60 | 2:59.47 | 23010 | 36481
3 | 8:06.32 | 4:42.05 | 36482 | 57636
4 | 12:48.37 | 3:04.63 | 57637 | 71499
5 | 15:53.25 | 2:31.37 | 71500 | 82861
6 | 18:24.62 | 5:19.18 | 82862 | 106804
7 | 23:44.05 | 5:56.20 | 106805 | 133524
8 | 29:40.25 | 3:53.17 | 133525 | 151016
9 | 33:33.42 | 4:40.38 | 151017 | 172054
10 | 38:14.05 | 3:52.00 | 172055 | 189454
11 | 42:06.05 | 3:44.70 | 189455 | 206324


Range status and errors

Selected range

Filename J:\alexbras\Livin' Blues - 1993 - The Early Blues Sessions (CDP 1007 DD)\Livin' Blues - The Early Blues Sessions.wav

Peak level 98.0 %
Extraction speed 3.8 X
Range quality 100.0 %
Test CRC D5623185
Copy CRC D5623185
Copy OK

No errors occurred


AccurateRip summary

Track 1 accurately ripped (confidence 4) [41F1F707] (AR v2)
Track 2 accurately ripped (confidence 4) [8F8AA39E] (AR v2)
Track 3 accurately ripped (confidence 4) [526ADB66] (AR v2)
Track 4 accurately ripped (confidence 4) [A9223B13] (AR v2)
Track 5 accurately ripped (confidence 4) [586C8AA1] (AR v2)
Track 6 accurately ripped (confidence 4) [08E9905E] (AR v2)
Track 7 accurately ripped (confidence 4) [F0CC3D07] (AR v2)
Track 8 accurately ripped (confidence 4) [B498DC77] (AR v2)
Track 9 accurately ripped (confidence 4) [35E81C64] (AR v2)
Track 10 accurately ripped (confidence 4) [41BADB31] (AR v2)
Track 11 accurately ripped (confidence 4) [D4CCD1EC] (AR v2)

All tracks accurately ripped

End of status report

==== Log checksum 39FDFA328F968EA4EB41327A49700AFDE026F7A9C965DF81140A120DD0A56F31 ====

[CUETools log; Date: 16.08.2018 21:31:24; Version: 2.1.6]
Pregap length 00:00:32.
[CTDB TOCID: oINOmD_.FPNJ.18XfjDpHFEdp.0-] found.
Track | CTDB Status
1 | (10/10) Accurately ripped
2 | (10/10) Accurately ripped
3 | (10/10) Accurately ripped
4 | (10/10) Accurately ripped
5 | (10/10) Accurately ripped
6 | (10/10) Accurately ripped
7 | (10/10) Accurately ripped
8 | (10/10) Accurately ripped
9 | (10/10) Accurately ripped
10 | (10/10) Accurately ripped
11 | (10/10) Accurately ripped
[AccurateRip ID: 0012c771-00a335e1-950abf0b] found.
Track [ CRC | V2 ] Status
01 [271c7ea8|41f1f707] (0+4/6) Accurately ripped
02 [47ac6d31|8f8aa39e] (0+4/8) Accurately ripped
03 [944659ac|526adb66] (0+4/8) Accurately ripped
04 [55d0e758|a9223b13] (0+4/8) Accurately ripped
05 [887cff2e|586c8aa1] (0+4/8) Accurately ripped
06 [8fcc4375|08e9905e] (0+4/8) Accurately ripped
07 [4c748661|f0cc3d07] (0+4/8) Accurately ripped
08 [ad9e58f0|b498dc77] (0+4/8) Accurately ripped
09 [d7d49635|35e81c64] (0+4/8) Accurately ripped
10 [99f825d4|41badb31] (0+4/8) Accurately ripped
11 [f43ec97e|d4ccd1ec] (0+4/8) Accurately ripped
Offsetted by -299:
01 [d07cad36] (0/6) No match (V2 was not tested)
02 [c20fd64c] (0/8) No match (V2 was not tested)
03 [1f8d5d9e] (0/8) No match (V2 was not tested)
04 [9db378a5] (0/8) No match (V2 was not tested)
05 [158f0e02] (0/8) No match (V2 was not tested)
06 [58159084] (0/8) No match (V2 was not tested)
07 [895599c6] (0/8) No match (V2 was not tested)
08 [57234bd2] (0/8) No match (V2 was not tested)
09 [a575e64e] (0/8) No match (V2 was not tested)
10 [17dd093b] (0/8) No match (V2 was not tested)
11 [1785d6a0] (0/8) No match (V2 was not tested)
Offsetted by -270:
01 [064441f4] (0/6) No match (V2 was not tested)
02 [52047b9f] (0/8) No match (V2 was not tested)
03 [b824df60] (0/8) No match (V2 was not tested)
04 [2ad96dfa] (0/8) No match (V2 was not tested)
05 [e67c2df6] (0/8) No match (V2 was not tested)
06 [8a0277eb] (0/8) No match (V2 was not tested)
07 [e950e4f3] (0/8) No match (V2 was not tested)
08 [99bf1204] (0/8) No match (V2 was not tested)
09 [4475aa4f] (0/8) No match (V2 was not tested)
10 [786384ba] (0/8) No match (V2 was not tested)
11 [5973d112] (0/8) No match (V2 was not tested)

Track Peak [ CRC32 ] [W/O NULL] [ LOG ]
– 98,0 [D5623185] [E8B5F5A8] CRC32
01 92,9 [068E3CDB] [80AE7373]
02 87,8 [A3877FCA] [B426E557]
03 98,0 [398DBCC7] [2145B3AF]
04 84,8 [B86D8EDA] [BEF43E76]
05 81,3 [8DE31B34] [4B89F46D]
06 79,7 [2B90E6AA] [E2AEEEEA]
07 81,8 [42C2E6B2] [03B6E3D2]
08 57,0 [9D9AA35C] [2FF616FE]
09 86,7 [4724D29B] [24099860]
10 64,1 [07780A89] [81AA7D14]
11 87,5 [374F4420] [22EBBC73]

Livin' Blues - The Early Blues Sessions (1993) {Limited Edition, Remastered}


See also:

Livin’ Blues - Wang Dang Do...zle (1970) {1988, Reissue}

Livin' Blues - Blue Breeze (1976) {1997, Reissue}

All thanks go to alex1248

>>> My Blog <<<

DOWNLOAD: