Subcategories

Lizzy Borden - The Murderess Metal Road Show (Live) (1986) [Japan 1st Press]

Posted By: Andi_Deris
Lizzy Borden - The Murderess Metal Road Show (Live) (1986) [Japan 1st Press]

Lizzy Borden - Menace To Society (Live) (1986) [Japan 1st Press]
EAC Rip | FLAC: Image+Cue+Log | 470 Mb | MP3 CBR 320 kbps | 168 Mb | Scans | Time: 01:09:38
Genre: Heavy Metal, Glam/Hair Metal, Shock Rock | Label: FEMS | Cat.: MP38-5114

In the wake of Mötley Crüe's meteoric rise to superstardom in 1983 on the strength of their now classic album Shout at the Devil, a countless amount of other similarly styled theatrical metal bands cropped up in the Los Angeles heavy metal community, including Lizzy Borden. This is a classic show, a Great Band and their music, some props - a classic. This album captures Lizzy Borden at their musical and creative peak.

Lizzy Borden - The Murderess Metal Road Show (Live) (1986) [Japan 1st Press]




Track Listing

01. Council For The Cauldron (4:46)
02. Flesheater (3:03)
03. Warfare (4:11)
04. No Time To Lose (2:38)
05. Rod Of Iron (5:26)
06. Save Me (3:20)
07. Godiva (2:32)
08. Psychopath (3:53)
09. Love You To Pieces (5:09)
10. Live And Let Die (Paul McCartney and Wings cover) (3:45)
11. Kiss Of Death (2:28)
12. Red Rum (5:05)
13. American Metal (6:01)
14. Give 'Em The Axe (2:46)
15. Finale (3:40)
16. Dead Serious (studio recording) (4:45)
17. (Wake Up) Time To Die (studio recording) (6:10)

Produced by Lizzy Borden & Brian Slagel

The Band

• Lizzy Borden - vocals
• Alex Nelson, Gene Allen - guitars
• Mike Davis - bass
• Joey Scott Harges - drums

Exact Audio Copy V0.99 prebeta 5 from 4. May 2009

Отчёт EAC об извлечении, выполненном 31. мая 2010, 22:22

Lizzy Borden / The Murderess Metal Road Show [MP38-5114]

Дисковод: MATSHITADVD-RAM UJ-850S Adapter: 0 ID: 0

Режим чтения : Достоверность
Использование точного потока : Да
Отключение кэша аудио : Да
Использование указателей C2 : Нет

Коррекция смещения при чтении : 102
Способность читать области Lead-in и Lead-out : Нет
Заполнение пропущенных сэмплов тишиной : Да
Удаление блоков с тишиной в начале и конце : Нет
При вычислениях CRC использовались нулевые сэмплы : Да
Интерфейс : Установленный внешний ASPI-интерфейс

Выходной формат : Пользовательский кодировщик
Выбранный битрейт : 128 kBit/s
Качество : Высокий
Добавление ID3-тэга : Нет
Утилита сжатия : C:\Program Files\Exact Audio Copy\Flac\flac.exe
Дополнительные параметры : -6 -V -T "artist=%a" -T "title=%t" -T "album=%g" -T "date=%y" -T "tracknumber=%n" -T "genre=%m" -T "comment=EAC 0.99beta5 / FLAC 1.1.0 q6" %s


TOC извлечённого CD

Трек | Старт | Длительность | Начальный сектор | Конечный сектор
––––––––––––––––––––––––––––––––––-
1 | 0:00.37 | 4:46.65 | 37 | 21551
2 | 4:47.27 | 3:03.03 | 21552 | 35279
3 | 7:50.30 | 4:11.35 | 35280 | 54139
4 | 12:01.65 | 2:38.70 | 54140 | 66059
5 | 14:40.60 | 5:26.17 | 66060 | 90526
6 | 20:07.02 | 3:20.15 | 90527 | 105541
7 | 23:27.17 | 2:32.00 | 105542 | 116941
8 | 25:59.17 | 3:53.23 | 116942 | 134439
9 | 29:52.40 | 5:09.57 | 134440 | 157671
10 | 35:02.22 | 3:45.58 | 157672 | 174604
11 | 38:48.05 | 2:28.55 | 174605 | 185759
12 | 41:16.60 | 5:05.40 | 185760 | 208674
13 | 46:22.25 | 6:01.40 | 208675 | 235789
14 | 52:23.65 | 2:46.70 | 235790 | 248309
15 | 55:10.60 | 3:40.35 | 248310 | 264844
16 | 58:51.20 | 4:45.62 | 264845 | 286281
17 | 63:37.07 | 6:10.50 | 286282 | 314081


Характеристики диапазона извлечения и сообщения об ошибках

Выбранный диапазон

Имя файла Y:\Музыка\Lizzy Borden\1986 The Murderess Metal Road Show\Lizzy Borden - The Murderess Metal Road Show [MP38-5114].wav

Пиковый уровень 75.2 %
Качество диапазона 100.0 %
CRC копии E31FB229
Копирование… OK

Ошибок не произошло


AccurateRip: сводка

Трек 1 нет в базе данных
Трек 2 нет в базе данных
Трек 3 нет в базе данных
Трек 4 нет в базе данных
Трек 5 нет в базе данных
Трек 6 нет в базе данных
Трек 7 нет в базе данных
Трек 8 нет в базе данных
Трек 9 нет в базе данных
Трек 10 нет в базе данных
Трек 11 нет в базе данных
Трек 12 нет в базе данных
Трек 13 нет в базе данных
Трек 14 нет в базе данных
Трек 15 нет в базе данных
Трек 16 нет в базе данных
Трек 17 нет в базе данных

Ни одного трека нет в базе AccurateRip

Конец отчёта


Many thanks to the original uploader: ikebana

See also:
Legacy 1998 Legacy [Japanese Ed.]

Lizzy Borden 1985 Love You To Pieces [Remastered 2002]
Lizzy Borden 1986 Menace To Society [Japan 1st Press]
Lizzy Borden 1987 Visual Lies [Japan 1st Press]
Lizzy Borden 1989 Master Of Disguise [Japan 1st Press]