Tags
Language
Tags
July 2024
Su Mo Tu We Th Fr Sa
30 1 2 3 4 5 6
7 8 9 10 11 12 13
14 15 16 17 18 19 20
21 22 23 24 25 26 27
28 29 30 31 1 2 3

Lonnie Donegan - Rock Island Line: The Singles Anthology 1955-1967 (Remastered) (2002)

Posted By: Rtax
Lonnie Donegan - Rock Island Line: The Singles Anthology 1955-1967 (Remastered) (2002)

Lonnie Donegan - Rock Island Line: The Singles Anthology 1955-1967 (Remastered) (2002)
EAC Rip | FLAC (tracks, cue, log, scans) - 1.2 GB | MP3 CBR 320kbps - 559 MB
3:54:48 | Rock, Pop, Skiffle | Label: Castle Music

Full Title - Rock Island Line - The Singles Anthology 1955-1967. The first comprehensive singles anthology for the UK musical pioneer. 86 tracks across three CDs (slimline) in a slipcase box, many appearing on CD for the first time. All Lonnie's A & B-sides between 1955-67, including his very first hit 'Rock Island Line'. The first time his Decca & Pye recordings have been compiled in the same package. More than 30 UK hits, including three UK #1s. Castle. 2002.

For most listeners, the three-disc, 86-track Sanctuary/Castle collection Rock Island Line: The Singles Anthology 1955-1967 will be nearly as overwhelming as the eight-disc, all-encompassing Bear Family box More Than "Pye in the Sky," since a little Lonnie Donegan can go a long way for the average listener. But, for those who decide to dig into this collection, they'll quickly discover that he was a remarkably consistent performer and a little more diverse than his skiffle origins would suggest. Skiffle might have been a bit of a straightjacket – it had very rigid rhythmic rules – but Donegan acted more like a folksinger anyway, using skiffle as his foundation and then delving into American folk and country, blues, and a little bit of gospel. He was a good singer and a lively performer, navigating these changes rather easily, and while there wasn't necessarily great development over the years, there was consistency. So, if you decide that you need a comprehensive Lonnie Donegan collection that is nevertheless not entirely complete, this is an excellent choice, but do be forewarned: If you're not already converted, a little of this does go a long way.

Tracklist
Disc 1 (01:18:32)
1. Rock Island Line (02:29)
2. John Henry (02:08)
3. Diggin' My Potatoes (03:12)
4. Bury My Body (03:10)
5. Lost John (02:45)
6. Stewball (02:13)
7. Bring A Little Water, Sylvie (02:29)
8. Dead Or Alive (02:35)
9. Don't You Rock Me Daddy-O (01:44)
10. I'm Alabammy Bound (01:53)
11. Cumberland Gap (02:01)
12. Love Is Strange (02:57)
13. Gamblin' Man (03:21)
14. Puttin' On The Style (03:39)
15. My Dixie Darling (03:06)
16. I'm Just A Rollin' Stone (04:13)
17. Jack O'Diamonds (02:51)
18. Ham 'n' Eggs (03:22)
19. The Grand Coolie Dam (02:41)
20. Nobody Loves Like An Irishman (02:46)
21. Sally, Don't You Grieve (02:15)
22. Betty, Betty, Betty (03:05)
23. Lonesome Traveller (02:55)
24. Times Are Getting Hard, Boys (02:47)
25. Lonnie's Skiffle Party (Part 1) (03:03)
26. Lonnie's Skiffle Party (Part 2) (02:57)
27. Tom Dooley (03:22)
28. Rock O' My Soul (02:33)

Disc 2 (01:18:02)
1. Does Your Chewing Gum Lose Its Flavour (02:47)
2. Aunt Rhody (The Old Grey Goose) (02:28)
3. Fort Worth Jail (02:16)
4. Whoa Buck (Whoa Back, Buck) (02:12)
5. Battle Of New Orleans (03:13)
6. Darling Corey (02:13)
7. Kevin Barry (03:02)
8. My Laggan Love (01:49)
9. Sal's Got A Sugar Lip (02:27)
10. Chesapeake Bay (02:34)
11. San Miguel (01:59)
12. Talking Guitar Blues (02:01)
13. My Old Man's A Dustman (03:22)
14. The Golden Vanity (02:35)
15. I Wanna Go Home (The Wreck Of The John "B") (02:41)
16. Jimmy Brown The Newsboy (02:39)
17. Lorelei (02:07)
18. In All My Wildest Dreams (02:49)
19. Lively! (03:21)
20. Black Cat (Cross My Path Today) (02:37)
21. Virgin Mary (02:20)
22. Beyond The Sunset (02:30)
23. (Bury Me) Beneath The Willow (02:20)
24. Leave My Woman Alone (02:29)
25. Have A Drink On Me (02:53)
26. Seven Daffodils (Seven Golden Daffodils) (03:06)
27. Michael Row The Boat (02:30)
28. Lumbered (03:04)
29. The Comancheros (02:07)
30. Ramblin' 'Round (03:31)

Disc 3 (01:15:43)
1. The Party's Over (02:42)
2. Over The Rainbow (03:24)
3. I'll Never Fall In Love Again (03:45)
4. Keep On The Sunny Side (02:40)
5. Pick A Bale Of Cotton (02:32)
6. Steal Away (02:23)
7. The Market Song (04:05)
8. Tit Bits (03:24)
9. Losing By A Hair (02:40)
10. Trumpet Sounds (02:58)
11. It Was A Very Good Year (03:09)
12. Rise Up (01:51)
13. Lemon Tree (02:58)
14. I've Gotta Gal So Fine (02:24)
15. 500 Miles Away From Home (02:43)
16. This Train (02:28)
17. Beans In My Ears (02:41)
18. It's A Long Road To Travel (02:09)
19. Fisherman's Luck (02:43)
20. There's A Big Wheel (01:59)
21. Get Out Of My Life (02:43)
22. Won't You Tell Me (02:30)
23. Louisiana Man (02:01)
24. Bound For Zion (01:53)
25. World Cup Willie (02:46)
26. Where In The World Are We Going (02:47)
27. Auntie Maggie's Remedy (02:13)
28. (Ah) My Sweet Marie (03:12)
Exact Audio Copy V1.0 beta 3 from 29. August 2011

EAC extraction logfile from 11. February 2021, 18:53

Lonnie Donegan / Rock Island Line: The Singles Anthology 1955-1967 (Disc 1)

Used drive : HL-DT-STCD-RW GCE-8525B Adapter: 3 ID: 1

Read mode : Secure
Utilize accurate stream : Yes
Defeat audio cache : Yes
Make use of C2 pointers : No

Read offset correction : 6
Overread into Lead-In and Lead-Out : No
Fill up missing offset samples with silence : Yes
Delete leading and trailing silent blocks : No
Null samples used in CRC calculations : Yes
Used interface : Native Win32 interface for Win NT & 2000
Gap handling : Appended to previous track

Used output format : User Defined Encoder
Selected bitrate : 1024 kBit/s
Quality : High
Add ID3 tag : No
Command line compressor : C:\Program Files\Exact Audio Copy\FLAC\FLAC.EXE
Additional command line options : -8 -V -T "ARTIST=%artist%" -T "TITLE=%title%" -T "ALBUM=%albumtitle%" -T "DATE=%year%" -T "TRACKNUMBER=%tracknr%" -T "GENRE=%genre%" -T "COMMENT=%comment%" %source% -o %dest%


TOC of the extracted CD

Track | Start | Length | Start sector | End sector
––––––––––––––––––––––––––––-
1 | 0:00.00 | 2:31.22 | 0 | 11346
2 | 2:31.22 | 2:08.70 | 11347 | 21016
3 | 4:40.17 | 3:13.08 | 21017 | 35499
4 | 7:53.25 | 3:10.50 | 35500 | 49799
5 | 11:04.00 | 2:45.42 | 49800 | 62216
6 | 13:49.42 | 2:12.73 | 62217 | 72189
7 | 16:02.40 | 2:29.42 | 72190 | 83406
8 | 18:32.07 | 2:34.55 | 83407 | 95011
9 | 21:06.62 | 1:45.15 | 95012 | 102901
10 | 22:52.02 | 1:53.65 | 102902 | 111441
11 | 24:45.67 | 2:01.50 | 111442 | 120566
12 | 26:47.42 | 2:57.00 | 120567 | 133841
13 | 29:44.42 | 3:21.53 | 133842 | 148969
14 | 33:06.20 | 3:39.22 | 148970 | 165416
15 | 36:45.42 | 3:06.18 | 165417 | 179384
16 | 39:51.60 | 4:13.27 | 179385 | 198386
17 | 44:05.12 | 2:52.23 | 198387 | 211309
18 | 46:57.35 | 3:21.60 | 211310 | 226444
19 | 50:19.20 | 2:41.22 | 226445 | 238541
20 | 53:00.42 | 2:46.00 | 238542 | 250991
21 | 55:46.42 | 2:15.58 | 250992 | 261174
22 | 58:02.25 | 3:05.17 | 261175 | 275066
23 | 61:07.42 | 2:55.63 | 275067 | 288254
24 | 64:03.30 | 2:47.12 | 288255 | 300791
25 | 66:50.42 | 2:59.18 | 300792 | 314234
26 | 69:49.60 | 3:01.00 | 314235 | 327809
27 | 72:50.60 | 3:21.72 | 327810 | 342956
28 | 76:12.57 | 2:29.20 | 342957 | 354151


Track 1

Filename C:\i said woof\Lonnie Donegan - Rock Island Line, The Singles Anthology 1955-1967 [Castle Music]\Disc 1\01 - Rock Island Line.wav

Pre-gap length 0:00:02.00

Peak level 97.7 %
Extraction speed 4.6 X
Track quality 100.0 %
Test CRC B931420C
Copy CRC B931420C
Accurately ripped (confidence 2) [DF823F86] (AR v2)
Copy OK

Track 2

Filename C:\i said woof\Lonnie Donegan - Rock Island Line, The Singles Anthology 1955-1967 [Castle Music]\Disc 1\02 - John Henry.wav

Pre-gap length 0:00:04.02

Peak level 97.7 %
Extraction speed 4.8 X
Track quality 100.0 %
Test CRC 916E6380
Copy CRC 916E6380
Accurately ripped (confidence 2) [9A599EB3] (AR v2)
Copy OK

Track 3

Filename C:\i said woof\Lonnie Donegan - Rock Island Line, The Singles Anthology 1955-1967 [Castle Music]\Disc 1\03 - Diggin' My Potatoes.wav

Pre-gap length 0:00:04.02

Peak level 97.7 %
Extraction speed 5.4 X
Track quality 100.0 %
Test CRC 938BDCEB
Copy CRC 938BDCEB
Accurately ripped (confidence 2) [48E6EDE5] (AR v2)
Copy OK

Track 4

Filename C:\i said woof\Lonnie Donegan - Rock Island Line, The Singles Anthology 1955-1967 [Castle Music]\Disc 1\04 - Bury My Body.wav

Pre-gap length 0:00:04.18

Peak level 97.7 %
Extraction speed 5.8 X
Track quality 100.0 %
Test CRC B18BD3C7
Copy CRC B18BD3C7
Accurately ripped (confidence 2) [1E14BABC] (AR v2)
Copy OK

Track 5

Filename C:\i said woof\Lonnie Donegan - Rock Island Line, The Singles Anthology 1955-1967 [Castle Music]\Disc 1\05 - Lost John.wav

Pre-gap length 0:00:04.13

Peak level 97.7 %
Extraction speed 6.0 X
Track quality 100.0 %
Test CRC 618F4FF1
Copy CRC 618F4FF1
Accurately ripped (confidence 2) [6DEE09C1] (AR v2)
Copy OK

Track 6

Filename C:\i said woof\Lonnie Donegan - Rock Island Line, The Singles Anthology 1955-1967 [Castle Music]\Disc 1\06 - Stewball.wav

Pre-gap length 0:00:04.07

Peak level 97.7 %
Extraction speed 6.0 X
Track quality 100.0 %
Test CRC 6FF0677F
Copy CRC 6FF0677F
Accurately ripped (confidence 2) [498B8FD3] (AR v2)
Copy OK

Track 7

Filename C:\i said woof\Lonnie Donegan - Rock Island Line, The Singles Anthology 1955-1967 [Castle Music]\Disc 1\07 - Bring a Little Water, Sylvie.wav

Pre-gap length 0:00:04.00

Peak level 97.7 %
Extraction speed 6.3 X
Track quality 100.0 %
Test CRC ECD5A533
Copy CRC ECD5A533
Accurately ripped (confidence 2) [67EEF00C] (AR v2)
Copy OK

Track 8

Filename C:\i said woof\Lonnie Donegan - Rock Island Line, The Singles Anthology 1955-1967 [Castle Music]\Disc 1\08 - Dead or Alive.wav

Pre-gap length 0:00:03.70

Peak level 97.7 %
Extraction speed 6.4 X
Track quality 100.0 %
Test CRC E5FED6F4
Copy CRC E5FED6F4
Accurately ripped (confidence 2) [0D73BA8A] (AR v2)
Copy OK

Track 9

Filename C:\i said woof\Lonnie Donegan - Rock Island Line, The Singles Anthology 1955-1967 [Castle Music]\Disc 1\09 - Don't You Rock Me Daddy-O.wav

Pre-gap length 0:00:03.50

Peak level 97.7 %
Extraction speed 6.1 X
Track quality 100.0 %
Test CRC CAADED0C
Copy CRC CAADED0C
Accurately ripped (confidence 2) [3FCC939F] (AR v2)
Copy OK

Track 10

Filename C:\i said woof\Lonnie Donegan - Rock Island Line, The Singles Anthology 1955-1967 [Castle Music]\Disc 1\10 - I'm Alabammy Bound.wav

Pre-gap length 0:00:04.02

Peak level 97.7 %
Extraction speed 5.1 X
Track quality 99.9 %
Test CRC 668D4EF2
Copy CRC 668D4EF2
Accurately ripped (confidence 2) [3B6336EC] (AR v2)
Copy OK

Track 11

Filename C:\i said woof\Lonnie Donegan - Rock Island Line, The Singles Anthology 1955-1967 [Castle Music]\Disc 1\11 - Cumberland Gap.wav

Pre-gap length 0:00:04.10

Peak level 97.7 %
Extraction speed 6.6 X
Track quality 100.0 %
Test CRC 72C03A1A
Copy CRC 72C03A1A
Accurately ripped (confidence 2) [FF8918FF] (AR v2)
Copy OK

Track 12

Filename C:\i said woof\Lonnie Donegan - Rock Island Line, The Singles Anthology 1955-1967 [Castle Music]\Disc 1\12 - Love Is Strange.wav

Pre-gap length 0:00:03.67

Peak level 97.7 %
Extraction speed 7.3 X
Track quality 100.0 %
Test CRC C8BF670E
Copy CRC C8BF670E
Accurately ripped (confidence 2) [C1712F27] (AR v2)
Copy OK

Track 13

Filename C:\i said woof\Lonnie Donegan - Rock Island Line, The Singles Anthology 1955-1967 [Castle Music]\Disc 1\13 - Gamblin' Man.wav

Pre-gap length 0:00:03.67

Peak level 97.7 %
Extraction speed 7.7 X
Track quality 100.0 %
Test CRC 9E62A356
Copy CRC 9E62A356
Accurately ripped (confidence 2) [4612A60B] (AR v2)
Copy OK

Track 14

Filename C:\i said woof\Lonnie Donegan - Rock Island Line, The Singles Anthology 1955-1967 [Castle Music]\Disc 1\14 - Puttin' on the Style.wav

Pre-gap length 0:00:04.05

Peak level 97.7 %
Extraction speed 8.1 X
Track quality 100.0 %
Test CRC AFAFBFC7
Copy CRC AFAFBFC7
Accurately ripped (confidence 2) [8A1B45AA] (AR v2)
Copy OK

Track 15

Filename C:\i said woof\Lonnie Donegan - Rock Island Line, The Singles Anthology 1955-1967 [Castle Music]\Disc 1\15 - My Dixie Darling.wav

Pre-gap length 0:00:03.70

Peak level 97.7 %
Extraction speed 6.9 X
Track quality 99.9 %
Test CRC DD7D62A4
Copy CRC DD7D62A4
Accurately ripped (confidence 2) [3877751A] (AR v2)
Copy OK

Track 16

Filename C:\i said woof\Lonnie Donegan - Rock Island Line, The Singles Anthology 1955-1967 [Castle Music]\Disc 1\16 - I'm Just a Rollin' Stone.wav

Pre-gap length 0:00:04.00

Peak level 97.7 %
Extraction speed 8.6 X
Track quality 100.0 %
Test CRC B7B80512
Copy CRC B7B80512
Accurately ripped (confidence 2) [7E0D69EF] (AR v2)
Copy OK

Track 17

Filename C:\i said woof\Lonnie Donegan - Rock Island Line, The Singles Anthology 1955-1967 [Castle Music]\Disc 1\17 - Jack O'Diamonds.wav

Pre-gap length 0:00:03.72

Peak level 97.7 %
Extraction speed 7.2 X
Track quality 99.9 %
Test CRC 88458B22
Copy CRC 88458B22
Accurately ripped (confidence 2) [4067BC8C] (AR v2)
Copy OK

Track 18

Filename C:\i said woof\Lonnie Donegan - Rock Island Line, The Singles Anthology 1955-1967 [Castle Music]\Disc 1\18 - Ham 'n' Eggs.wav

Pre-gap length 0:00:04.28

Peak level 97.7 %
Extraction speed 8.7 X
Track quality 100.0 %
Test CRC FF5A629D
Copy CRC FF5A629D
Accurately ripped (confidence 2) [64C858E1] (AR v2)
Copy OK

Track 19

Filename C:\i said woof\Lonnie Donegan - Rock Island Line, The Singles Anthology 1955-1967 [Castle Music]\Disc 1\19 - The Grand Coolie Dam.wav

Pre-gap length 0:00:03.73

Peak level 97.7 %
Extraction speed 8.6 X
Track quality 100.0 %
Test CRC 57A8A58B
Copy CRC 57A8A58B
Accurately ripped (confidence 2) [ACA2B462] (AR v2)
Copy OK

Track 20

Filename C:\i said woof\Lonnie Donegan - Rock Island Line, The Singles Anthology 1955-1967 [Castle Music]\Disc 1\20 - Nobody Loves Like an Irishman.wav

Pre-gap length 0:00:03.67

Peak level 97.7 %
Extraction speed 7.5 X
Track quality 99.9 %
Test CRC 2DED2641
Copy CRC 2DED2641
Accurately ripped (confidence 2) [66D70DDE] (AR v2)
Copy OK

Track 21

Filename C:\i said woof\Lonnie Donegan - Rock Island Line, The Singles Anthology 1955-1967 [Castle Music]\Disc 1\21 - Sally, Don't You Grieve.wav

Pre-gap length 0:00:03.65

Peak level 97.7 %
Extraction speed 7.2 X
Track quality 99.9 %
Test CRC 5B4FC297
Copy CRC 5B4FC297
Accurately ripped (confidence 2) [90BB880A] (AR v2)
Copy OK

Track 22

Filename C:\i said woof\Lonnie Donegan - Rock Island Line, The Singles Anthology 1955-1967 [Castle Music]\Disc 1\22 - Betty, Betty, Betty.wav

Pre-gap length 0:00:04.38

Peak level 77.5 %
Extraction speed 8.1 X
Track quality 99.9 %
Test CRC 104E6FA7
Copy CRC 104E6FA7
Accurately ripped (confidence 2) [E0DA2BC9] (AR v2)
Copy OK

Track 23

Filename C:\i said woof\Lonnie Donegan - Rock Island Line, The Singles Anthology 1955-1967 [Castle Music]\Disc 1\23 - Lonesome Traveller.wav

Pre-gap length 0:00:03.65

Peak level 97.7 %
Extraction speed 9.4 X
Track quality 100.0 %
Test CRC 9BDB14EE
Copy CRC 9BDB14EE
Accurately ripped (confidence 2) [10BDE8D3] (AR v2)
Copy OK

Track 24

Filename C:\i said woof\Lonnie Donegan - Rock Island Line, The Singles Anthology 1955-1967 [Castle Music]\Disc 1\24 - Times Are Getting Hard, Boys.wav

Pre-gap length 0:00:04.15

Peak level 97.7 %
Extraction speed 9.2 X
Track quality 100.0 %
Test CRC B67260FA
Copy CRC B67260FA
Accurately ripped (confidence 2) [76A576BF] (AR v2)
Copy OK

Track 25

Filename C:\i said woof\Lonnie Donegan - Rock Island Line, The Singles Anthology 1955-1967 [Castle Music]\Disc 1\25 - Lonnie's Skiffle Party (Part 1) Little Liza Jane - Puttin' on the Style - Camptown Races.wav

Pre-gap length 0:00:03.62

Peak level 97.7 %
Extraction speed 5.3 X
Track quality 99.7 %
Test CRC 1D9E4C00
Copy CRC 1D9E4C00
Accurately ripped (confidence 2) [5D47B76F] (AR v2)
Copy OK

Track 26

Filename C:\i said woof\Lonnie Donegan - Rock Island Line, The Singles Anthology 1955-1967 [Castle Music]\Disc 1\26 - Lonnie's Skiffle Party (Part 2) So Long - On Top of Old Smokey - Down in the Valley - So Long.wav

Peak level 97.7 %
Extraction speed 5.1 X
Track quality 99.7 %
Test CRC ED4FACE5
Copy CRC ED4FACE5
Accurately ripped (confidence 2) [1768EF2D] (AR v2)
Copy OK

Track 27

Filename C:\i said woof\Lonnie Donegan - Rock Island Line, The Singles Anthology 1955-1967 [Castle Music]\Disc 1\27 - Tom Dooley.wav

Pre-gap length 0:00:04.00

Peak level 97.7 %
Extraction speed 4.1 X
Track quality 99.6 %
Test CRC 77A31580
Copy CRC 77A31580
Accurately ripped (confidence 2) [79DC4C9D] (AR v2)
Copy OK

Track 28

Filename C:\i said woof\Lonnie Donegan - Rock Island Line, The Singles Anthology 1955-1967 [Castle Music]\Disc 1\28 - Rock O' My Soul.wav

Pre-gap length 0:00:03.62

Peak level 97.7 %
Extraction speed 6.9 X
Track quality 99.9 %
Test CRC D0EE5378
Copy CRC D0EE5378
Accurately ripped (confidence 2) [62F53D95] (AR v2)
Copy OK


All tracks accurately ripped

No errors occurred

End of status report

==== Log checksum 701FF0C8825D1E27DD3D10042830E3ACB9FF9BBB8FAD03FCC1608FC998F1B55A ====


Exact Audio Copy V1.0 beta 3 from 29. August 2011

EAC extraction logfile from 9. February 2021, 0:23

Lonnie Donegan / Rock Island Line: The Singles Anthology 1955-1967 (Disc 2)

Used drive : HL-DT-STCD-RW GCE-8525B Adapter: 3 ID: 1

Read mode : Secure
Utilize accurate stream : Yes
Defeat audio cache : Yes
Make use of C2 pointers : No

Read offset correction : 6
Overread into Lead-In and Lead-Out : No
Fill up missing offset samples with silence : Yes
Delete leading and trailing silent blocks : No
Null samples used in CRC calculations : Yes
Used interface : Native Win32 interface for Win NT & 2000
Gap handling : Appended to previous track

Used output format : User Defined Encoder
Selected bitrate : 1024 kBit/s
Quality : High
Add ID3 tag : No
Command line compressor : C:\Program Files\Exact Audio Copy\FLAC\FLAC.EXE
Additional command line options : -8 -V -T "ARTIST=%artist%" -T "TITLE=%title%" -T "ALBUM=%albumtitle%" -T "DATE=%year%" -T "TRACKNUMBER=%tracknr%" -T "GENRE=%genre%" -T "COMMENT=%comment%" %source% -o %dest%


TOC of the extracted CD

Track | Start | Length | Start sector | End sector
––––––––––––––––––––––––––––-
1 | 0:00.00 | 2:49.40 | 0 | 12714
2 | 2:49.40 | 2:28.25 | 12715 | 23839
3 | 5:17.65 | 2:15.70 | 23840 | 34034
4 | 7:33.60 | 2:12.72 | 34035 | 44006
5 | 9:46.57 | 3:13.18 | 44007 | 58499
6 | 13:00.00 | 2:13.40 | 58500 | 68514
7 | 15:13.40 | 3:02.42 | 68515 | 82206
8 | 18:16.07 | 1:48.33 | 82207 | 90339
9 | 20:04.40 | 2:28.65 | 90340 | 101504
10 | 22:33.30 | 2:34.00 | 101505 | 113054
11 | 25:07.30 | 1:59.47 | 113055 | 122026
12 | 27:07.02 | 2:01.63 | 122027 | 131164
13 | 29:08.65 | 3:22.05 | 131165 | 146319
14 | 32:30.70 | 2:36.02 | 146320 | 158021
15 | 35:06.72 | 2:41.73 | 158022 | 170169
16 | 37:48.70 | 2:39.37 | 170170 | 182131
17 | 40:28.32 | 2:06.20 | 182132 | 191601
18 | 42:34.52 | 2:50.15 | 191602 | 204366
19 | 45:24.67 | 3:21.63 | 204367 | 219504
20 | 48:46.55 | 2:37.62 | 219505 | 231341
21 | 51:24.42 | 2:20.30 | 231342 | 241871
22 | 53:44.72 | 2:30.70 | 241872 | 253191
23 | 56:15.67 | 2:21.00 | 253192 | 263766
24 | 58:36.67 | 2:30.08 | 263767 | 275024
25 | 61:07.00 | 2:53.52 | 275025 | 288051
26 | 64:00.52 | 3:06.35 | 288052 | 302036
27 | 67:07.12 | 2:30.65 | 302037 | 313351
28 | 69:38.02 | 3:04.35 | 313352 | 327186
29 | 72:42.37 | 2:06.73 | 327187 | 336709
30 | 74:49.35 | 3:27.62 | 336710 | 352296


Track 1

Filename C:\i said woof\Lonnie Donegan - Rock Island Line, The Singles Anthology 1955-1967 [Castle Music]\Disc 2\01 - Does Your Chewing Gum Lose Its Flavour.wav

Pre-gap length 0:00:02.00

Peak level 97.7 %
Extraction speed 4.8 X
Track quality 100.0 %
Test CRC 118D25A3
Copy CRC 118D25A3
Accurately ripped (confidence 2) [E01C24B0] (AR v2)
Copy OK

Track 2

Filename C:\i said woof\Lonnie Donegan - Rock Island Line, The Singles Anthology 1955-1967 [Castle Music]\Disc 2\02 - Aunt Rhody (The Old Grey Goose).wav

Pre-gap length 0:00:04.03

Peak level 77.6 %
Extraction speed 5.0 X
Track quality 100.0 %
Test CRC F3B82732
Copy CRC F3B82732
Accurately ripped (confidence 2) [74D392A1] (AR v2)
Copy OK

Track 3

Filename C:\i said woof\Lonnie Donegan - Rock Island Line, The Singles Anthology 1955-1967 [Castle Music]\Disc 2\03 - Fort Worth Jail.wav

Pre-gap length 0:00:04.08

Peak level 69.2 %
Extraction speed 5.1 X
Track quality 100.0 %
Test CRC B8D321E2
Copy CRC B8D321E2
Accurately ripped (confidence 2) [043CCEB4] (AR v2)
Copy OK

Track 4

Filename C:\i said woof\Lonnie Donegan - Rock Island Line, The Singles Anthology 1955-1967 [Castle Music]\Disc 2\04 - Whoa Buck (Whoa Back, Buck).wav

Pre-gap length 0:00:03.40

Peak level 77.6 %
Extraction speed 5.4 X
Track quality 100.0 %
Test CRC F5CBFDA1
Copy CRC F5CBFDA1
Accurately ripped (confidence 2) [8F0BECF5] (AR v2)
Copy OK

Track 5

Filename C:\i said woof\Lonnie Donegan - Rock Island Line, The Singles Anthology 1955-1967 [Castle Music]\Disc 2\05 - Battle of New Orleans.wav

Pre-gap length 0:00:04.15

Peak level 61.6 %
Extraction speed 5.9 X
Track quality 100.0 %
Test CRC B8487D7A
Copy CRC B8487D7A
Accurately ripped (confidence 2) [EDF6BC31] (AR v2)
Copy OK

Track 6

Filename C:\i said woof\Lonnie Donegan - Rock Island Line, The Singles Anthology 1955-1967 [Castle Music]\Disc 2\06 - Darling Corey.wav

Pre-gap length 0:00:04.05

Peak level 77.6 %
Extraction speed 5.8 X
Track quality 100.0 %
Test CRC A9AB9B74
Copy CRC A9AB9B74
Accurately ripped (confidence 2) [2E82C62F] (AR v2)
Copy OK

Track 7

Filename C:\i said woof\Lonnie Donegan - Rock Island Line, The Singles Anthology 1955-1967 [Castle Music]\Disc 2\07 - Kevin Barry.wav

Pre-gap length 0:00:03.73

Peak level 87.0 %
Extraction speed 5.5 X
Track quality 99.9 %
Test CRC BF09E642
Copy CRC BF09E642
Accurately ripped (confidence 2) [86E99C18] (AR v2)
Copy OK

Track 8

Filename C:\i said woof\Lonnie Donegan - Rock Island Line, The Singles Anthology 1955-1967 [Castle Music]\Disc 2\08 - My Laggan Love.wav

Pre-gap length 0:00:04.20

Peak level 38.9 %
Extraction speed 5.9 X
Track quality 100.0 %
Test CRC 83B16029
Copy CRC 83B16029
Accurately ripped (confidence 2) [E23C2BD3] (AR v2)
Copy OK

Track 9

Filename C:\i said woof\Lonnie Donegan - Rock Island Line, The Singles Anthology 1955-1967 [Castle Music]\Disc 2\09 - Sal's Got a Sugar Lip.wav

Pre-gap length 0:00:03.08

Peak level 77.5 %
Extraction speed 6.5 X
Track quality 100.0 %
Test CRC 2B1047A8
Copy CRC 2B1047A8
Accurately ripped (confidence 2) [73F65FA6] (AR v2)
Copy OK

Track 10

Filename C:\i said woof\Lonnie Donegan - Rock Island Line, The Singles Anthology 1955-1967 [Castle Music]\Disc 2\10 - Chesapeake Bay.wav

Pre-gap length 0:00:04.03

Peak level 77.6 %
Extraction speed 5.7 X
Track quality 99.9 %
Test CRC 23ED43C2
Copy CRC 23ED43C2
Accurately ripped (confidence 2) [7C5F607F] (AR v2)
Copy OK

Track 11

Filename C:\i said woof\Lonnie Donegan - Rock Island Line, The Singles Anthology 1955-1967 [Castle Music]\Disc 2\11 - San Miguel.wav

Pre-gap length 0:00:04.00

Peak level 54.9 %
Extraction speed 6.7 X
Track quality 100.0 %
Test CRC 24EF1B59
Copy CRC 24EF1B59
Accurately ripped (confidence 2) [53D03CC9] (AR v2)
Copy OK

Track 12

Filename C:\i said woof\Lonnie Donegan - Rock Island Line, The Singles Anthology 1955-1967 [Castle Music]\Disc 2\12 - Talking Guitar Blues.wav

Pre-gap length 0:00:04.00

Peak level 43.6 %
Extraction speed 5.6 X
Track quality 99.9 %
Test CRC 5CC5FC03
Copy CRC 5CC5FC03
Accurately ripped (confidence 2) [2E398BEA] (AR v2)
Copy OK

Track 13

Filename C:\i said woof\Lonnie Donegan - Rock Island Line, The Singles Anthology 1955-1967 [Castle Music]\Disc 2\13 - My Old Man's a Dustman.wav

Pre-gap length 0:00:04.03

Peak level 69.1 %
Extraction speed 7.6 X
Track quality 100.0 %
Test CRC 646BB5E5
Copy CRC 646BB5E5
Accurately ripped (confidence 2) [CA1514E1] (AR v2)
Copy OK

Track 14

Filename C:\i said woof\Lonnie Donegan - Rock Island Line, The Singles Anthology 1955-1967 [Castle Music]\Disc 2\14 - The Golden Vanity.wav

Pre-gap length 0:00:03.73

Peak level 77.6 %
Extraction speed 6.4 X
Track quality 99.9 %
Test CRC 8DE3FBD2
Copy CRC 8DE3FBD2
Accurately ripped (confidence 2) [9C59BC85] (AR v2)
Copy OK

Track 15

Filename C:\i said woof\Lonnie Donegan - Rock Island Line, The Singles Anthology 1955-1967 [Castle Music]\Disc 2\15 - I Wanna Go Home (The Wreck of the John 'B').wav

Pre-gap length 0:00:04.10

Peak level 69.1 %
Extraction speed 6.5 X
Track quality 99.9 %
Test CRC 86F3136B
Copy CRC 86F3136B
Accurately ripped (confidence 2) [F21E9FDA] (AR v2)
Copy OK

Track 16

Filename C:\i said woof\Lonnie Donegan - Rock Island Line, The Singles Anthology 1955-1967 [Castle Music]\Disc 2\16 - Jimmy Brown the Newsboy.wav

Pre-gap length 0:00:04.10

Peak level 69.2 %
Extraction speed 7.9 X
Track quality 100.0 %
Test CRC 110F936C
Copy CRC 110F936C
Accurately ripped (confidence 2) [6A916CCB] (AR v2)
Copy OK

Track 17

Filename C:\i said woof\Lonnie Donegan - Rock Island Line, The Singles Anthology 1955-1967 [Castle Music]\Disc 2\17 - Lorelei.wav

Pre-gap length 0:00:04.00

Peak level 54.9 %
Extraction speed 7.7 X
Track quality 100.0 %
Test CRC 4F260C93
Copy CRC 4F260C93
Accurately ripped (confidence 2) [9DCF2120] (AR v2)
Copy OK

Track 18

Filename C:\i said woof\Lonnie Donegan - Rock Island Line, The Singles Anthology 1955-1967 [Castle Music]\Disc 2\18 - In All My Wildest Dreams.wav

Pre-gap length 0:00:03.02

Peak level 69.1 %
Extraction speed 8.3 X
Track quality 100.0 %
Test CRC D6FF9B26
Copy CRC D6FF9B26
Accurately ripped (confidence 2) [FC498FBF] (AR v2)
Copy OK

Track 19

Filename C:\i said woof\Lonnie Donegan - Rock Island Line, The Singles Anthology 1955-1967 [Castle Music]\Disc 2\19 - Lively!.wav

Pre-gap length 0:00:03.74

Peak level 54.9 %
Extraction speed 7.5 X
Track quality 99.9 %
Test CRC 6FF77C07
Copy CRC 6FF77C07
Accurately ripped (confidence 2) [0DABC918] (AR v2)
Copy OK

Track 20

Filename C:\i said woof\Lonnie Donegan - Rock Island Line, The Singles Anthology 1955-1967 [Castle Music]\Disc 2\20 - Black Cat (Cross My Path Today).wav

Pre-gap length 0:00:03.73

Peak level 87.0 %
Extraction speed 8.4 X
Track quality 100.0 %
Test CRC C0905909
Copy CRC C0905909
Accurately ripped (confidence 2) [F63C3528] (AR v2)
Copy OK

Track 21

Filename C:\i said woof\Lonnie Donegan - Rock Island Line, The Singles Anthology 1955-1967 [Castle Music]\Disc 2\21 - Virgin Mary.wav

Pre-gap length 0:00:04.69

Peak level 81.2 %
Extraction speed 7.1 X
Track quality 99.9 %
Test CRC 2C6DD91E
Copy CRC 2C6DD91E
Accurately ripped (confidence 2) [32283F7B] (AR v2)
Copy OK

Track 22

Filename C:\i said woof\Lonnie Donegan - Rock Island Line, The Singles Anthology 1955-1967 [Castle Music]\Disc 2\22 - Beyond the Sunset.wav

Pre-gap length 0:00:03.72

Peak level 58.8 %
Extraction speed 8.7 X
Track quality 100.0 %
Test CRC FF4EBD89
Copy CRC FF4EBD89
Accurately ripped (confidence 2) [2F171D9E] (AR v2)
Copy OK

Track 23

Filename C:\i said woof\Lonnie Donegan - Rock Island Line, The Singles Anthology 1955-1967 [Castle Music]\Disc 2\23 - (Bury Me) Beneath the Willow.wav

Pre-gap length 0:00:03.72

Peak level 54.9 %
Extraction speed 8.7 X
Track quality 100.0 %
Test CRC 3DFC6C77
Copy CRC 3DFC6C77
Accurately ripped (confidence 2) [C226F438] (AR v2)
Copy OK

Track 24

Filename C:\i said woof\Lonnie Donegan - Rock Island Line, The Singles Anthology 1955-1967 [Castle Music]\Disc 2\24 - Leave My Woman Alone.wav

Pre-gap length 0:00:04.02

Peak level 54.9 %
Extraction speed 9.0 X
Track quality 100.0 %
Test CRC A59F681D
Copy CRC A59F681D
Accurately ripped (confidence 2) [865DCE1B] (AR v2)
Copy OK

Track 25

Filename C:\i said woof\Lonnie Donegan - Rock Island Line, The Singles Anthology 1955-1967 [Castle Music]\Disc 2\25 - Have a Drink on Me.wav

Pre-gap length 0:00:04.15

Peak level 49.0 %
Extraction speed 9.3 X
Track quality 100.0 %
Test CRC 00C0C600
Copy CRC 00C0C600
Accurately ripped (confidence 2) [B8DCFB91] (AR v2)
Copy OK

Track 26

Filename C:\i said woof\Lonnie Donegan - Rock Island Line, The Singles Anthology 1955-1967 [Castle Music]\Disc 2\26 - Seven Daffodils (Seven Golden Daffodils).wav

Pre-gap length 0:00:03.72

Peak level 54.9 %
Extraction speed 9.5 X
Track quality 100.0 %
Test CRC 70422E25
Copy CRC 70422E25
Accurately ripped (confidence 2) [4B500857] (AR v2)
Copy OK

Track 27

Filename C:\i said woof\Lonnie Donegan - Rock Island Line, The Singles Anthology 1955-1967 [Castle Music]\Disc 2\27 - Michael Row the Boat.wav

Pre-gap length 0:00:03.67

Peak level 61.6 %
Extraction speed 6.5 X
Track quality 99.9 %
Test CRC B7A84916
Copy CRC B7A84916
Accurately ripped (confidence 2) [5CB69EFB] (AR v2)
Copy OK

Track 28

Filename C:\i said woof\Lonnie Donegan - Rock Island Line, The Singles Anthology 1955-1967 [Castle Music]\Disc 2\28 - Lumbered.wav

Pre-gap length 0:00:03.72

Peak level 54.9 %
Extraction speed 5.8 X
Track quality 99.8 %
Test CRC 5ED16F67
Copy CRC 5ED16F67
Accurately ripped (confidence 2) [7D609AFB] (AR v2)
Copy OK

Track 29

Filename C:\i said woof\Lonnie Donegan - Rock Island Line, The Singles Anthology 1955-1967 [Castle Music]\Disc 2\29 - The Comancheros.wav

Pre-gap length 0:00:04.07

Peak level 61.6 %
Extraction speed 5.7 X
Track quality 99.9 %
Test CRC D96D4D9D
Copy CRC D96D4D9D
Accurately ripped (confidence 2) [6C5278E4] (AR v2)
Copy OK

Track 30

Filename C:\i said woof\Lonnie Donegan - Rock Island Line, The Singles Anthology 1955-1967 [Castle Music]\Disc 2\30 - Ramblin' Round.wav

Pre-gap length 0:00:04.03

Peak level 54.9 %
Extraction speed 6.5 X
Track quality 99.9 %
Test CRC 105A82B6
Copy CRC 105A82B6
Accurately ripped (confidence 2) [48FF366B] (AR v2)
Copy OK


All tracks accurately ripped

No errors occurred

End of status report

==== Log checksum D85F6A36A97AF4537DEC52D655B0EBFBF735ED546A7C65D36F9643B54C217F91 ====


Exact Audio Copy V1.0 beta 3 from 29. August 2011

EAC extraction logfile from 9. February 2021, 1:22

Lonnie Donegan / Rock Island Line: The Singles Anthology 1955-1967 (Disc 3)

Used drive : HL-DT-STCD-RW GCE-8525B Adapter: 3 ID: 1

Read mode : Secure
Utilize accurate stream : Yes
Defeat audio cache : Yes
Make use of C2 pointers : No

Read offset correction : 6
Overread into Lead-In and Lead-Out : No
Fill up missing offset samples with silence : Yes
Delete leading and trailing silent blocks : No
Null samples used in CRC calculations : Yes
Used interface : Native Win32 interface for Win NT & 2000
Gap handling : Appended to previous track

Used output format : User Defined Encoder
Selected bitrate : 1024 kBit/s
Quality : High
Add ID3 tag : No
Command line compressor : C:\Program Files\Exact Audio Copy\FLAC\FLAC.EXE
Additional command line options : -8 -V -T "ARTIST=%artist%" -T "TITLE=%title%" -T "ALBUM=%albumtitle%" -T "DATE=%year%" -T "TRACKNUMBER=%tracknr%" -T "GENRE=%genre%" -T "COMMENT=%comment%" %source% -o %dest%


TOC of the extracted CD

Track | Start | Length | Start sector | End sector
––––––––––––––––––––––––––––-
1 | 0:00.00 | 2:47.20 | 0 | 12544
2 | 2:47.20 | 3:28.45 | 12545 | 28189
3 | 6:15.65 | 3:49.45 | 28190 | 45409
4 | 10:05.35 | 2:44.60 | 45410 | 57769
5 | 12:50.20 | 2:37.00 | 57770 | 69544
6 | 15:27.20 | 2:27.32 | 69545 | 80601
7 | 17:54.52 | 4:09.65 | 80602 | 99341
8 | 22:04.42 | 3:28.30 | 99342 | 114971
9 | 25:32.72 | 2:44.45 | 114972 | 127316
10 | 28:17.42 | 3:02.20 | 127317 | 140986
11 | 31:19.62 | 3:13.55 | 140987 | 155516
12 | 34:33.42 | 1:55.60 | 155517 | 164201
13 | 36:29.27 | 3:02.50 | 164202 | 177901
14 | 39:32.02 | 2:28.50 | 177902 | 189051
15 | 42:00.52 | 2:47.65 | 189052 | 201641
16 | 44:48.42 | 2:32.40 | 201642 | 213081
17 | 47:21.07 | 2:46.13 | 213082 | 225544
18 | 50:07.20 | 2:13.52 | 225545 | 235571
19 | 52:20.72 | 2:47.08 | 235572 | 248104
20 | 55:08.05 | 2:03.05 | 248105 | 257334
21 | 57:11.10 | 2:47.27 | 257335 | 269886
22 | 59:58.37 | 2:35.03 | 269887 | 281514
23 | 62:33.40 | 2:05.55 | 281515 | 290944
24 | 64:39.20 | 1:57.12 | 290945 | 299731
25 | 66:36.32 | 2:50.25 | 299732 | 312506
26 | 69:26.57 | 2:51.15 | 312507 | 325346
27 | 72:17.72 | 2:17.38 | 325347 | 335659
28 | 74:35.35 | 3:12.17 | 335660 | 350076


Track 1

Filename C:\i said woof\Lonnie Donegan - Rock Island Line, The Singles Anthology 1955-1967 [Castle Music]\Disc 3\01 - The Party's Over.wav

Pre-gap length 0:00:02.00

Peak level 97.7 %
Extraction speed 4.8 X
Track quality 100.0 %
Test CRC FD741CA3
Copy CRC FD741CA3
Accurately ripped (confidence 2) [7FE4D9FB] (AR v2)
Copy OK

Track 2

Filename C:\i said woof\Lonnie Donegan - Rock Island Line, The Singles Anthology 1955-1967 [Castle Music]\Disc 3\02 - Over the Rainbow.wav

Pre-gap length 0:00:03.73

Peak level 97.7 %
Extraction speed 5.4 X
Track quality 100.0 %
Test CRC BA329488
Copy CRC BA329488
Accurately ripped (confidence 2) [BE04FAF0] (AR v2)
Copy OK

Track 3

Filename C:\i said woof\Lonnie Donegan - Rock Island Line, The Singles Anthology 1955-1967 [Castle Music]\Disc 3\03 - I'll Never Fall in Love Again.wav

Pre-gap length 0:00:04.00

Peak level 97.7 %
Extraction speed 5.8 X
Track quality 100.0 %
Test CRC 18D3E880
Copy CRC 18D3E880
Accurately ripped (confidence 2) [62A73935] (AR v2)
Copy OK

Track 4

Filename C:\i said woof\Lonnie Donegan - Rock Island Line, The Singles Anthology 1955-1967 [Castle Music]\Disc 3\04 - Keep on the Sunny Side.wav

Pre-gap length 0:00:04.05

Peak level 97.7 %
Extraction speed 5.9 X
Track quality 100.0 %
Test CRC C53FC44C
Copy CRC C53FC44C
Accurately ripped (confidence 2) [1513794A] (AR v2)
Copy OK

Track 5

Filename C:\i said woof\Lonnie Donegan - Rock Island Line, The Singles Anthology 1955-1967 [Castle Music]\Disc 3\05 - Pick a Bale of Cotton.wav

Pre-gap length 0:00:03.73

Peak level 97.7 %
Extraction speed 5.1 X
Track quality 99.9 %
Test CRC E755F5C7
Copy CRC E755F5C7
Accurately ripped (confidence 2) [80F3121D] (AR v2)
Copy OK

Track 6

Filename C:\i said woof\Lonnie Donegan - Rock Island Line, The Singles Anthology 1955-1967 [Castle Music]\Disc 3\06 - Steal Away.wav

Pre-gap length 0:00:04.08

Peak level 97.7 %
Extraction speed 6.1 X
Track quality 100.0 %
Test CRC 02BF149E
Copy CRC 02BF149E
Accurately ripped (confidence 2) [AF8E430B] (AR v2)
Copy OK

Track 7

Filename C:\i said woof\Lonnie Donegan - Rock Island Line, The Singles Anthology 1955-1967 [Castle Music]\Disc 3\07 - The Market Song.wav

Pre-gap length 0:00:03.70

Peak level 97.7 %
Extraction speed 7.0 X
Track quality 100.0 %
Test CRC 647BBFC8
Copy CRC 647BBFC8
Accurately ripped (confidence 2) [117CE422] (AR v2)
Copy OK

Track 8

Filename C:\i said woof\Lonnie Donegan - Rock Island Line, The Singles Anthology 1955-1967 [Castle Music]\Disc 3\08 - Tit Bits.wav

Pre-gap length 0:00:03.62

Peak level 97.7 %
Extraction speed 7.1 X
Track quality 100.0 %
Test CRC 33EEDB17
Copy CRC 33EEDB17
Accurately ripped (confidence 2) [F7790719] (AR v2)
Copy OK

Track 9

Filename C:\i said woof\Lonnie Donegan - Rock Island Line, The Singles Anthology 1955-1967 [Castle Music]\Disc 3\09 - Losing by a Hair.wav

Pre-gap length 0:00:03.67

Peak level 97.7 %
Extraction speed 7.1 X
Track quality 100.0 %
Test CRC DC2286C6
Copy CRC DC2286C6
Accurately ripped (confidence 2) [3B83C533] (AR v2)
Copy OK

Track 10

Filename C:\i said woof\Lonnie Donegan - Rock Island Line, The Singles Anthology 1955-1967 [Castle Music]\Disc 3\10 - Trumpet Sounds.wav

Pre-gap length 0:00:04.27

Peak level 97.7 %
Extraction speed 6.5 X
Track quality 99.9 %
Test CRC A0450198
Copy CRC A0450198
Accurately ripped (confidence 2) [1BFCB669] (AR v2)
Copy OK

Track 11

Filename C:\i said woof\Lonnie Donegan - Rock Island Line, The Singles Anthology 1955-1967 [Castle Music]\Disc 3\11 - It Was a Very Good Year.wav

Pre-gap length 0:00:04.05

Peak level 97.7 %
Extraction speed 7.7 X
Track quality 100.0 %
Test CRC F0E25FEB
Copy CRC F0E25FEB
Accurately ripped (confidence 2) [ED644614] (AR v2)
Copy OK

Track 12

Filename C:\i said woof\Lonnie Donegan - Rock Island Line, The Singles Anthology 1955-1967 [Castle Music]\Disc 3\12 - Rise Up.wav

Pre-gap length 0:00:03.62

Peak level 97.7 %
Extraction speed 7.2 X
Track quality 100.0 %
Test CRC 02DD31B8
Copy CRC 02DD31B8
Accurately ripped (confidence 2) [00352F18] (AR v2)
Copy OK

Track 13

Filename C:\i said woof\Lonnie Donegan - Rock Island Line, The Singles Anthology 1955-1967 [Castle Music]\Disc 3\13 - Lemon Tree.wav

Pre-gap length 0:00:04.15

Peak level 97.7 %
Extraction speed 8.0 X
Track quality 100.0 %
Test CRC 6E470086
Copy CRC 6E470086
Accurately ripped (confidence 2) [F17046C8] (AR v2)
Copy OK

Track 14

Filename C:\i said woof\Lonnie Donegan - Rock Island Line, The Singles Anthology 1955-1967 [Castle Music]\Disc 3\14 - I've Gotta Gal So Fine.wav

Pre-gap length 0:00:03.70

Peak level 97.7 %
Extraction speed 7.8 X
Track quality 100.0 %
Test CRC BDCFDA7F
Copy CRC BDCFDA7F
Accurately ripped (confidence 2) [AA31BE74] (AR v2)
Copy OK

Track 15

Filename C:\i said woof\Lonnie Donegan - Rock Island Line, The Singles Anthology 1955-1967 [Castle Music]\Disc 3\15 - 500 Miles Away from Home.wav

Pre-gap length 0:00:03.65

Peak level 97.7 %
Extraction speed 8.2 X
Track quality 100.0 %
Test CRC 37C6DB0B
Copy CRC 37C6DB0B
Accurately ripped (confidence 2) [9421B894] (AR v2)
Copy OK

Track 16

Filename C:\i said woof\Lonnie Donegan - Rock Island Line, The Singles Anthology 1955-1967 [Castle Music]\Disc 3\16 - This Train.wav

Pre-gap length 0:00:03.70

Peak level 97.7 %
Extraction speed 8.2 X
Track quality 100.0 %
Test CRC BCCD3216
Copy CRC BCCD3216
Accurately ripped (confidence 2) [41889F85] (AR v2)
Copy OK

Track 17

Filename C:\i said woof\Lonnie Donegan - Rock Island Line, The Singles Anthology 1955-1967 [Castle Music]\Disc 3\17 - Beans jn My Ears.wav

Pre-gap length 0:00:04.07

Peak level 97.7 %
Extraction speed 8.5 X
Track quality 100.0 %
Test CRC 511BEE12
Copy CRC 511BEE12
Accurately ripped (confidence 2) [316E164D] (AR v2)
Copy OK

Track 18

Filename C:\i said woof\Lonnie Donegan - Rock Island Line, The Singles Anthology 1955-1967 [Castle Music]\Disc 3\18 - It's a Long Road to Travel.wav

Pre-gap length 0:00:04.05

Peak level 97.7 %
Extraction speed 8.2 X
Track quality 100.0 %
Test CRC B42B753A
Copy CRC B42B753A
Accurately ripped (confidence 2) [A30DB484] (AR v2)
Copy OK

Track 19

Filename C:\i said woof\Lonnie Donegan - Rock Island Line, The Singles Anthology 1955-1967 [Castle Music]\Disc 3\19 - Fisherman's Luck.wav

Pre-gap length 0:00:04.12

Peak level 97.7 %
Extraction speed 8.8 X
Track quality 100.0 %
Test CRC D839DEDA
Copy CRC D839DEDA
Accurately ripped (confidence 2) [F6B7C192] (AR v2)
Copy OK

Track 20

Filename C:\i said woof\Lonnie Donegan - Rock Island Line, The Singles Anthology 1955-1967 [Castle Music]\Disc 3\20 - There's a Big Wheel.wav

Pre-gap length 0:00:03.68

Peak level 97.7 %
Extraction speed 8.4 X
Track quality 100.0 %
Test CRC CD7C5F51
Copy CRC CD7C5F51
Accurately ripped (confidence 2) [0A33DCD5] (AR v2)
Copy OK

Track 21

Filename C:\i said woof\Lonnie Donegan - Rock Island Line, The Singles Anthology 1955-1967 [Castle Music]\Disc 3\21 - Get Out of My Life.wav

Pre-gap length 0:00:03.68

Peak level 97.7 %
Extraction speed 9.1 X
Track quality 100.0 %
Test CRC 139BB99E
Copy CRC 139BB99E
Accurately ripped (confidence 2) [D01F25B9] (AR v2)
Copy OK

Track 22

Filename C:\i said woof\Lonnie Donegan - Rock Island Line, The Singles Anthology 1955-1967 [Castle Music]\Disc 3\22 - Won't You Tell Me.wav

Pre-gap length 0:00:04.05

Peak level 97.7 %
Extraction speed 7.7 X
Track quality 99.9 %
Test CRC EC32336D
Copy CRC EC32336D
Accurately ripped (confidence 2) [99448807] (AR v2)
Copy OK

Track 23

Filename C:\i said woof\Lonnie Donegan - Rock Island Line, The Singles Anthology 1955-1967 [Castle Music]\Disc 3\23 - Louisiana Man.wav

Pre-gap length 0:00:03.68

Peak level 97.7 %
Extraction speed 8.8 X
Track quality 100.0 %
Test CRC 6A671BB6
Copy CRC 6A671BB6
Accurately ripped (confidence 2) [72ACB101] (AR v2)
Copy OK

Track 24

Filename C:\i said woof\Lonnie Donegan - Rock Island Line, The Singles Anthology 1955-1967 [Castle Music]\Disc 3\24 - Bound for Zion.wav

Pre-gap length 0:00:03.68

Peak level 97.7 %
Extraction speed 7.1 X
Track quality 99.9 %
Test CRC 3F7C0BDC
Copy CRC 3F7C0BDC
Accurately ripped (confidence 2) [F586BCAA] (AR v2)
Copy OK

Track 25

Filename C:\i said woof\Lonnie Donegan - Rock Island Line, The Singles Anthology 1955-1967 [Castle Music]\Disc 3\25 - World Cup Willie.wav

Pre-gap length 0:00:03.70

Peak level 97.7 %
Extraction speed 8.2 X
Track quality 99.9 %
Test CRC 87284503
Copy CRC 87284503
Accurately ripped (confidence 2) [9F4A7919] (AR v2)
Copy OK

Track 26

Filename C:\i said woof\Lonnie Donegan - Rock Island Line, The Singles Anthology 1955-1967 [Castle Music]\Disc 3\26 - Where in the World Are We Going.wav

Pre-gap length 0:00:03.65

Peak level 97.7 %
Extraction speed 9.7 X
Track quality 100.0 %
Test CRC 8BFB68CF
Copy CRC 8BFB68CF
Accurately ripped (confidence 2) [AA7E99CD] (AR v2)
Copy OK

Track 27

Filename C:\i said woof\Lonnie Donegan - Rock Island Line, The Singles Anthology 1955-1967 [Castle Music]\Disc 3\27 - Auntie Maggie's Remedy.wav

Pre-gap length 0:00:03.70

Peak level 97.7 %
Extraction speed 9.4 X
Track quality 100.0 %
Test CRC A703995D
Copy CRC A703995D
Accurately ripped (confidence 2) [9D022A29] (AR v2)
Copy OK

Track 28

Filename C:\i said woof\Lonnie Donegan - Rock Island Line, The Singles Anthology 1955-1967 [Castle Music]\Disc 3\28 - (Ah) My Sweet Marie.wav

Pre-gap length 0:00:04.08

Peak level 97.7 %
Extraction speed 8.8 X
Track quality 99.9 %
Test CRC BD2E583A
Copy CRC BD2E583A
Accurately ripped (confidence 2) [87C2D049] (AR v2)
Copy OK


All tracks accurately ripped

No errors occurred

End of status report

==== Log checksum 90C5A0582A4BFC25E86A8CA50B9D228A18EB9C051EED83847691201516F2371D ====