Tags
Language
Tags
June 2024
Su Mo Tu We Th Fr Sa
26 27 28 29 30 31 1
2 3 4 5 6 7 8
9 10 11 12 13 14 15
16 17 18 19 20 21 22
23 24 25 26 27 28 29
30 1 2 3 4 5 6

Love Unlimited Orchestra - The 20th Century Records Singles 1973-1979 (2018)

Posted By: JET 1
Love Unlimited Orchestra - The 20th Century Records Singles 1973-1979 (2018)

Love Unlimited Orchestra - The 20th Century Records Singles 1973-1979 (2018)
XLD Rip | FLAC (Tracks) +CUE, LOG | 896 MB | No Scans
Genre: Soul, Disco, Funk | Label: 20th Century Records | Catalog Number: 0602567410744

Featuring all 14 of Love Unlimited Orchestra’s US 7” singles released between 1973-1979, as well as the 12” Single Disco versions of a further 7 tracks, this set is the first compilation to pull together all the group’s A- and B-sides. Perfectly positioned for all Barry White collectors and soul / R&B aficionados, it includes the hits: Love’s Theme, Rhapsody In White, Satin Soul, My Suite Summer Suite, and Theme From “Shaft”.

X Lossless Decoder version 20181019 (151.1)

XLD extraction logfile from 2018-11-16 13:36:13 -0500

Love Unlimited Orchestra / The 20th Century Records Singles (1973-1979) (cd1.1)

Used drive : MATSHITA DVD-R UJ-8A8 (revision HB14)
Media type : Pressed CD

Ripper mode : XLD Secure Ripper
Disable audio cache : OK for the drive with a cache less than 1375KiB
Make use of C2 pointers : NO
Read offset correction : 102
Max retry count : 100
Gap status : Analyzed, Appended (except HTOA)

TOC of the extracted CD
Track | Start | Length | Start sector | End sector
––––––––––––––––––––––––––––-
1 | 00:00:00 | 03:39:10 | 0 | 16434
2 | 03:39:10 | 03:48:73 | 16435 | 33607
3 | 07:28:08 | 02:58:22 | 33608 | 46979
4 | 10:26:30 | 04:27:45 | 46980 | 67049
5 | 14:54:00 | 02:50:19 | 67050 | 79818
6 | 17:44:19 | 02:18:57 | 79819 | 90225
7 | 20:03:01 | 03:14:07 | 90226 | 104782
8 | 23:17:08 | 03:30:60 | 104783 | 120592
9 | 26:47:68 | 03:36:71 | 120593 | 136863
10 | 30:24:64 | 03:35:23 | 136864 | 153011
11 | 34:00:12 | 03:12:31 | 153012 | 167442
12 | 37:12:43 | 03:35:38 | 167443 | 183605
13 | 40:48:06 | 03:14:66 | 183606 | 198221
14 | 44:02:72 | 04:51:23 | 198222 | 220069
15 | 48:54:20 | 03:53:53 | 220070 | 237597
16 | 52:47:73 | 04:49:57 | 237598 | 259329
17 | 57:37:55 | 03:16:23 | 259330 | 274052
18 | 60:54:03 | 06:04:05 | 274053 | 301357

AccurateRip Summary (DiscID: 00290fea-02269934-020fb212)
Track 01 : OK (v2, confidence 5/5)
Track 02 : OK (v2, confidence 5/5)
Track 03 : OK (v2, confidence 5/5)
Track 04 : OK (v2, confidence 5/5)
Track 05 : OK (v2, confidence 5/5)
Track 06 : OK (v2, confidence 5/5)
Track 07 : OK (v2, confidence 5/5)
Track 08 : OK (v2, confidence 5/5)
Track 09 : OK (v2, confidence 5/5)
Track 10 : OK (v2, confidence 5/5)
Track 11 : OK (v2, confidence 5/5)
Track 12 : OK (v2, confidence 5/5)
Track 13 : OK (v2, confidence 5/5)
Track 14 : OK (v2, confidence 5/5)
Track 15 : OK (v2, confidence 5/5)
Track 16 : OK (v2, confidence 5/5)
Track 17 : OK (v2, confidence 5/5)
Track 18 : OK (v2, confidence 3/3)
->All tracks accurately ripped.

All Tracks
Album gain : -4.90 dB
Peak : 0.999969
Statistics
Read error : 0
Jitter error (maybe fixed) : 0
Retry sector count : 0
Damaged sector count : 0

Track 01
Filename : /Users/rulitos/Desktop/ Love Unlimited Orchestra - The 20th Century Records Singles (1973-1979) (cd1.1) (2018) [FLAC]/01 - Love Unlimited Orchestra - Love's Theme (7"-version, 11.1973).flac
Pre-gap length : 00:02:00

Track gain : -5.87 dB
Peak : 0.980103
CRC32 hash (test run) : 75C63ACD
CRC32 hash : 75C63ACD
CRC32 hash (skip zero) : 4801099B
AccurateRip v1 signature : BD31A415
AccurateRip v2 signature : 86E2E479
->Accurately ripped (v2, confidence 5/5)
Statistics
Read error : 0
Jitter error (maybe fixed) : 0
Retry sector count : 0
Damaged sector count : 0

Track 02
Filename : /Users/rulitos/Desktop/ Love Unlimited Orchestra - The 20th Century Records Singles (1973-1979) (cd1.1) (2018) [FLAC]/02 - Love Unlimited Orchestra - Sweet Moments (7"-version, 11.1973).flac

Track gain : -1.45 dB
Peak : 0.969299
CRC32 hash (test run) : 1082D178
CRC32 hash : 1082D178
CRC32 hash (skip zero) : 4BACD89A
AccurateRip v1 signature : FCA1F1E9
AccurateRip v2 signature : BA79876F
->Accurately ripped (v2, confidence 5/5)
Statistics
Read error : 0
Jitter error (maybe fixed) : 0
Retry sector count : 0
Damaged sector count : 0

Track 03
Filename : /Users/rulitos/Desktop/ Love Unlimited Orchestra - The 20th Century Records Singles (1973-1979) (cd1.1) (2018) [FLAC]/03 - Love Unlimited Orchestra - Rhapsody In Whitec (7"-version, 04.1974).flac

Track gain : -6.23 dB
Peak : 0.966705
CRC32 hash (test run) : 0E166784
CRC32 hash : 0E166784
CRC32 hash (skip zero) : 7403D3C8
AccurateRip v1 signature : AE64EDE0
AccurateRip v2 signature : C95EA0CA
->Accurately ripped (v2, confidence 5/5)
Statistics
Read error : 0
Jitter error (maybe fixed) : 0
Retry sector count : 0
Damaged sector count : 0

Track 04
Filename : /Users/rulitos/Desktop/ Love Unlimited Orchestra - The 20th Century Records Singles (1973-1979) (cd1.1) (2018) [FLAC]/04 - Love Unlimited Orchestra - Barry's Theme (7"-version, 04.1974).flac

Track gain : -6.77 dB
Peak : 0.987366
CRC32 hash (test run) : 448675D9
CRC32 hash : 448675D9
CRC32 hash (skip zero) : 4997159D
AccurateRip v1 signature : E679414F
AccurateRip v2 signature : 9584C341
->Accurately ripped (v2, confidence 5/5)
Statistics
Read error : 0
Jitter error (maybe fixed) : 0
Retry sector count : 0
Damaged sector count : 0

Track 05
Filename : /Users/rulitos/Desktop/ Love Unlimited Orchestra - The 20th Century Records Singles (1973-1979) (cd1.1) (2018) [FLAC]/05 - Love Unlimited Orchestra - Theme From Together Brothers (7"-version, 07.1974).flac

Track gain : -6.83 dB
Peak : 0.992126
CRC32 hash (test run) : 6D05A628
CRC32 hash : 6D05A628
CRC32 hash (skip zero) : 94615819
AccurateRip v1 signature : 8A061DD5
AccurateRip v2 signature : 3D0FA14A
->Accurately ripped (v2, confidence 5/5)
Statistics
Read error : 0
Jitter error (maybe fixed) : 0
Retry sector count : 0
Damaged sector count : 0

Track 06
Filename : /Users/rulitos/Desktop/ Love Unlimited Orchestra - The 20th Century Records Singles (1973-1979) (cd1.1) (2018) [FLAC]/06 - Love Unlimited Orchestra - Find The Man Bros. (7"-version, 07.1974).flac

Track gain : -5.43 dB
Peak : 0.985504
CRC32 hash (test run) : 73603447
CRC32 hash : 73603447
CRC32 hash (skip zero) : 49182D95
AccurateRip v1 signature : DBE1E973
AccurateRip v2 signature : 2662D0CD
->Accurately ripped (v2, confidence 5/5)
Statistics
Read error : 0
Jitter error (maybe fixed) : 0
Retry sector count : 0
Damaged sector count : 0

Track 07
Filename : /Users/rulitos/Desktop/ Love Unlimited Orchestra - The 20th Century Records Singles (1973-1979) (cd1.1) (2018) [FLAC]/07 - Love Unlimited Orchestra - Baby Blues (7"-version, 11.1974).flac

Track gain : -2.36 dB
Peak : 0.989532
CRC32 hash (test run) : 1A1481E9
CRC32 hash : 1A1481E9
CRC32 hash (skip zero) : 74CEF502
AccurateRip v1 signature : C7502B4F
AccurateRip v2 signature : 7371B76E
->Accurately ripped (v2, confidence 5/5)
Statistics
Read error : 0
Jitter error (maybe fixed) : 0
Retry sector count : 0
Damaged sector count : 0

Track 08
Filename : /Users/rulitos/Desktop/ Love Unlimited Orchestra - The 20th Century Records Singles (1973-1979) (cd1.1) (2018) [FLAC]/08 - Love Unlimited Orchestra - What A Groove (7"-version, 11.1974).flac

Track gain : -5.09 dB
Peak : 0.979675
CRC32 hash (test run) : 0459CCA7
CRC32 hash : 0459CCA7
CRC32 hash (skip zero) : 96AC1A9A
AccurateRip v1 signature : 2BC6E8D4
AccurateRip v2 signature : 63442822
->Accurately ripped (v2, confidence 5/5)
Statistics
Read error : 0
Jitter error (maybe fixed) : 0
Retry sector count : 0
Damaged sector count : 0

Track 09
Filename : /Users/rulitos/Desktop/ Love Unlimited Orchestra - The 20th Century Records Singles (1973-1979) (cd1.1) (2018) [FLAC]/09 - Love Unlimited Orchestra - Satin Soul (7"-version, 01.1975).flac

Track gain : -5.45 dB
Peak : 0.979828
CRC32 hash (test run) : 704F3823
CRC32 hash : 704F3823
CRC32 hash (skip zero) : 48B5505D
AccurateRip v1 signature : 3D79DFCF
AccurateRip v2 signature : 8D4C7113
->Accurately ripped (v2, confidence 5/5)
Statistics
Read error : 0
Jitter error (maybe fixed) : 0
Retry sector count : 0
Damaged sector count : 0

Track 10
Filename : /Users/rulitos/Desktop/ Love Unlimited Orchestra - The 20th Century Records Singles (1973-1979) (cd1.1) (2018) [FLAC]/10 - Love Unlimited Orchestra - Just Living It Up (7"-version, 01.1975).flac

Track gain : -5.29 dB
Peak : 0.964661
CRC32 hash (test run) : 413B8163
CRC32 hash : 413B8163
CRC32 hash (skip zero) : 5A4AE8F9
AccurateRip v1 signature : 56969A57
AccurateRip v2 signature : 9CC76068
->Accurately ripped (v2, confidence 5/5)
Statistics
Read error : 0
Jitter error (maybe fixed) : 0
Retry sector count : 0
Damaged sector count : 0

Track 11
Filename : /Users/rulitos/Desktop/ Love Unlimited Orchestra - The 20th Century Records Singles (1973-1979) (cd1.1) (2018) [FLAC]/11 - Love Unlimited Orchestra - Always Thinking Of You (7"-version, 04.1975).flac

Track gain : -3.59 dB
Peak : 0.999969
CRC32 hash (test run) : 39AA2DEA
CRC32 hash : 39AA2DEA
CRC32 hash (skip zero) : 91AEA434
AccurateRip v1 signature : 4DAEC625
AccurateRip v2 signature : C9720A7A
->Accurately ripped (v2, confidence 5/5)
Statistics
Read error : 0
Jitter error (maybe fixed) : 0
Retry sector count : 0
Damaged sector count : 0

Track 12
Filename : /Users/rulitos/Desktop/ Love Unlimited Orchestra - The 20th Century Records Singles (1973-1979) (cd1.1) (2018) [FLAC]/12 - Love Unlimited Orchestra - Forever In Love (7"-version, 05.1975).flac

Track gain : -5.00 dB
Peak : 0.972321
CRC32 hash (test run) : 23532905
CRC32 hash : 23532905
CRC32 hash (skip zero) : FAB16F67
AccurateRip v1 signature : FA6ABC7F
AccurateRip v2 signature : 51AF13BF
->Accurately ripped (v2, confidence 5/5)
Statistics
Read error : 0
Jitter error (maybe fixed) : 0
Retry sector count : 0
Damaged sector count : 0

Track 13
Filename : /Users/rulitos/Desktop/ Love Unlimited Orchestra - The 20th Century Records Singles (1973-1979) (cd1.1) (2018) [FLAC]/13 - Love Unlimited Orchestra - Only You Can Make Me Blue (7"-version, 05.1975).flac

Track gain : -4.54 dB
Peak : 0.950378
CRC32 hash (test run) : CB07A027
CRC32 hash : CB07A027
CRC32 hash (skip zero) : 984EBE65
AccurateRip v1 signature : E0BA3F58
AccurateRip v2 signature : B545FC14
->Accurately ripped (v2, confidence 5/5)
Statistics
Read error : 0
Jitter error (maybe fixed) : 0
Retry sector count : 0
Damaged sector count : 0

Track 14
Filename : /Users/rulitos/Desktop/ Love Unlimited Orchestra - The 20th Century Records Singles (1973-1979) (cd1.1) (2018) [FLAC]/14 - Love Unlimited Orchestra - Midnight Groove (7"-version, 04.1976).flac

Track gain : -3.52 dB
Peak : 0.985260
CRC32 hash (test run) : 4A0036D4
CRC32 hash : 4A0036D4
CRC32 hash (skip zero) : 57A19820
AccurateRip v1 signature : EDD0440D
AccurateRip v2 signature : 8AD78D19
->Accurately ripped (v2, confidence 5/5)
Statistics
Read error : 0
Jitter error (maybe fixed) : 0
Retry sector count : 0
Damaged sector count : 0

Track 15
Filename : /Users/rulitos/Desktop/ Love Unlimited Orchestra - The 20th Century Records Singles (1973-1979) (cd1.1) (2018) [FLAC]/15 - Love Unlimited Orchestra - It's Only What I Feel (7"-version, 04.1976).flac

Track gain : -3.62 dB
Peak : 0.983246
CRC32 hash (test run) : 789B9B95
CRC32 hash : 789B9B95
CRC32 hash (skip zero) : C1931758
AccurateRip v1 signature : 415A1D11
AccurateRip v2 signature : 18F71271
->Accurately ripped (v2, confidence 5/5)
Statistics
Read error : 0
Jitter error (maybe fixed) : 0
Retry sector count : 0
Damaged sector count : 0

Track 16
Filename : /Users/rulitos/Desktop/ Love Unlimited Orchestra - The 20th Century Records Singles (1973-1979) (cd1.1) (2018) [FLAC]/16 - Love Unlimited Orchestra - My Sweet Summer Suite (7"-version, 08.1976).flac

Track gain : -4.41 dB
Peak : 0.980896
CRC32 hash (test run) : 70D64EE7
CRC32 hash : 70D64EE7
CRC32 hash (skip zero) : 8C01BE12
AccurateRip v1 signature : 3F4C8560
AccurateRip v2 signature : CA5609BF
->Accurately ripped (v2, confidence 5/5)
Statistics
Read error : 0
Jitter error (maybe fixed) : 0
Retry sector count : 0
Damaged sector count : 0

Track 17
Filename : /Users/rulitos/Desktop/ Love Unlimited Orchestra - The 20th Century Records Singles (1973-1979) (cd1.1) (2018) [FLAC]/17 - Love Unlimited Orchestra - Theme From King Kong (Part 1) (7"-version, 12.1976).flac

Track gain : -4.72 dB
Peak : 0.975555
CRC32 hash (test run) : A3C0E201
CRC32 hash : A3C0E201
CRC32 hash (skip zero) : 3FA7EE24
AccurateRip v1 signature : 6F08DF86
AccurateRip v2 signature : 5A20E73D
->Accurately ripped (v2, confidence 5/5)
Statistics
Read error : 0
Jitter error (maybe fixed) : 0
Retry sector count : 0
Damaged sector count : 0

Track 18
Filename : /Users/rulitos/Desktop/ Love Unlimited Orchestra - The 20th Century Records Singles (1973-1979) (cd1.1) (2018) [FLAC]/18 - Love Unlimited Orchestra - Theme From King Kong (Part 2) (7"-version, 12.1976).flac

Track gain : -4.10 dB
Peak : 0.972473
CRC32 hash (test run) : 8FCA558E
CRC32 hash : 8FCA558E
CRC32 hash (skip zero) : 77B16924
AccurateRip v1 signature : FDA7BCEB
AccurateRip v2 signature : F6AD35DB
->Accurately ripped (v2, confidence 3/3)
Statistics
Read error : 0
Jitter error (maybe fixed) : 0
Retry sector count : 0
Damaged sector count : 0

No errors occurred

End of status report

––-BEGIN XLD SIGNATURE––-
9EF60Nu9Fr68OvnqPMvHVBRDAuD_VKNnaBhtz_LwLWlnQf4DNZdk1yKHd1pbygaBGtHi6rBvSs9mRMh.8.JVVvKlUGBl7Iu9bCgdkSW
––-END XLD SIGNATURE––-


X Lossless Decoder version 20181019 (151.1)

XLD extraction logfile from 2018-11-16 14:12:16 -0500

Love Unlimited Orchestra / The 20th Century Records Singles (1973-1979) (CD 2)

Used drive : MATSHITA DVD-R UJ-8A8 (revision HB14)
Media type : Pressed CD

Ripper mode : XLD Secure Ripper
Disable audio cache : OK for the drive with a cache less than 1375KiB
Make use of C2 pointers : NO
Read offset correction : 102
Max retry count : 100
Gap status : Analyzed, Appended (except HTOA)

TOC of the extracted CD
Track | Start | Length | Start sector | End sector
––––––––––––––––––––––––––––-
1 | 00:00:00 | 03:07:55 | 0 | 14079
2 | 03:07:55 | 03:28:58 | 14080 | 29737
3 | 06:36:38 | 03:43:08 | 29738 | 46470
4 | 10:19:46 | 03:04:48 | 46471 | 60318
5 | 13:24:19 | 03:10:70 | 60319 | 74638
6 | 16:35:14 | 03:29:33 | 74639 | 90346
7 | 20:04:47 | 07:16:17 | 90347 | 123063
8 | 27:20:64 | 08:04:65 | 123064 | 159428
9 | 35:25:54 | 03:39:61 | 159429 | 175914
10 | 39:05:40 | 06:09:59 | 175915 | 203648
11 | 45:15:24 | 05:08:29 | 203649 | 226777
12 | 50:23:53 | 07:29:02 | 226778 | 260454
13 | 57:52:55 | 05:46:59 | 260455 | 286463
14 | 63:39:39 | 05:55:69 | 286464 | 313157

AccurateRip Summary (DiscID: 001f807a-015db6f0-c5104f0e)
Track 01 : OK (v2, confidence 5/5)
Track 02 : OK (v2, confidence 5/5)
Track 03 : OK (v2, confidence 5/5)
Track 04 : OK (v2, confidence 5/5)
Track 05 : OK (v2, confidence 5/5)
Track 06 : OK (v2, confidence 5/5)
Track 07 : OK (v2, confidence 5/5)
Track 08 : OK (v2, confidence 5/5)
Track 09 : OK (v2, confidence 5/5)
Track 10 : OK (v2, confidence 5/5)
Track 11 : OK (v2, confidence 5/5)
Track 12 : OK (v2, confidence 5/5)
Track 13 : OK (v2, confidence 5/5)
Track 14 : OK (v2, confidence 1/4)
->All tracks accurately ripped.

All Tracks
Album gain : -3.82 dB
Peak : 0.999969
Statistics
Read error : 0
Jitter error (maybe fixed) : 0
Retry sector count : 0
Damaged sector count : 0

Track 01
Filename : /Users/rulitos/Desktop/ Love Unlimited Orchestra - The 20th Century Records Singles (1973-1979) (CD 2) (2018) [FLAC]/01 - Love Unlimited Orchestra - Brazilian Love Song.flac
Pre-gap length : 00:02:00

Track gain : -4.12 dB
Peak : 0.939514
CRC32 hash (test run) : 79616AC8
CRC32 hash : 79616AC8
CRC32 hash (skip zero) : C0826952
AccurateRip v1 signature : AF514C1A
AccurateRip v2 signature : C7F37220
->Accurately ripped (v2, confidence 5/5)
Statistics
Read error : 0
Jitter error (maybe fixed) : 0
Retry sector count : 0
Damaged sector count : 0

Track 02
Filename : /Users/rulitos/Desktop/ Love Unlimited Orchestra - The 20th Century Records Singles (1973-1979) (CD 2) (2018) [FLAC]/02 - Love Unlimited Orchestra - Hey Look At Me, I'm In Love.flac

Track gain : -3.65 dB
Peak : 0.999969
CRC32 hash (test run) : 188BDBC4
CRC32 hash : 188BDBC4
CRC32 hash (skip zero) : A4C9C162
AccurateRip v1 signature : 9EADEDFA
AccurateRip v2 signature : 945AB67F
->Accurately ripped (v2, confidence 5/5)
Statistics
Read error : 0
Jitter error (maybe fixed) : 0
Retry sector count : 0
Damaged sector count : 0

Track 03
Filename : /Users/rulitos/Desktop/ Love Unlimited Orchestra - The 20th Century Records Singles (1973-1979) (CD 2) (2018) [FLAC]/03 - Love Unlimited Orchestra - Whisper Softly.flac

Track gain : -2.58 dB
Peak : 0.999969
CRC32 hash (test run) : 6352BE50
CRC32 hash : 6352BE50
CRC32 hash (skip zero) : 2CAB196F
AccurateRip v1 signature : E01DA743
AccurateRip v2 signature : FB130109
->Accurately ripped (v2, confidence 5/5)
Statistics
Read error : 0
Jitter error (maybe fixed) : 0
Retry sector count : 0
Damaged sector count : 0

Track 04
Filename : /Users/rulitos/Desktop/ Love Unlimited Orchestra - The 20th Century Records Singles (1973-1979) (CD 2) (2018) [FLAC]/04 - Love Unlimited Orchestra - Don't You Know How Much I Love You.flac

Track gain : -3.82 dB
Peak : 0.960419
CRC32 hash (test run) : 0BF2075B
CRC32 hash : 0BF2075B
CRC32 hash (skip zero) : 4D3DE217
AccurateRip v1 signature : 59D43A95
AccurateRip v2 signature : 41BC78E8
->Accurately ripped (v2, confidence 5/5)
Statistics
Read error : 0
Jitter error (maybe fixed) : 0
Retry sector count : 0
Damaged sector count : 0

Track 05
Filename : /Users/rulitos/Desktop/ Love Unlimited Orchestra - The 20th Century Records Singles (1973-1979) (CD 2) (2018) [FLAC]/05 - Love Unlimited Orchestra - Theme From "Shaft".flac

Track gain : -3.43 dB
Peak : 0.999969
CRC32 hash (test run) : 9287AED2
CRC32 hash : 9287AED2
CRC32 hash (skip zero) : 2DA1DFBC
AccurateRip v1 signature : CF420903
AccurateRip v2 signature : E448B2C8
->Accurately ripped (v2, confidence 5/5)
Statistics
Read error : 0
Jitter error (maybe fixed) : 0
Retry sector count : 0
Damaged sector count : 0

Track 06
Filename : /Users/rulitos/Desktop/ Love Unlimited Orchestra - The 20th Century Records Singles (1973-1979) (CD 2) (2018) [FLAC]/06 - Love Unlimited Orchestra - Theme From "Superman".flac

Track gain : -4.50 dB
Peak : 0.966614
CRC32 hash (test run) : 5B9331CB
CRC32 hash : 5B9331CB
CRC32 hash (skip zero) : C66B2A76
AccurateRip v1 signature : 2502D66A
AccurateRip v2 signature : 570D41B8
->Accurately ripped (v2, confidence 5/5)
Statistics
Read error : 0
Jitter error (maybe fixed) : 0
Retry sector count : 0
Damaged sector count : 0

Track 07
Filename : /Users/rulitos/Desktop/ Love Unlimited Orchestra - The 20th Century Records Singles (1973-1979) (CD 2) (2018) [FLAC]/07 - Love Unlimited Orchestra - My Sweet Summer Suite (Disco Version).flac

Track gain : -3.68 dB
Peak : 0.998474
CRC32 hash (test run) : 00D9BEC4
CRC32 hash : 00D9BEC4
CRC32 hash (skip zero) : 1701E331
AccurateRip v1 signature : C039DA76
AccurateRip v2 signature : 32C42A7A
->Accurately ripped (v2, confidence 5/5)
Statistics
Read error : 0
Jitter error (maybe fixed) : 0
Retry sector count : 0
Damaged sector count : 0

Track 08
Filename : /Users/rulitos/Desktop/ Love Unlimited Orchestra - The 20th Century Records Singles (1973-1979) (CD 2) (2018) [FLAC]/08 - Love Unlimited Orchestra - Theme From King Kong (Disco Version).flac

Track gain : -4.44 dB
Peak : 0.980774
CRC32 hash (test run) : 55CBD474
CRC32 hash : 55CBD474
CRC32 hash (skip zero) : B6299008
AccurateRip v1 signature : 78A8DB14
AccurateRip v2 signature : A4995240
->Accurately ripped (v2, confidence 5/5)
Statistics
Read error : 0
Jitter error (maybe fixed) : 0
Retry sector count : 0
Damaged sector count : 0

Track 09
Filename : /Users/rulitos/Desktop/ Love Unlimited Orchestra - The 20th Century Records Singles (1973-1979) (CD 2) (2018) [FLAC]/09 - Love Unlimited Orchestra - Blues Concerto.flac

Track gain : -5.30 dB
Peak : 0.988495
CRC32 hash (test run) : 57BEFED9
CRC32 hash : 57BEFED9
CRC32 hash (skip zero) : 30877D40
AccurateRip v1 signature : 173955FF
AccurateRip v2 signature : 539AB2D6
->Accurately ripped (v2, confidence 5/5)
Statistics
Read error : 0
Jitter error (maybe fixed) : 0
Retry sector count : 0
Damaged sector count : 0

Track 10
Filename : /Users/rulitos/Desktop/ Love Unlimited Orchestra - The 20th Century Records Singles (1973-1979) (CD 2) (2018) [FLAC]/10 - Love Unlimited Orchestra - Brazilian Love Song (Disco Version).flac

Track gain : -2.99 dB
Peak : 0.980377
CRC32 hash (test run) : EBCB8AB7
CRC32 hash : EBCB8AB7
CRC32 hash (skip zero) : D5DE389C
AccurateRip v1 signature : DC0FBEF8
AccurateRip v2 signature : 9490694A
->Accurately ripped (v2, confidence 5/5)
Statistics
Read error : 0
Jitter error (maybe fixed) : 0
Retry sector count : 0
Damaged sector count : 0

Track 11
Filename : /Users/rulitos/Desktop/ Love Unlimited Orchestra - The 20th Century Records Singles (1973-1979) (CD 2) (2018) [FLAC]/11 - Love Unlimited Orchestra - Don't You Know How Much I Love You (Disco Version).flac

Track gain : -3.60 dB
Peak : 0.984528
CRC32 hash (test run) : 3507C467
CRC32 hash : 3507C467
CRC32 hash (skip zero) : 63188B08
AccurateRip v1 signature : 215FB47A
AccurateRip v2 signature : 8AC5078D
->Accurately ripped (v2, confidence 5/5)
Statistics
Read error : 0
Jitter error (maybe fixed) : 0
Retry sector count : 0
Damaged sector count : 0

Track 12
Filename : /Users/rulitos/Desktop/ Love Unlimited Orchestra - The 20th Century Records Singles (1973-1979) (CD 2) (2018) [FLAC]/12 - Love Unlimited Orchestra - Hey Look At Me, I'm In Love (Disco Version).flac

Track gain : -2.94 dB
Peak : 0.999695
CRC32 hash (test run) : ACD41CD8
CRC32 hash : ACD41CD8
CRC32 hash (skip zero) : 4C8D5BA2
AccurateRip v1 signature : 8A240AF8
AccurateRip v2 signature : 173AB08B
->Accurately ripped (v2, confidence 5/5)
Statistics
Read error : 0
Jitter error (maybe fixed) : 0
Retry sector count : 0
Damaged sector count : 0

Track 13
Filename : /Users/rulitos/Desktop/ Love Unlimited Orchestra - The 20th Century Records Singles (1973-1979) (CD 2) (2018) [FLAC]/13 - Love Unlimited Orchestra - Theme From "Shaft" (Disco Version).flac

Track gain : -2.97 dB
Peak : 0.993896
CRC32 hash (test run) : 158A37FC
CRC32 hash : 158A37FC
CRC32 hash (skip zero) : ABA06DAE
AccurateRip v1 signature : 03FD2638
AccurateRip v2 signature : 4095FF15
->Accurately ripped (v2, confidence 5/5)
Statistics
Read error : 0
Jitter error (maybe fixed) : 0
Retry sector count : 0
Damaged sector count : 0

Track 14
Filename : /Users/rulitos/Desktop/ Love Unlimited Orchestra - The 20th Century Records Singles (1973-1979) (CD 2) (2018) [FLAC]/14 - Love Unlimited Orchestra - Theme From "Superman" (Disco Version).flac

Track gain : -4.80 dB
Peak : 0.974243
CRC32 hash (test run) : ABC3D2BF
CRC32 hash : ABC3D2BF
CRC32 hash (skip zero) : EE1CE045
AccurateRip v1 signature : D0FC5089
AccurateRip v2 signature : D05788B8
->Accurately ripped (v2, confidence 1/4)
Statistics
Read error : 0
Jitter error (maybe fixed) : 0
Retry sector count : 0
Damaged sector count : 0

No errors occurred

End of status report

––-BEGIN XLD SIGNATURE––-
qsjsMJP2fmp9xqW2ErIbvLmuXrJhVga_aFGfw.8HTSWwiFxljezLLgDOQ2Jc.Ke5.mEy73u5Gr5JQ4C7_X4b.zgafryjZy6jW4rd6Qa
––-END XLD SIGNATURE––-


Tracklist:

Disc 1 (01:06:47)
1. Love's Theme (03:39) (sngle version)
2. Sweet Moments (03:48)
3. Rhapsody In White (02:58)
4. Barry's Theme (04:27)
5. Theme From Together Brothers (02:50)
6. Find The Man Bros. (02:18)
7. Baby Blues (03:14)
8. What A Groove (03:30)
9. Satin Soul (03:36)
10. Just Living It Up (03:35)
11. Always Thinking Of You (03:12)
12. Forever In Love (03:35)
13. Only You Can Make Me Blue (03:12)
14. Midnight Groove (04:51)
15. It's Only What I Feel (03:53)
16. My Sweet Summer Suite (04:49) (single version)
17. Theme From King Kong (Part 1) (03:16)
18. Theme From King Kong (Part 2) (06:04)

Disc 2 (01:09:27)
1. Brazilian Love Song (03:07)
2. Hey Look At Me, I'm In Love (03:28)
3. Whisper Softly (03:43)
4. Don't You Know How Much I Love You (03:04)
5. Theme From "Shaft" (03:10)
6. Theme From "Superman" (03:29)
7. My Sweet Summer Suite (Disco Version) (07:16)
8. Theme From King Kong (Disco Version) (08:04)
9. Blues Concerto (03:39)
10. Brazilian Love Song (Disco Version) (06:09)
11. Don't You Know How Much I Love You (Disco Version) (05:08)
12. Hey Look At Me, I'm In Love (Disco Version) (07:29)
13. Theme From "Shaft" (Disco Version) (05:46)
14. Theme From "Superman" (Disco Version) (05:55)