Tags
Language
Tags
April 2024
Su Mo Tu We Th Fr Sa
31 1 2 3 4 5 6
7 8 9 10 11 12 13
14 15 16 17 18 19 20
21 22 23 24 25 26 27
28 29 30 1 2 3 4

Lucky Peterson - Black Midnight Sun (2003)

Posted By: popsakov
Lucky Peterson - Black Midnight Sun (2003)

Lucky Peterson - Black Midnight Sun (2003)
EAC Rip | FLAC (Tracks) + Cue + m3u + Log ~ 353 Mb | MP3 CBR320 ~ 128 Mb
Full Scans ~ 54 Mb | 00:53:02 | RAR 5% Recovery
Modern Electric Blues, Soul Blues, Funk, Blues Rock | Dreyfus Jazz #FDM 36643-2

Black Midnight Sun is the first release on the Dreyfus label by multi-instrumentalist and vocalist Lucky Peterson, joined here by producer Bill Laswell on bass and former Parliament/Funkadelic drummer Jerome "Bigfoot" Braily. While the disc features a few Peterson originals, the majority of the album relies on cover versions. Luckily, Peterson picked several that he's well suited to tackle, including "Herbert Harper's Free Press" (Muddy Waters), "Lucky in Love" (Mick Jagger), "Is It Because I'm Black" (Syl Johnson), "Jody's Got Your Girl and Gone" (Johnnie Taylor), "Talkin' Loud and Saying Nothing" (James Brown), and "Thank You for Talkin' to Me Africa" (Sly Stone). Black Midnight Sun is a combination of electric blues, rock, soul, and funk that, for the most part, works just fine.

~ Stephen Thomas Erlewine, All Music

***************

Lucky Peterson - Black Midnight Sun (2003)

Lucky Peterson - Black Midnight Sun (2003)

Track List:

01. Herbert Harper's Free Press News [5:23]
02. Lucky in Love [5:19]
03. Is It Because I'm Black [4:53]
04. Jody's Got Your Girl and Gone [3:56]
05. Smokestack Lightning [5:10]
06. Black Midnight Sun [5:01]
07. She's a Burglar [4:42]
08. Truly Your Friend [5:22]
09. Talkin' Loud and Saying Nothing [4:14]
10. Change Your Ways [3:03]
11. Thank You for Talkin'to Me Africa [6:00]

Exact Audio Copy V1.1 from 23. June 2015

EAC extraction logfile from 29. March 2020, 9:55

Lucky Peterson / Black Midnight Sun

Used drive : PIONEER DVD-RW DVR-219L Adapter: 1 ID: 0

Read mode : Secure
Utilize accurate stream : Yes
Defeat audio cache : Yes
Make use of C2 pointers : No

Read offset correction : 6
Overread into Lead-In and Lead-Out : No
Fill up missing offset samples with silence : Yes
Delete leading and trailing silent blocks : No
Null samples used in CRC calculations : Yes
Used interface : Native Win32 interface for Win NT & 2000
Gap handling : Appended to previous track

Used output format : User Defined Encoder
Selected bitrate : 768 kBit/s
Quality : High
Add ID3 tag : No
Command line compressor : C:\Install\Exact Audio Copy\FLAC\FLAC.EXE
Additional command line options : -6 -V -T "ARTIST=%artist%" -T "TITLE=%title%" -T "ALBUM=%albumtitle%" -T "DATE=%year%" -T "TRACKNUMBER=%tracknr%" -T "GENRE=%genre%" -T "COMMENT=%comment%" -T "BAND=%albuminterpret%" -T "ALBUMARTIST=%albuminterpret%" -T "COMPOSER=%composer%" %haslyrics%–tag-from-file=LYRICS="%lyricsfile%"%haslyrics% -T "DISCNUMBER=%cdnumber%" -T "TOTALDISCS=%totalcds%" -T "TOTALTRACKS=%numtracks%" %hascover%–picture="%coverfile%"%hascover% %source% -o %dest%


TOC of the extracted CD

Track | Start | Length | Start sector | End sector
––––––––––––––––––––––––––––-
1 | 0:00.00 | 5:22.57 | 0 | 24206
2 | 5:22.57 | 5:19.00 | 24207 | 48131
3 | 10:41.57 | 4:54.33 | 48132 | 70214
4 | 15:36.15 | 3:57.60 | 70215 | 88049
5 | 19:34.00 | 5:10.60 | 88050 | 111359
6 | 24:44.60 | 5:02.67 | 111360 | 134076
7 | 29:47.52 | 4:42.72 | 134077 | 155298
8 | 34:30.49 | 5:24.08 | 155299 | 179606
9 | 39:54.57 | 4:16.27 | 179607 | 198833
10 | 44:11.09 | 3:04.43 | 198834 | 212676
11 | 47:15.52 | 5:59.38 | 212677 | 239639


Track 1

Filename E:\alexbras\2003 Lucky Peterson - Black Midnight Sun\01. Herbert Harper's Free Press News.wav

Pre-gap length 0:00:02.00

Peak level 100.0 %
Extraction speed 2.7 X
Track quality 100.0 %
Test CRC 692B0311
Copy CRC 692B0311
Accurately ripped (confidence 31) [8C6C2409] (AR v2)
Copy OK

Track 2

Filename E:\alexbras\2003 Lucky Peterson - Black Midnight Sun\02. Lucky in Love.wav

Peak level 100.0 %
Extraction speed 2.7 X
Track quality 100.0 %
Test CRC 690B331D
Copy CRC 690B331D
Accurately ripped (confidence 31) [66437A68] (AR v2)
Copy OK

Track 3

Filename E:\alexbras\2003 Lucky Peterson - Black Midnight Sun\03. Is It Because I'm Black.wav

Peak level 100.0 %
Extraction speed 2.4 X
Track quality 99.9 %
Test CRC B0960697
Copy CRC B0960697
Accurately ripped (confidence 31) [B6E8D5E3] (AR v2)
Copy OK

Track 4

Filename E:\alexbras\2003 Lucky Peterson - Black Midnight Sun\04. Jody's Got Your Girl and Gone.wav

Pre-gap length 0:00:01.00

Peak level 100.0 %
Extraction speed 2.6 X
Track quality 100.0 %
Test CRC F77D1A33
Copy CRC F77D1A33
Accurately ripped (confidence 31) [9CAABDE6] (AR v2)
Copy OK

Track 5

Filename E:\alexbras\2003 Lucky Peterson - Black Midnight Sun\05. Smokestack Lightning.wav

Pre-gap length 0:00:02.00

Peak level 100.0 %
Extraction speed 2.7 X
Track quality 100.0 %
Test CRC 8EE48688
Copy CRC 8EE48688
Accurately ripped (confidence 31) [FAFAD8B1] (AR v2)
Copy OK

Track 6

Filename E:\alexbras\2003 Lucky Peterson - Black Midnight Sun\06. Black Midnight Sun.wav

Pre-gap length 0:00:01.00

Peak level 100.0 %
Extraction speed 2.6 X
Track quality 100.0 %
Test CRC 86D38865
Copy CRC 86D38865
Accurately ripped (confidence 31) [D9E7FE24] (AR v2)
Copy OK

Track 7

Filename E:\alexbras\2003 Lucky Peterson - Black Midnight Sun\07. She's a Burglar.wav

Pre-gap length 0:00:02.00

Peak level 100.0 %
Extraction speed 2.6 X
Track quality 100.0 %
Test CRC 9F8BF5DE
Copy CRC 9F8BF5DE
Accurately ripped (confidence 31) [91D9285F] (AR v2)
Copy OK

Track 8

Filename E:\alexbras\2003 Lucky Peterson - Black Midnight Sun\08. Truly Your Friend.wav

Pre-gap length 0:00:01.00

Peak level 100.0 %
Extraction speed 2.7 X
Track quality 100.0 %
Test CRC 0113D5BB
Copy CRC 0113D5BB
Accurately ripped (confidence 31) [039E8317] (AR v2)
Copy OK

Track 9

Filename E:\alexbras\2003 Lucky Peterson - Black Midnight Sun\09. Talkin' Loud and Saying Nothing.wav

Pre-gap length 0:00:02.00

Peak level 100.0 %
Extraction speed 2.6 X
Track quality 100.0 %
Test CRC C3541FFD
Copy CRC C3541FFD
Accurately ripped (confidence 31) [E273F01E] (AR v2)
Copy OK

Track 10

Filename E:\alexbras\2003 Lucky Peterson - Black Midnight Sun\10. Change Your Ways.wav

Pre-gap length 0:00:02.00

Peak level 100.0 %
Extraction speed 2.1 X
Track quality 99.9 %
Test CRC 51DD6D78
Copy CRC 51DD6D78
Accurately ripped (confidence 31) [B411FFEB] (AR v2)
Copy OK

Track 11

Filename E:\alexbras\2003 Lucky Peterson - Black Midnight Sun\11. Thank You for Talkin'to Me Africa.wav

Pre-gap length 0:00:02.00

Peak level 100.0 %
Extraction speed 2.7 X
Track quality 100.0 %
Test CRC 72BDEC51
Copy CRC 72BDEC51
Accurately ripped (confidence 30) [BBD44C33] (AR v2)
Copy OK


All tracks accurately ripped

No errors occurred

End of status report

–– CUETools DB Plugin V2.1.6

[CTDB TOCID: x6VVe8E5Kyzz5QZ3dnBuzNkYaLA-] found
Submit result: x6VVe8E5Kyzz5QZ3dnBuzNkYaLA- has been confirmed
Track | CTDB Status
1 | (88/91) Accurately ripped
2 | (89/91) Accurately ripped
3 | (89/91) Accurately ripped
4 | (90/91) Accurately ripped
5 | (89/91) Accurately ripped
6 | (89/91) Accurately ripped
7 | (89/91) Accurately ripped
8 | (88/91) Accurately ripped
9 | (89/91) Accurately ripped
10 | (89/91) Accurately ripped
11 | (87/91) Accurately ripped


==== Log checksum ACA24C526DE261B8629A946C7CFA7D69EEFAC862918497ACE328AE43F20DB881 ====

[CUETools log; Date: 30.03.2020 13:13:45; Version: 2.1.6]
[CTDB TOCID: x6VVe8E5Kyzz5QZ3dnBuzNkYaLA-] found.
Track | CTDB Status
1 | (89/92) Accurately ripped
2 | (90/92) Accurately ripped
3 | (90/92) Accurately ripped
4 | (91/92) Accurately ripped
5 | (90/92) Accurately ripped
6 | (90/92) Accurately ripped
7 | (90/92) Accurately ripped
8 | (89/92) Accurately ripped
9 | (90/92) Accurately ripped
10 | (90/92) Accurately ripped
11 | (88/92) Accurately ripped
[AccurateRip ID: 00164f52-00c0001e-aa0c7b0b] found.
Track [ CRC | V2 ] Status
01 [2be9ece3|8c6c2409] (17+31/70) Accurately ripped
02 [ce5cc190|66437a68] (17+31/69) Accurately ripped
03 [a3c540dd|b6e8d5e3] (17+31/69) Accurately ripped
04 [b1e23144|9caabde6] (17+31/69) Accurately ripped
05 [49d0edac|fafad8b1] (17+31/67) Accurately ripped
06 [b2bdea76|d9e7fe24] (17+31/69) Accurately ripped
07 [8626e6f6|91d9285f] (17+31/68) Accurately ripped
08 [f3cd9e27|039e8317] (17+31/69) Accurately ripped
09 [5ec85a4c|e273f01e] (17+31/68) Accurately ripped
10 [c3dde60c|b411ffeb] (17+31/68) Accurately ripped
11 [a82e8ce3|bbd44c33] (17+30/66) Accurately ripped
Offsetted by -664:
01 [e915dc23] (12/70) Accurately ripped
02 [811260f8] (11/69) Accurately ripped
03 [9174a84d] (11/69) Accurately ripped
04 [99ad6714] (11/69) Accurately ripped
05 [1d473524] (10/67) Accurately ripped
06 [1681154e] (12/69) Accurately ripped
07 [9b4c4f86] (11/68) Accurately ripped
08 [ac1cffaf] (12/69) Accurately ripped
09 [55b4d204] (11/68) Accurately ripped
10 [8cab1fec] (11/68) Accurately ripped
11 [e2d3d5ab] (10/66) Accurately ripped

Track Peak [ CRC32 ] [W/O NULL] [ LOG ]
– 100,0 [29D3BE07] [6606AF36]
01 100,0 [692B0311] [9BBEA478] CRC32
02 100,0 [690B331D] [0EE54DCB] CRC32
03 100,0 [B0960697] [D59F2C93] CRC32
04 100,0 [F77D1A33] [C14B0074] CRC32
05 100,0 [8EE48688] [AC323CD3] CRC32
06 100,0 [86D38865] [329271C0] CRC32
07 100,0 [9F8BF5DE] [D2132D60] CRC32
08 100,0 [0113D5BB] [D7814E58] CRC32
09 100,0 [C3541FFD] [89BDDA54] CRC32
10 100,0 [51DD6D78] [B1572A89] CRC32
11 100,0 [72BDEC51] [4089BBB1] CRC32

Lucky Peterson - Black Midnight Sun (2003)


All thanks go to alex1248

>>> Lucky Peterson in my Blog <<<

DOWNLOAD: