Subcategories

Lynn Anderson - Rose Garden (1999)

Posted By: Designol
Lynn Anderson - Rose Garden (1999)

Lynn Anderson - Rose Garden (1999)
EAC | FLAC | Image (Cue&Log) ~ 374 Mb | Mp3 (CBR320) ~ 167 Mb | Scans included
Country-Pop, Nashville Sound | Label: Life Time | # LT 5108 | Time: 00:56:43

Best known for her Grammy-winning smash "Rose Garden," Lynn Anderson was one of the most popular female country singers of the early '70s, helped by her regular exposure on national television. Anderson was born in Grand Forks, North Dakota, and grew up in Sacramento, California; her mother Liz was a professional songwriter best known for penning Merle Haggard's early hits "(All My Friends Are Gonna Be) Strangers" and "The Fugitive" (the latter with her husband, Carey). Naturally, Lynn picked up music too, and performed as a singer and guitarist during her teen years.

In the mid-'60s, her mother got a recording contract of her own based on her demo tapes, some of which featured Lynn singing background vocals. When the two traveled to Nashville, Lynn wound up recording for the small Chart label, cutting a duet with Jerry Lane as her first single. Her first solo single was 1966's "In Person," and in 1967 she scored her first Top 40 hit with her mother's composition "Ride, Ride, Ride." She burst into the country Top Five with 1967's "If I Kiss You (Will You Go Away)," 1968's "Promises, Promises," and 1969's "That's a No No." Her success helped her land a spot as a weekly regular on The Lawrence Welk Show for a time, and made her the only country singer of her time to fill such a slot on any TV program. She eventually departed amid objections to singing in stereotypical haywagon settings, but went on to appear on numerous other variety shows.

In 1970, Anderson moved to Nashville with her husband, writer/producer Glenn Sutton, and signed with Columbia. She quickly scored the biggest hit of her career with the Joe South-penned "Rose Garden," which topped the country charts and went all the way to number three on the pop side. It won her a Grammy for Best Female Country Vocal, and proved a hit in 15 countries. While Anderson never quite duplicated that crossover phenomenon, she racked up 14 more Top Ten hits on the country charts through 1974, including the number ones "How Can I Unlove You," "You're My Man," "Keep Me in Mind," and "What a Man, My Man Is." Her run of success trailed off somewhat in the latter half of the decade, but she continued to make regular appearances on the charts, and finally returned to the Top Ten with 1979's "Isn't It Always Love." She parted ways with Columbia in 1981, and scored one last Top Ten hit for Permian with 1984's "You're Welcome to Tonight." Other than a single for MCA and an album for Mercury, Anderson was silent for the remainder of the '80s; in 1992, she issued the album Cowboy's Sweetheart on the small Delta label.

In 2000, Anderson returned with the concert album Live at Billy Bob's Texas. Four years later, she delivered the studio effort The Bluegrass Sessions, which featured bluegrass reworkings of her hits from the '60s and '70s. The album was well-received and garnered a Grammy Award nomination in 2005 for Best Bluegrass Album. On the heels of her nomination, Anderson appeared at the Grand Ole Opry, duetting with vocalist Martina McBride on her signature hit "Rose Garden." Following her comeback, Anderson kept busy with live appearances including performing at the CMA Music Festival in Nashville in 2007, the Stagecoach Festival in Palm Springs in 2009, and joining the Metropole Symphony Orchestra for a series of shows in 2010 and 2011.

In June 2015, Anderson released the album Bridges. Her first studio recording in over ten years, Bridges featured collaborations with the Oak Ridge Boys and the Martins. On July 30, 2015, Anderson died of a heart attack after having been admitted to a hospital in Nashville suffering from pneumonia. She was 67 years old.

Steve Huey, Allmusic.com

Lynn Anderson - Rose Garden (1999)



Tracklist:

01. What A Man My Man Is (2:12)
02. Silver Threads & Golden Needles (2:23)
03. How Can I Unlove You (2:40)
04. You're My Man (2:36)
05. Close To You (3:52)
06. We've Only Just Begun (3:18)
07. Top Of The World (2:56)
08. Fool Me (2:15)
09. Midnight Train To Georgia (3:51)
10. It Must Be Love (2:49)
11. Listen To A Country Song (2:45)
12. Ride Ride Ride (1:57)
13. Keep Me In Mind (2:59)
14. You Don't Have To Say You Love Me (2:40)
15. Even Cowgirls Get The Blues (2:29)
16. I Never Loved Anyone Before (2:47)
17. Where's The Fire (3:08)
18. Rose Garden (2:46)
19. Cry (3:13)
20. Two Doors Down (3:04)


Exact Audio Copy V1.3 from 2. September 2016

Отчёт EAC об извлечении, выполненном 10. декабря 2017, 16:10

Lynn Anderson / Rose Garden

Дисковод: LITE-ON CD-RW SOHR-5239V Adapter: 8 ID: 1

Режим чтения : Достоверность
Использование точного потока : Да
Отключение кэша аудио : Да
Использование указателей C2 : Нет

Коррекция смещения при чтении : 6
Способность читать области Lead-in и Lead-out : Нет
Заполнение пропущенных сэмплов тишиной : Да
Удаление блоков с тишиной в начале и конце : Нет
При вычислениях CRC использовались нулевые сэмплы : Да
Интерфейс : Установленный внешний ASPI-интерфейс

Выходной формат : Пользовательский кодировщик
Выбранный битрейт : 128 kBit/s
Качество : Высокий
Добавление ID3-тега : Нет
Утилита сжатия : C:\Program Files\Exact Audio Copy\FLAC\FLAC.EXE
Дополнительные параметры : -V -8 -T "Genre=%genre%" -T "Artist=%artist%" -T "Title=%title%" -T "Album=%albumtitle%" -T "Date=%year%" -T "Tracknumber=%tracknr%" -T "Comment=%comment%" %source%


TOC извлечённого CD

Трек | Старт | Длительность | Начальный сектор | Конечный сектор
––––––––––––––––––––––––––––––––––-
1 | 0:00.00 | 2:12.17 | 0 | 9916
2 | 2:12.17 | 2:23.21 | 9917 | 20662
3 | 4:35.38 | 2:40.36 | 20663 | 32698
4 | 7:15.74 | 2:36.30 | 32699 | 44428
5 | 9:52.29 | 3:52.30 | 44429 | 61858
6 | 13:44.59 | 3:18.25 | 61859 | 76733
7 | 17:03.09 | 2:56.34 | 76734 | 89967
8 | 19:59.43 | 2:14.59 | 89968 | 100076
9 | 22:14.27 | 3:51.27 | 100077 | 117428
10 | 26:05.54 | 2:48.74 | 117429 | 130102
11 | 28:54.53 | 2:45.20 | 130103 | 142497
12 | 31:39.73 | 1:57.31 | 142498 | 151303
13 | 33:37.29 | 2:59.31 | 151304 | 164759
14 | 36:36.60 | 2:40.07 | 164760 | 176766
15 | 39:16.67 | 2:28.39 | 176767 | 187905
16 | 41:45.31 | 2:46.43 | 187906 | 200398
17 | 44:31.74 | 3:08.16 | 200399 | 214514
18 | 47:40.15 | 2:46.18 | 214515 | 226982
19 | 50:26.33 | 3:12.67 | 226983 | 241449
20 | 53:39.25 | 3:03.61 | 241450 | 255235


Характеристики диапазона извлечения и сообщения об ошибках

Выбранный диапазон

Имя файла I:\MOI_RAZDACI\Lynn.Anderson_Rose.Garden_1999\Lynn.Anderson_Rose.Garden_1999\Lynn Anderson - Rose Garden.wav

Пиковый уровень 99.8 %
Скорость извлечения 8.5 X
Качество диапазона 100.0 %
CRC теста 97414FB5
CRC копии 97414FB5
Копирование… OK

Ошибок не произошло


AccurateRip: сводка

Трек 1 отсутствует в базе данных
Трек 2 отсутствует в базе данных
Трек 3 отсутствует в базе данных
Трек 4 отсутствует в базе данных
Трек 5 отсутствует в базе данных
Трек 6 отсутствует в базе данных
Трек 7 отсутствует в базе данных
Трек 8 отсутствует в базе данных
Трек 9 отсутствует в базе данных
Трек 10 отсутствует в базе данных
Трек 11 отсутствует в базе данных
Трек 12 отсутствует в базе данных
Трек 13 отсутствует в базе данных
Трек 14 отсутствует в базе данных
Трек 15 отсутствует в базе данных
Трек 16 отсутствует в базе данных
Трек 17 отсутствует в базе данных
Трек 18 отсутствует в базе данных
Трек 19 отсутствует в базе данных
Трек 20 отсутствует в базе данных

Ни одного трека нет в базе AccurateRip

Конец отчёта

–– CUETools DB Plugin V2.1.6

[CTDB TOCID: 0sdGi1o8RwyIyJDGt8t9.VrHTuE-] found
Submit result: 0sdGi1o8RwyIyJDGt8t9.VrHTuE- has been confirmed
Track | CTDB Status
1 | (1/1) Accurately ripped
2 | (1/1) Accurately ripped
3 | (1/1) Accurately ripped
4 | (1/1) Accurately ripped
5 | (1/1) Accurately ripped
6 | (1/1) Accurately ripped
7 | (1/1) Accurately ripped
8 | (1/1) Accurately ripped
9 | (1/1) Accurately ripped
10 | (1/1) Accurately ripped
11 | (1/1) Accurately ripped
12 | (1/1) Accurately ripped
13 | (1/1) Accurately ripped
14 | (1/1) Accurately ripped
15 | (1/1) Accurately ripped
16 | (1/1) Accurately ripped
17 | (1/1) Accurately ripped
18 | (1/1) Accurately ripped
19 | (1/1) Accurately ripped
20 | (1/1) Accurately ripped


==== Контрольная сумма отчёта 93AD983F56530E9B67EA2023780F516816AA427A6C98913211CCE6B6EFE26BCF ====

foobar2000 1.2 / Dynamic Range Meter 1.1.1
log date: 2017-12-11 17:39:50

––––––––––––––––––––––––––––––––––––––––
Analyzed: Lynn Anderson / Rose Garden
––––––––––––––––––––––––––––––––––––––––

DR Peak RMS Duration Track
––––––––––––––––––––––––––––––––––––––––
DR13 -0.01 dB -15.10 dB 2:12 01-What A Man My Man Is
DR13 -0.01 dB -14.63 dB 2:23 02-Silver Threads & Golden Needles
DR12 -0.01 dB -15.46 dB 2:40 03-How Can I Unlove You
DR13 -0.01 dB -17.09 dB 2:36 04-You're My Man
DR16 -0.01 dB -20.20 dB 3:52 05-Close To You
DR14 -0.01 dB -18.32 dB 3:18 06-We've Only Just Begun
DR14 -0.01 dB -18.41 dB 2:56 07-Top Of The World
DR13 -0.01 dB -15.25 dB 2:15 08-Fool Me
DR13 -0.01 dB -18.19 dB 3:51 09-Midnight Train To Georgia
DR11 -0.01 dB -16.66 dB 2:49 10-It Must Be Love
DR13 -0.01 dB -16.34 dB 2:45 11-Listen To A Country Song
DR14 -0.01 dB -17.61 dB 1:57 12-Ride Ride Ride
DR13 -0.01 dB -17.27 dB 2:59 13-Keep Me In Mind
DR12 -0.01 dB -15.17 dB 2:40 14-You Don't Have To Say You Love Me
DR12 -0.01 dB -13.95 dB 2:29 15-Even Cowgirls Get The Blues
DR12 -0.01 dB -15.22 dB 2:47 16-I Never Loved Anyone Before
DR12 -0.01 dB -15.67 dB 3:08 17-Where's The Fire
DR13 -0.01 dB -16.37 dB 2:46 18-Rose Garden
DR11 -0.01 dB -15.05 dB 3:13 19-Cry
DR12 -0.01 dB -14.93 dB 3:04 20-Two Doors Down
––––––––––––––––––––––––––––––––––––––––

Number of tracks: 20
Official DR value: DR13

Samplerate: 44100 Hz
Channels: 2
Bits per sample: 16
Bitrate: 831 kbps
Codec: FLAC
================================================================================

Lynn Anderson - Rose Garden (1999)

Lynn Anderson - Rose Garden (1999)

All thanks to original releaser - stas64

More interesting music in My Blog