Tags
Language
Tags

VA - Movie Greats (1986) {MCA/Steve Hoffman} **[RE-UP]**

Posted By: TestTickles
VA - Movie Greats (1986) {MCA/Steve Hoffman} **[RE-UP]**

VA - Movie Greats (1986) {MCA/Steve Hoffman}
EAC Rip | FLAC with CUE and log | scans | 230 mb
MP3 CBR 320kbps | RAR | 112 mb
Genre: soundtrack, incidental, easy listening, synth pop

Movie Greats is a 1986 compilation CD of songs from soundtracks albums. Released in 1986, it is highlighted by being compiled by Steve Hoffman and remastered by Greg Fulginiti or as Hoffman said, "I gave Greg my mastered tape. So he remastered my mastering."

VA - Movie Greats (1986) {MCA/Steve Hoffman} **[RE-UP]**

01. Theme from "Jaws" (1975) composed by John Williams
02. Flying Theme from "ET The Extra-Terrestrial" (1982) composed by John Williams
03. Axel F. from "Beverly Hills Cop" (1984) composed by Harold Faltermeyer
04. Theme from "Back to the Future" (1985) composed by Alan Silvestri
05. Theme from "Somewhere in Time" (1980) composed by John Barry
06. Fletch Theme from "Fletch" (1985) composed by Harold Faltermeyer
07. The Entertainer from "The Sting" (1973) composed by Scott Joplin
08. Overture from "Jesus Christ Superstar" (1973) composed by Andrew Lloyd Webber
09. Theme from "Love Story" (1970) composed by Francis Lai
10. Theme from "The River" (1984) composed by John Williams
11. Main Title from "Out of Africa" (1985) composed by John Barry
12. Over the Moon from "ET The Extra-Terrestrial" (1982) composed by John Williams

Compiled by Steve Hoffman. Mastered By Greg Fulginiti at Artisan Sound.
Digital Transfer by Danny Hersch, JVC, Hollywood, CA.

EAC extraction logfile from 14. September 2006, 13:22 for CD
Various / Movie Greats

Used drive : LITE-ON DVDRW SOHW-1633S Adapter: 0 ID: 0
Read mode : Secure with NO C2, accurate stream, disable cache
Read offset correction : 12
Overread into Lead-In and Lead-Out : No

Used output format : Internal WAV Routines
44.100 Hz; 16 Bit; Stereo

Other options :
Fill up missing offset samples with silence : Yes
Delete leading and trailing silent blocks : No
Installed external ASPI interface


Track 1
Filename D:\FLAC\VA - Movie Greats (1986) [FLAC] {MCA, Steve Hoffman}\01 - John Williams - Main Title (From ''Jaws'').wav

Pre-gap length 0:00:02.49

Peak level 81.2 %
Track quality 99.9 %
Test CRC 2FD01CEE
Copy CRC 2FD01CEE
Copy OK

Track 2
Filename D:\FLAC\VA - Movie Greats (1986) [FLAC] {MCA, Steve Hoffman}\02 - John Williams - Flying (From ''E.T.'').wav

Pre-gap length 0:00:00.76

Peak level 71.3 %
Track quality 100.0 %
Test CRC D7C9662A
Copy CRC D7C9662A
Copy OK

Track 3
Filename D:\FLAC\VA - Movie Greats (1986) [FLAC] {MCA, Steve Hoffman}\03 - Harold Faltermeyer - Axel F (From ''Beverly Hills Cop'').wav

Pre-gap length 0:00:01.45

Peak level 77.9 %
Track quality 99.9 %
Test CRC 6CD47631
Copy CRC 6CD47631
Copy OK

Track 4
Filename D:\FLAC\VA - Movie Greats (1986) [FLAC] {MCA, Steve Hoffman}\04 - Alan Silvestri & The Outatime Orchestra - Back To The Future.wav

Pre-gap length 0:00:02.05

Peak level 77.5 %
Track quality 100.0 %
Test CRC A27EEE3F
Copy CRC A27EEE3F
Copy OK

Track 5
Filename D:\FLAC\VA - Movie Greats (1986) [FLAC] {MCA, Steve Hoffman}\05 - John Barry - Somewhere In Time.wav

Pre-gap length 0:00:01.25

Peak level 71.1 %
Track quality 100.0 %
Test CRC AF6DBB04
Copy CRC AF6DBB04
Copy OK

Track 6
Filename D:\FLAC\VA - Movie Greats (1986) [FLAC] {MCA, Steve Hoffman}\06 - Harold Faltermeyer - Fletch Theme.wav

Pre-gap length 0:00:01.89

Peak level 88.9 %
Track quality 100.0 %
Test CRC D8B8C123
Copy CRC D8B8C123
Copy OK

Track 7
Filename D:\FLAC\VA - Movie Greats (1986) [FLAC] {MCA, Steve Hoffman}\07 - Scott Joplin - The Entertainer - Orchestra Version (From ''The Sting'').wav

Pre-gap length 0:00:01.42

Peak level 77.8 %
Track quality 100.0 %
Test CRC 7FAC05D2
Copy CRC 7FAC05D2
Copy OK

Track 8
Filename D:\FLAC\VA - Movie Greats (1986) [FLAC] {MCA, Steve Hoffman}\08 - Andrew Lloyd Webber, Tim Rice - Overture (From ''Jesus Christ Superstar'').wav

Pre-gap length 0:00:01.42

Peak level 71.1 %
Track quality 100.0 %
Test CRC 1A35BCB2
Copy CRC 1A35BCB2
Copy OK

Track 9
Filename D:\FLAC\VA - Movie Greats (1986) [FLAC] {MCA, Steve Hoffman}\09 - Francis Lai - Theme From ''Love Story''.wav

Pre-gap length 0:00:02.32

Peak level 43.8 %
Track quality 100.0 %
Test CRC 1D7A1668
Copy CRC 1D7A1668
Copy OK

Track 10
Filename D:\FLAC\VA - Movie Greats (1986) [FLAC] {MCA, Steve Hoffman}\10 - John Williams - The River.wav

Pre-gap length 0:00:01.05

Peak level 62.5 %
Track quality 100.0 %
Test CRC 36C8AAA2
Copy CRC 36C8AAA2
Copy OK

Track 11
Filename D:\FLAC\VA - Movie Greats (1986) [FLAC] {MCA, Steve Hoffman}\11 - John Barry - Main Title (I Had A Farm In Africa).wav

Pre-gap length 0:00:01.22

Peak level 43.1 %
Track quality 100.0 %
Test CRC A913066A
Copy CRC A913066A
Copy OK

Track 12
Filename D:\FLAC\VA - Movie Greats (1986) [FLAC] {MCA, Steve Hoffman}\12 - John Williams - Over The Moon (From ''E.T.'').wav

Pre-gap length 0:00:01.92

Peak level 66.7 %
Track quality 100.0 %
Test CRC 22D1E98A
Copy CRC 22D1E98A
Copy OK

No errors occured


End of status report



VA - Movie Greats (1986) {MCA/Steve Hoffman} **[RE-UP]**