Tags
Language
Tags
February 2024
Su Mo Tu We Th Fr Sa
28 29 30 31 1 2 3
4 5 6 7 8 9 10
11 12 13 14 15 16 17
18 19 20 21 22 23 24
25 26 27 28 29 1 2
Attention❗ To save your time, in order to download anything on this site, you must be registered 👉 HERE. If you do not have a registration yet, it is better to do it right away. ✌

( • )( • ) ( ͡⚆ ͜ʖ ͡⚆ ) (‿ˠ‿)
SpicyMags.xyz

Mary Lou Williams - Black Christ Of The Andes (1964) {2004 Smithsonian Folkways Recordings}

Posted By: TestTickles
Mary Lou Williams - Black Christ Of The Andes (1964) {2004 Smithsonian Folkways Recordings}

Mary Lou Williams - Black Christ Of The Andes (1964) {2004 Smithsonian Folkways Recordings}
EAC Rip | FLAC with CUE and LOG | scans | 276 mb
MP3 CBR 320 kbps | RAR | 118 mb
Genre: jazz, soul jazz

Black Christ Of The Andes is a 1964 album by jazz singer Mary Lou Williams. This 2004 remaster released by Smithsonian Folkways Recordings features four bonus tracks, all originally unreleased.

01. St. Martin de Porres
02. It Ain't Necessarily So
03. The Devil
04. Miss D.D.
05. Anima Christi
06. A Grand Night for Swinging
07. My Blue Heaven
08. Dirge Blues
09. A Fungus Amungus
10. Koolbonga (Bonus Track)
11. Forty-Five Degree Angle (Bonus Track)
12. Nicole (Bonus Track)
13. Chunka Lunka (Bonus Track)
14. Praise The Lord

Exact Audio Copy V1.0 beta 3 from 29. August 2011

EAC extraction logfile from 16. September 2013, 11:20

Mary Lou Williams / Black Christ Of The Andes

Used drive : PIONEER DVD-RW DVR-218L Adapter: 0 ID: 0

Read mode : Secure
Utilize accurate stream : Yes
Defeat audio cache : Yes
Make use of C2 pointers : No

Read offset correction : 6
Overread into Lead-In and Lead-Out : No
Fill up missing offset samples with silence : Yes
Delete leading and trailing silent blocks : No
Null samples used in CRC calculations : Yes
Used interface : Installed external ASPI interface
Gap handling : Appended to previous track

Used output format : User Defined Encoder
Selected bitrate : 1024 kBit/s
Quality : High
Add ID3 tag : No
Command line compressor : C:\Program Files (x86)\Exact Audio Copy\Flac\flac.exe
Additional command line options : -8 -V -T "ARTIST=%artist%" -T "TITLE=%title%" -T "ALBUM=%albumtitle%" -T "DATE=%year%" -T "TRACKNUMBER=%tracknr%" -T "GENRE=%genre%" -T "PERFORMER=%albuminterpret%" -T "COMPOSER=%composer%" %haslyrics%–tag-from-file=LYRICS="%lyricsfile%"%haslyrics% -T "ALBUMARTIST=%albumartist%" -T "DISCNUMBER=%cdnumber%" -T "TOTALDISCS=%totalcds%" -T "TOTALTRACKS=%numtracks%" -T "COMMENT=%comment%" %source% -o %dest%

TOC of the extracted CD

Track | Start | Length | Start sector | End sector
––––––––––––––––––––––––––––-
1 | 0:02.00 | 6:36.36 | 150 | 29885
2 | 6:38.36 | 4:45.00 | 29886 | 51260
3 | 11:23.36 | 4:04.57 | 51261 | 69617
4 | 15:28.18 | 2:32.00 | 69618 | 81017
5 | 18:00.18 | 2:50.35 | 81018 | 93802
6 | 20:50.53 | 2:52.26 | 93803 | 106728
7 | 23:43.04 | 3:10.51 | 106729 | 121029
8 | 26:53.55 | 3:26.34 | 121030 | 136513
9 | 30:20.14 | 3:01.13 | 136514 | 150101
10 | 33:21.27 | 3:25.68 | 150102 | 165544
11 | 36:47.20 | 2:55.03 | 165545 | 178672
12 | 39:42.23 | 3:41.34 | 178673 | 195281
13 | 43:23.57 | 3:11.00 | 195282 | 209606
14 | 46:34.57 | 5:54.57 | 209607 | 236213

Track 1

Filename C:\cuntfist\FLAC\Mary Lou Williams - Black Christ Of The Andes (1964) [FLAC] {2004 Smithsonian Folkways Recordings}\01 - St. Martin de Porres.wav

Pre-gap length 0:00:04.00

Peak level 98.3 %
Extraction speed 2.2 X
Track quality 100.0 %
Test CRC 65898577
Copy CRC 65898577
Track not present in AccurateRip database
Copy OK

Track 2

Filename C:\cuntfist\FLAC\Mary Lou Williams - Black Christ Of The Andes (1964) [FLAC] {2004 Smithsonian Folkways Recordings}\02 - It Ain't Necessarily So.wav

Pre-gap length 0:00:04.40

Peak level 97.8 %
Extraction speed 2.2 X
Track quality 100.0 %
Test CRC D7DD99AF
Copy CRC D7DD99AF
Track not present in AccurateRip database
Copy OK

Track 3

Filename C:\cuntfist\FLAC\Mary Lou Williams - Black Christ Of The Andes (1964) [FLAC] {2004 Smithsonian Folkways Recordings}\03 - The Devil.wav

Pre-gap length 0:00:04.30

Peak level 96.2 %
Extraction speed 2.1 X
Track quality 100.0 %
Test CRC 1E8845E6
Copy CRC 1E8845E6
Accurately ripped (confidence 2) [A77C4C44] (AR v1)
Copy OK

Track 4

Filename C:\cuntfist\FLAC\Mary Lou Williams - Black Christ Of The Andes (1964) [FLAC] {2004 Smithsonian Folkways Recordings}\04 - Miss D.D..wav

Pre-gap length 0:00:04.57

Peak level 97.7 %
Extraction speed 1.9 X
Track quality 100.0 %
Test CRC C738D5E6
Copy CRC C738D5E6
Accurately ripped (confidence 2) [B997CDFF] (AR v1)
Copy OK

Track 5

Filename C:\cuntfist\FLAC\Mary Lou Williams - Black Christ Of The Andes (1964) [FLAC] {2004 Smithsonian Folkways Recordings}\05 - Anima Christi.wav

Pre-gap length 0:00:04.37

Peak level 93.9 %
Extraction speed 2.0 X
Track quality 100.0 %
Test CRC 234F58A8
Copy CRC 234F58A8
Accurately ripped (confidence 2) [FBC14AA8] (AR v1)
Copy OK

Track 6

Filename C:\cuntfist\FLAC\Mary Lou Williams - Black Christ Of The Andes (1964) [FLAC] {2004 Smithsonian Folkways Recordings}\06 - A Grand Night For Swinging.wav

Pre-gap length 0:00:04.45

Peak level 97.7 %
Extraction speed 2.0 X
Track quality 100.0 %
Test CRC 5FEBD91F
Copy CRC 5FEBD91F
Accurately ripped (confidence 2) [1865CC57] (AR v1)
Copy OK

Track 7

Filename C:\cuntfist\FLAC\Mary Lou Williams - Black Christ Of The Andes (1964) [FLAC] {2004 Smithsonian Folkways Recordings}\07 - My Blue Heaven.wav

Pre-gap length 0:00:04.64

Peak level 92.6 %
Extraction speed 2.0 X
Track quality 100.0 %
Test CRC 0EDAEDC7
Copy CRC 0EDAEDC7
Accurately ripped (confidence 2) [C0302D4E] (AR v1)
Copy OK

Track 8

Filename C:\cuntfist\FLAC\Mary Lou Williams - Black Christ Of The Andes (1964) [FLAC] {2004 Smithsonian Folkways Recordings}\08 - Dirge Blues.wav

Pre-gap length 0:00:04.97

Peak level 89.2 %
Extraction speed 1.7 X
Track quality 99.9 %
Test CRC 0B1168D6
Copy CRC 0B1168D6
Accurately ripped (confidence 2) [1985DF83] (AR v1)
Copy OK

Track 9

Filename C:\cuntfist\FLAC\Mary Lou Williams - Black Christ Of The Andes (1964) [FLAC] {2004 Smithsonian Folkways Recordings}\09 - A Fungus A Mungus.wav

Pre-gap length 0:00:05.52

Peak level 97.7 %
Extraction speed 2.0 X
Track quality 100.0 %
Test CRC 9DD49730
Copy CRC 9DD49730
Accurately ripped (confidence 2) [E42F07EA] (AR v1)
Copy OK

Track 10

Filename C:\cuntfist\FLAC\Mary Lou Williams - Black Christ Of The Andes (1964) [FLAC] {2004 Smithsonian Folkways Recordings}\10 - Koolbonga (Bonus Track).wav

Pre-gap length 0:00:04.12

Peak level 90.2 %
Extraction speed 2.0 X
Track quality 100.0 %
Test CRC 5E595C31
Copy CRC 5E595C31
Accurately ripped (confidence 2) [20330B4B] (AR v1)
Copy OK

Track 11

Filename C:\cuntfist\FLAC\Mary Lou Williams - Black Christ Of The Andes (1964) [FLAC] {2004 Smithsonian Folkways Recordings}\11 - Forty-Five Degree Angle (Bonus Track).wav

Pre-gap length 0:00:04.81

Peak level 97.7 %
Extraction speed 2.0 X
Track quality 100.0 %
Test CRC F2D5D543
Copy CRC F2D5D543
Accurately ripped (confidence 2) [C244E071] (AR v1)
Copy OK

Track 12

Filename C:\cuntfist\FLAC\Mary Lou Williams - Black Christ Of The Andes (1964) [FLAC] {2004 Smithsonian Folkways Recordings}\12 - Nicole (Bonus Track).wav

Pre-gap length 0:00:04.69

Peak level 97.7 %
Extraction speed 1.8 X
Track quality 99.9 %
Test CRC 41F1D050
Copy CRC 41F1D050
Accurately ripped (confidence 2) [B9CE86CF] (AR v1)
Copy OK

Track 13

Filename C:\cuntfist\FLAC\Mary Lou Williams - Black Christ Of The Andes (1964) [FLAC] {2004 Smithsonian Folkways Recordings}\13 - Chunk Lunka (Bonus Track).wav

Pre-gap length 0:00:04.32

Peak level 97.7 %
Extraction speed 2.0 X
Track quality 100.0 %
Test CRC 645BFA1E
Copy CRC 645BFA1E
Accurately ripped (confidence 2) [4F43CD91] (AR v1)
Copy OK

Track 14

Filename C:\cuntfist\FLAC\Mary Lou Williams - Black Christ Of The Andes (1964) [FLAC] {2004 Smithsonian Folkways Recordings}\14 - Praise The Lord.wav

Pre-gap length 0:00:04.34

Peak level 91.9 %
Extraction speed 2.2 X
Track quality 100.0 %
Test CRC 2934A192
Copy CRC 2934A192
Accurately ripped (confidence 2) [25A25AE7] (AR v1)
Copy OK

12 track(s) accurately ripped
2 track(s) not present in the AccurateRip database

Some tracks could not be verified as accurate

No errors occurred

End of status report

==== Log checksum 405DE720CEC83CF257C9B09BF23B7761721B33AE8F6ECB91DA2A77F79A61819D ====


Mary Lou Williams - Black Christ Of The Andes (1964) {2004 Smithsonian Folkways Recordings}


Thank you to the original uploader.