Tags
Language
Tags
April 2024
Su Mo Tu We Th Fr Sa
31 1 2 3 4 5 6
7 8 9 10 11 12 13
14 15 16 17 18 19 20
21 22 23 24 25 26 27
28 29 30 1 2 3 4

Madonna - The 12" Singles Collection: Vol. 1-4 (1994) {Gold Box Set}

Posted By: popsakov
Madonna - The 12" Singles Collection: Vol. 1-4 (1994) {Gold Box Set}

Madonna - The 12" Singles Collection: Vol. 1-4 (1994) {Gold Box Set}
4CD | EAC Rip | FLAC (Tracks) + Cue + m3u + Log ~ 1,91 Gb | MP3 CBR320 ~ 708 Mb
Scans Included | 04:48:21 | RAR 5% Recovery
Dance, Pop, Eurodance | Cedrem Sound Lab #SKU M-CD-12SC

Very rare UK limited edition 4CD box set (1000 copies). Four 24KT Gold Plated CD Albums with unique picture covers. Computer Enhanced/Digitally Remastered. Housed in 12" Square Gold Tin Box with 'MADONNA' (Like a prayer Logo) Embossed on the Front.

Madonna - The 12" Singles Collection: Vol. 1-4 (1994) {Gold Box Set}

***************

Track List CD1:

01. Everybody (Extended Version) [6:01]
02. Lucky Star (U.S. Remix) [7:16]
03. Holiday (Full Length Version) [6:10]
04. Borderline (U.S. Remix) [6:57]
05. Physical Attraction (Extended Version) [6:38]
06. Like A Virgin (Extended Dance Remix) [6:08]
07. Material Girl (Jellybean Dance Remix) [6:12]
08. Into The Groove (Extended Dance Remix) [4:39]
09. Angel (Extended Dance Remix) [6:08]
10. Burning Up (Extended Version) [5:53]
11. Gambler (Extended Dance Remix) [5:35]
12. Dress You Up (The 12' Formal Mix) [6:17]

Exact Audio Copy V1.3 from 2. September 2016

EAC extraction logfile from 16. December 2018, 18:27

Madonna / The 12'' Singles Collection (Vol. 1)

Used drive : HL-DT-STDVDRAM GP65NS60 Adapter: 1 ID: 1

Read mode : Secure
Utilize accurate stream : Yes
Defeat audio cache : Yes
Make use of C2 pointers : No

Read offset correction : 6
Overread into Lead-In and Lead-Out : No
Fill up missing offset samples with silence : Yes
Delete leading and trailing silent blocks : No
Null samples used in CRC calculations : Yes
Used interface : Native Win32 interface for Win NT & 2000
Gap handling : Appended to previous track

Used output format : User Defined Encoder
Selected bitrate : 1024 kBit/s
Quality : High
Add ID3 tag : No
Command line compressor : C:\Program Files (x86)\Exact Audio Copy\FLAC\FLAC.EXE
Additional command line options : -8 -V -T "ARTIST=%artist%" -T "TITLE=%title%" -T "ALBUM=%albumtitle%" -T "DATE=%year%" -T "TRACKNUMBER=%tracknr%" -T "GENRE=%genre%" -T "PERFORMER=%albuminterpret%" -T "COMPOSER=%composer%" %haslyrics%–tag-from-file=LYRICS="%lyricsfile%"%haslyrics% -T "ALBUMARTIST=%albumartist%" -T "DISCNUMBER=%cdnumber%" -T "TOTALDISCS=%totalcds%" -T "TOTALTRACKS=%numtracks%" -T "COMMENT=%comment%" %source% -o %dest%


TOC of the extracted CD

Track | Start | Length | Start sector | End sector
––––––––––––––––––––––––––––-
1 | 0:00.00 | 6:00.15 | 0 | 27014
2 | 6:00.15 | 7:15.42 | 27015 | 59681
3 | 13:15.57 | 6:09.08 | 59682 | 87364
4 | 19:24.65 | 6:56.55 | 87365 | 118619
5 | 26:21.45 | 6:37.12 | 118620 | 148406
6 | 32:58.57 | 6:07.68 | 148407 | 175999
7 | 39:06.50 | 6:11.72 | 176000 | 203896
8 | 45:18.47 | 4:38.68 | 203897 | 224814
9 | 49:57.40 | 6:07.10 | 224815 | 252349
10 | 56:04.50 | 5:52.60 | 252350 | 278809
11 | 61:57.35 | 5:34.15 | 278810 | 303874
12 | 67:31.50 | 6:16.47 | 303875 | 332121


Track 1

Filename G:\(qmaketorrent)\Madonna - The 12'' Singles Collection (Vol. 1) [1994] [FLAC] {CD-101}\01 - Everybody.wav

Pre-gap length 0:00:02.00

Peak level 87.4 %
Extraction speed 1.2 X
Track quality 99.9 %
Test CRC B5BB175C
Copy CRC B5BB175C
Cannot be verified as accurate (confidence 1) [B7D0EB6C], AccurateRip returned [523F3CEF] (AR v2)
Copy OK

Track 2

Filename G:\(qmaketorrent)\Madonna - The 12'' Singles Collection (Vol. 1) [1994] [FLAC] {CD-101}\02 - Lucky Star.wav

Peak level 84.4 %
Extraction speed 1.5 X
Track quality 99.9 %
Test CRC AC72EB11
Copy CRC AC72EB11
Cannot be verified as accurate (confidence 1) [3815A7C5], AccurateRip returned [43350210] (AR v2)
Copy OK

Track 3

Filename G:\(qmaketorrent)\Madonna - The 12'' Singles Collection (Vol. 1) [1994] [FLAC] {CD-101}\03 - Holiday.wav

Peak level 76.3 %
Extraction speed 1.8 X
Track quality 100.0 %
Test CRC C928C16A
Copy CRC C928C16A
Cannot be verified as accurate (confidence 1) [225F6FC3], AccurateRip returned [6F26938E] (AR v2)
Copy OK

Track 4

Filename G:\(qmaketorrent)\Madonna - The 12'' Singles Collection (Vol. 1) [1994] [FLAC] {CD-101}\04 - Borderline.wav

Peak level 76.7 %
Extraction speed 2.0 X
Track quality 100.0 %
Test CRC D44E1262
Copy CRC D44E1262
Cannot be verified as accurate (confidence 1) [524F4162], AccurateRip returned [AA43A759] (AR v2)
Copy OK

Track 5

Filename G:\(qmaketorrent)\Madonna - The 12'' Singles Collection (Vol. 1) [1994] [FLAC] {CD-101}\05 - Physical Attraction.wav

Peak level 97.6 %
Extraction speed 2.1 X
Track quality 100.0 %
Test CRC 79FE7624
Copy CRC 79FE7624
Cannot be verified as accurate (confidence 1) [FF759C32], AccurateRip returned [0F967214] (AR v2)
Copy OK

Track 6

Filename G:\(qmaketorrent)\Madonna - The 12'' Singles Collection (Vol. 1) [1994] [FLAC] {CD-101}\06 - Like A Virgin.wav

Peak level 83.2 %
Extraction speed 2.2 X
Track quality 100.0 %
Test CRC B2A9077E
Copy CRC B2A9077E
Cannot be verified as accurate (confidence 1) [92540BF4], AccurateRip returned [B9987839] (AR v2)
Copy OK

Track 7

Filename G:\(qmaketorrent)\Madonna - The 12'' Singles Collection (Vol. 1) [1994] [FLAC] {CD-101}\07 - Material Girl.wav

Peak level 78.2 %
Extraction speed 2.4 X
Track quality 100.0 %
Test CRC 969E1063
Copy CRC 969E1063
Cannot be verified as accurate (confidence 1) [6F8A75E0], AccurateRip returned [89FDB941] (AR v2)
Copy OK

Track 8

Filename G:\(qmaketorrent)\Madonna - The 12'' Singles Collection (Vol. 1) [1994] [FLAC] {CD-101}\08 - Into The Groove.wav

Peak level 80.6 %
Extraction speed 2.4 X
Track quality 100.0 %
Test CRC 60791098
Copy CRC 60791098
Cannot be verified as accurate (confidence 1) [7FD21C0D], AccurateRip returned [DF06CDA7] (AR v2)
Copy OK

Track 9

Filename G:\(qmaketorrent)\Madonna - The 12'' Singles Collection (Vol. 1) [1994] [FLAC] {CD-101}\09 - Angel.wav

Peak level 84.5 %
Extraction speed 2.5 X
Track quality 100.0 %
Test CRC 83C4D06A
Copy CRC 83C4D06A
Cannot be verified as accurate (confidence 1) [0FA14BF6], AccurateRip returned [343C4D2B] (AR v2)
Copy OK

Track 10

Filename G:\(qmaketorrent)\Madonna - The 12'' Singles Collection (Vol. 1) [1994] [FLAC] {CD-101}\10 - Burning Up.wav

Peak level 86.6 %
Extraction speed 2.6 X
Track quality 100.0 %
Test CRC F5FBE45C
Copy CRC F5FBE45C
Cannot be verified as accurate (confidence 1) [763FA148], AccurateRip returned [E3DEACC2] (AR v2)
Copy OK

Track 11

Filename G:\(qmaketorrent)\Madonna - The 12'' Singles Collection (Vol. 1) [1994] [FLAC] {CD-101}\11 - Gambler.wav

Peak level 75.8 %
Extraction speed 2.7 X
Track quality 100.0 %
Test CRC 1202CD3A
Copy CRC 1202CD3A
Cannot be verified as accurate (confidence 1) [A960D1DF], AccurateRip returned [ED28EAE4] (AR v2)
Copy OK

Track 12

Filename G:\(qmaketorrent)\Madonna - The 12'' Singles Collection (Vol. 1) [1994] [FLAC] {CD-101}\12 - Dress You Up.wav

Peak level 80.4 %
Extraction speed 2.8 X
Track quality 100.0 %
Test CRC A226D930
Copy CRC A226D930
Cannot be verified as accurate (confidence 1) [B7721F36], AccurateRip returned [2F1CB9A3] (AR v2)
Copy OK


No tracks could be verified as accurate
You may have a different pressing from the one(s) in the database

No errors occurred

End of status report

–– CUETools DB Plugin V2.1.6

[CTDB TOCID: 27ypeD1qNxUSeAzDES6eRM9i.po-] disk not present in database
Submit result: 27ypeD1qNxUSeAzDES6eRM9i.po- has been uploaded


==== Log checksum 0E9C246C3B23F748F370096CEC6DEFB997EA9252509341EAF5FC5C7C7A2867E2 ====

Track List CD2:

01. Papa Don't Preach (Extended Remix) [5:45]
02. True Blue (The Color Mix) [6:38]
03. Open Your Heart (Extended Version) [10:39]
04. La Isla Bonita (Extended Remix) [5:26]
05. Who's That Girl (Extended Version) [6:24]
06. Causing A Commotion (Silver Screen Mix) [6:40]
07. Like A Prayer (12' Extended Remix) [7:24]
08. Express Yourself (Non-Stop Express Remix) [8:01]
09. Cherish (Extended Version) [6:19]
10. Vogue (12' Version) [8:26]

Exact Audio Copy V1.3 from 2. September 2016

EAC extraction logfile from 16. December 2018, 18:27

Madonna / The 12'' Singles Collection (Vol. 2)

Used drive : HL-DT-STDVDRAM GP50NB40 Adapter: 1 ID: 0

Read mode : Secure
Utilize accurate stream : Yes
Defeat audio cache : Yes
Make use of C2 pointers : No

Read offset correction : 6
Overread into Lead-In and Lead-Out : No
Fill up missing offset samples with silence : Yes
Delete leading and trailing silent blocks : No
Null samples used in CRC calculations : Yes
Used interface : Native Win32 interface for Win NT & 2000
Gap handling : Appended to previous track

Used output format : User Defined Encoder
Selected bitrate : 1024 kBit/s
Quality : High
Add ID3 tag : No
Command line compressor : C:\Program Files (x86)\Exact Audio Copy\FLAC\FLAC.EXE
Additional command line options : -8 -V -T "ARTIST=%artist%" -T "TITLE=%title%" -T "ALBUM=%albumtitle%" -T "DATE=%year%" -T "TRACKNUMBER=%tracknr%" -T "GENRE=%genre%" -T "PERFORMER=%albuminterpret%" -T "COMPOSER=%composer%" %haslyrics%–tag-from-file=LYRICS="%lyricsfile%"%haslyrics% -T "ALBUMARTIST=%albumartist%" -T "DISCNUMBER=%cdnumber%" -T "TOTALDISCS=%totalcds%" -T "TOTALTRACKS=%numtracks%" -T "COMMENT=%comment%" %source% -o %dest%


TOC of the extracted CD

Track | Start | Length | Start sector | End sector
––––––––––––––––––––––––––––-
1 | 0:00.00 | 5:45.00 | 0 | 25874
2 | 5:45.00 | 6:38.00 | 25875 | 55724
3 | 12:23.00 | 10:38.25 | 55725 | 103599
4 | 23:01.25 | 5:25.12 | 103600 | 127986
5 | 28:26.37 | 6:23.13 | 127987 | 156724
6 | 34:49.50 | 6:39.07 | 156725 | 186656
7 | 41:28.57 | 7:23.68 | 186657 | 219949
8 | 48:52.50 | 8:00.30 | 219950 | 255979
9 | 56:53.05 | 6:18.52 | 255980 | 284381
10 | 63:11.57 | 8:25.18 | 284382 | 322274


Track 1

Filename G:\(qmaketorrent)\Madonna - The 12'' Singles Collection (Vol. 2) [1994] [FLAC] {CD-102}\01 - Papa Don't Preach.wav

Pre-gap length 0:00:02.00

Peak level 94.5 %
Extraction speed 1.3 X
Track quality 100.0 %
Test CRC B4284B10
Copy CRC B4284B10
Cannot be verified as accurate (confidence 1) [65D92CA4], AccurateRip returned [4851A110] (AR v2)
Copy OK

Track 2

Filename G:\(qmaketorrent)\Madonna - The 12'' Singles Collection (Vol. 2) [1994] [FLAC] {CD-102}\02 - True Blue.wav

Peak level 90.4 %
Extraction speed 1.5 X
Track quality 100.0 %
Test CRC EBAC6372
Copy CRC EBAC6372
Cannot be verified as accurate (confidence 1) [8FB5D671], AccurateRip returned [08A44B56] (AR v2)
Copy OK

Track 3

Filename G:\(qmaketorrent)\Madonna - The 12'' Singles Collection (Vol. 2) [1994] [FLAC] {CD-102}\03 - Open Your Heart.wav

Peak level 76.4 %
Extraction speed 1.8 X
Track quality 100.0 %
Test CRC 63228CCE
Copy CRC 63228CCE
Cannot be verified as accurate (confidence 1) [2470CC5A], AccurateRip returned [2172C102] (AR v2)
Copy OK

Track 4

Filename G:\(qmaketorrent)\Madonna - The 12'' Singles Collection (Vol. 2) [1994] [FLAC] {CD-102}\04 - La Isla Bonita.wav

Peak level 87.2 %
Extraction speed 1.9 X
Track quality 100.0 %
Test CRC E6933D09
Copy CRC E6933D09
Cannot be verified as accurate (confidence 1) [1692A60C], AccurateRip returned [C865D58A] (AR v2)
Copy OK

Track 5

Filename G:\(qmaketorrent)\Madonna - The 12'' Singles Collection (Vol. 2) [1994] [FLAC] {CD-102}\05 - Who's That Girl.wav

Peak level 95.5 %
Extraction speed 2.1 X
Track quality 100.0 %
Test CRC E2F9E7A4
Copy CRC E2F9E7A4
Cannot be verified as accurate (confidence 1) [A494EDA3], AccurateRip returned [8FDECB9B] (AR v2)
Copy OK

Track 6

Filename G:\(qmaketorrent)\Madonna - The 12'' Singles Collection (Vol. 2) [1994] [FLAC] {CD-102}\06 - Causing A Commotion.wav

Peak level 96.6 %
Extraction speed 2.2 X
Track quality 100.0 %
Test CRC 2A0582EB
Copy CRC 2A0582EB
Cannot be verified as accurate (confidence 1) [1765233C], AccurateRip returned [5FC032ED] (AR v2)
Copy OK

Track 7

Filename G:\(qmaketorrent)\Madonna - The 12'' Singles Collection (Vol. 2) [1994] [FLAC] {CD-102}\07 - Like A Prayer.wav

Peak level 88.0 %
Extraction speed 2.2 X
Track quality 99.9 %
Test CRC 0B3DA5FE
Copy CRC 0B3DA5FE
Cannot be verified as accurate (confidence 1) [34D10769], AccurateRip returned [8DA620B5] (AR v2)
Copy OK

Track 8

Filename G:\(qmaketorrent)\Madonna - The 12'' Singles Collection (Vol. 2) [1994] [FLAC] {CD-102}\08 - Express Yourself.wav

Peak level 98.7 %
Extraction speed 2.4 X
Track quality 99.9 %
Test CRC E21D1032
Copy CRC E21D1032
Cannot be verified as accurate (confidence 1) [2869643B], AccurateRip returned [86CFD099] (AR v2)
Copy OK

Track 9

Filename G:\(qmaketorrent)\Madonna - The 12'' Singles Collection (Vol. 2) [1994] [FLAC] {CD-102}\09 - Cherish.wav

Peak level 95.7 %
Extraction speed 2.6 X
Track quality 100.0 %
Test CRC DCBC19CE
Copy CRC DCBC19CE
Cannot be verified as accurate (confidence 1) [B0E3B464], AccurateRip returned [D1E571BE] (AR v2)
Copy OK

Track 10

Filename G:\(qmaketorrent)\Madonna - The 12'' Singles Collection (Vol. 2) [1994] [FLAC] {CD-102}\10 - Vogue.wav

Peak level 92.1 %
Extraction speed 2.8 X
Track quality 100.0 %
Test CRC 04B3012E
Copy CRC 04B3012E
Cannot be verified as accurate (confidence 1) [58660A50], AccurateRip returned [1C411BCF] (AR v2)
Copy OK


No tracks could be verified as accurate
You may have a different pressing from the one(s) in the database

No errors occurred

End of status report

–– CUETools DB Plugin V2.1.6

[CTDB TOCID: vb0WWBhYuqfrx6fIDnHPK9STO20-] disk not present in database
Submit result: vb0WWBhYuqfrx6fIDnHPK9STO20- has been uploaded


==== Log checksum 04FC8DE7789946CFAE87C47D6564A1303294F85ED6ADA9D8A90EF458A31E8019 ====

Track List CD3:

01. Keep It Together (12' Extended Mix) [7:20]
02. Hanky Panky (Bare Bottom 12' Mix) [6:35]
03. Justify My Love (William Orbit Remix) [7:18]
04. Rescue Me (Titanic Vocal) [8:18]
05. This Used To Be My Playground (Long Version) [6:06]
06. Erotica (Kenlou B-Boy Mix) [6:27]
07. Deeper And Deeper (Shep's Classic 12' Mix) [7:27]
08. Bad Girl (Extended 12') [6:30]
09. Fever (Extended 12') [6:09]
10. Bye Bye Baby (Madonna's Night On The Club) [5:20]
11. I'll Remember (Orbit Remix) [4:21]

Exact Audio Copy V1.3 from 2. September 2016

EAC extraction logfile from 16. December 2018, 20:20

Madonna / The 12'' Singles Collection (Vol. 3)

Used drive : HL-DT-STDVDRAM GP50NB40 Adapter: 1 ID: 0

Read mode : Secure
Utilize accurate stream : Yes
Defeat audio cache : Yes
Make use of C2 pointers : No

Read offset correction : 6
Overread into Lead-In and Lead-Out : No
Fill up missing offset samples with silence : Yes
Delete leading and trailing silent blocks : No
Null samples used in CRC calculations : Yes
Used interface : Native Win32 interface for Win NT & 2000
Gap handling : Appended to previous track

Used output format : User Defined Encoder
Selected bitrate : 1024 kBit/s
Quality : High
Add ID3 tag : No
Command line compressor : C:\Program Files (x86)\Exact Audio Copy\FLAC\FLAC.EXE
Additional command line options : -8 -V -T "ARTIST=%artist%" -T "TITLE=%title%" -T "ALBUM=%albumtitle%" -T "DATE=%year%" -T "TRACKNUMBER=%tracknr%" -T "GENRE=%genre%" -T "PERFORMER=%albuminterpret%" -T "COMPOSER=%composer%" %haslyrics%–tag-from-file=LYRICS="%lyricsfile%"%haslyrics% -T "ALBUMARTIST=%albumartist%" -T "DISCNUMBER=%cdnumber%" -T "TOTALDISCS=%totalcds%" -T "TOTALTRACKS=%numtracks%" -T "COMMENT=%comment%" %source% -o %dest%


TOC of the extracted CD

Track | Start | Length | Start sector | End sector
––––––––––––––––––––––––––––-
1 | 0:00.00 | 7:19.52 | 0 | 32976
2 | 7:19.52 | 6:34.23 | 32977 | 62549
3 | 13:54.00 | 7:17.55 | 62550 | 95379
4 | 21:11.55 | 8:17.22 | 95380 | 132676
5 | 29:29.02 | 6:05.23 | 132677 | 160074
6 | 35:34.25 | 6:26.15 | 160075 | 189039
7 | 42:00.40 | 7:26.60 | 189040 | 222549
8 | 49:27.25 | 6:29.37 | 222550 | 251761
9 | 55:56.62 | 6:08.13 | 251762 | 279374
10 | 62:05.00 | 5:19.50 | 279375 | 303349
11 | 67:24.50 | 4:20.25 | 303350 | 322874


Track 1

Filename G:\(qmaketorrent)\Madonna - The 12'' Singles Collection (Vol. 3) [1994] [FLAC] {CD-103}\01 - Keep It Together.wav

Pre-gap length 0:00:02.00

Peak level 91.1 %
Extraction speed 1.4 X
Track quality 100.0 %
Test CRC C1AB8E7A
Copy CRC C1AB8E7A
Cannot be verified as accurate (confidence 1) [59675E14], AccurateRip returned [E7DEF9A1] (AR v2)
Copy OK

Track 2

Filename G:\(qmaketorrent)\Madonna - The 12'' Singles Collection (Vol. 3) [1994] [FLAC] {CD-103}\02 - Hanky Panky.wav

Peak level 77.1 %
Extraction speed 1.6 X
Track quality 100.0 %
Test CRC 5D9FCC66
Copy CRC 5D9FCC66
Cannot be verified as accurate (confidence 1) [3B6E0E95], AccurateRip returned [28FA75DE] (AR v2)
Copy OK

Track 3

Filename G:\(qmaketorrent)\Madonna - The 12'' Singles Collection (Vol. 3) [1994] [FLAC] {CD-103}\03 - Justify My Love.wav

Peak level 89.6 %
Extraction speed 1.8 X
Track quality 100.0 %
Test CRC 4AFE8629
Copy CRC 4AFE8629
Cannot be verified as accurate (confidence 1) [F3686BA1], AccurateRip returned [C978012C] (AR v2)
Copy OK

Track 4

Filename G:\(qmaketorrent)\Madonna - The 12'' Singles Collection (Vol. 3) [1994] [FLAC] {CD-103}\04 - Rescue Me.wav

Peak level 76.0 %
Extraction speed 2.0 X
Track quality 100.0 %
Test CRC 8858413C
Copy CRC 8858413C
Cannot be verified as accurate (confidence 1) [71055533], AccurateRip returned [F7488B7F] (AR v2)
Copy OK

Track 5

Filename G:\(qmaketorrent)\Madonna - The 12'' Singles Collection (Vol. 3) [1994] [FLAC] {CD-103}\05 - This Used To Be My Playground.wav

Peak level 81.1 %
Extraction speed 2.1 X
Track quality 100.0 %
Test CRC CE96A8D3
Copy CRC CE96A8D3
Cannot be verified as accurate (confidence 1) [A4AFDB54], AccurateRip returned [E636C2DF] (AR v2)
Copy OK

Track 6

Filename G:\(qmaketorrent)\Madonna - The 12'' Singles Collection (Vol. 3) [1994] [FLAC] {CD-103}\06 - Erotica.wav

Peak level 78.8 %
Extraction speed 2.3 X
Track quality 100.0 %
Test CRC 7F93D687
Copy CRC 7F93D687
Cannot be verified as accurate (confidence 1) [ADD8CBAC], AccurateRip returned [6EB64655] (AR v2)
Copy OK

Track 7

Filename G:\(qmaketorrent)\Madonna - The 12'' Singles Collection (Vol. 3) [1994] [FLAC] {CD-103}\07 - Deep And Deeper.wav

Peak level 80.4 %
Extraction speed 2.4 X
Track quality 100.0 %
Test CRC BEE1539A
Copy CRC BEE1539A
Cannot be verified as accurate (confidence 1) [A34B7BF4], AccurateRip returned [6F867579] (AR v2)
Copy OK

Track 8

Filename G:\(qmaketorrent)\Madonna - The 12'' Singles Collection (Vol. 3) [1994] [FLAC] {CD-103}\08 - Bad Girl.wav

Peak level 75.5 %
Extraction speed 2.5 X
Track quality 100.0 %
Test CRC 9BF20948
Copy CRC 9BF20948
Cannot be verified as accurate (confidence 1) [3386AC4F], AccurateRip returned [E1FC3F42] (AR v2)
Copy OK

Track 9

Filename G:\(qmaketorrent)\Madonna - The 12'' Singles Collection (Vol. 3) [1994] [FLAC] {CD-103}\09 - Fever.wav

Peak level 73.8 %
Extraction speed 2.4 X
Track quality 99.9 %
Test CRC 45133761
Copy CRC 45133761
Cannot be verified as accurate (confidence 1) [4E51A59A], AccurateRip returned [C5ACDA17] (AR v2)
Copy OK

Track 10

Filename G:\(qmaketorrent)\Madonna - The 12'' Singles Collection (Vol. 3) [1994] [FLAC] {CD-103}\10 - Bye Bye Baby.wav

Peak level 76.3 %
Extraction speed 2.4 X
Track quality 99.9 %
Test CRC 5B04F659
Copy CRC 5B04F659
Cannot be verified as accurate (confidence 1) [0662E1A1], AccurateRip returned [322B1433] (AR v2)
Copy OK

Track 11

Filename G:\(qmaketorrent)\Madonna - The 12'' Singles Collection (Vol. 3) [1994] [FLAC] {CD-103}\11 - I'll Remember.wav

Peak level 88.7 %
Extraction speed 2.6 X
Track quality 100.0 %
Test CRC E00CFD80
Copy CRC E00CFD80
Cannot be verified as accurate (confidence 1) [55D4BB19], AccurateRip returned [00EE04CB] (AR v2)
Copy OK


No tracks could be verified as accurate
You may have a different pressing from the one(s) in the database

No errors occurred

End of status report

–– CUETools DB Plugin V2.1.6

[CTDB TOCID: 0h.9_Jv2zuP0EsCjcY7NVx2CYYE-] disk not present in database
Submit result: 0h.9_Jv2zuP0EsCjcY7NVx2CYYE- has been uploaded


==== Log checksum E7A4F5FC7DA5BE980A75541FE870BEF866C9180CEBAD1211FA2892E3E7FDA6E5 ====

Track List CD4:

01. Holiday Mix (On-U Sound Mix) [8:42]
02. Classic Heaven Mix (Heaven Records Medley) [10:44]
03. Golden Girl Mix (On-U Sound Medley) [12:04]
04. The Madonna Medley (Ultimix Medley) [14:16]
05. The Erotic Mix (Funky-Mix DJ Service Medley) [25:27]

Exact Audio Copy V1.3 from 2. September 2016

EAC extraction logfile from 16. December 2018, 20:20

Madonna / The 12'' Singles Collection (Vol. 4)

Used drive : HL-DT-STDVDRAM GP65NS60 Adapter: 1 ID: 1

Read mode : Secure
Utilize accurate stream : Yes
Defeat audio cache : Yes
Make use of C2 pointers : No

Read offset correction : 6
Overread into Lead-In and Lead-Out : No
Fill up missing offset samples with silence : Yes
Delete leading and trailing silent blocks : No
Null samples used in CRC calculations : Yes
Used interface : Native Win32 interface for Win NT & 2000
Gap handling : Appended to previous track

Used output format : User Defined Encoder
Selected bitrate : 1024 kBit/s
Quality : High
Add ID3 tag : No
Command line compressor : C:\Program Files (x86)\Exact Audio Copy\FLAC\FLAC.EXE
Additional command line options : -8 -V -T "ARTIST=%artist%" -T "TITLE=%title%" -T "ALBUM=%albumtitle%" -T "DATE=%year%" -T "TRACKNUMBER=%tracknr%" -T "GENRE=%genre%" -T "PERFORMER=%albuminterpret%" -T "COMPOSER=%composer%" %haslyrics%–tag-from-file=LYRICS="%lyricsfile%"%haslyrics% -T "ALBUMARTIST=%albumartist%" -T "DISCNUMBER=%cdnumber%" -T "TOTALDISCS=%totalcds%" -T "TOTALTRACKS=%numtracks%" -T "COMMENT=%comment%" %source% -o %dest%


TOC of the extracted CD

Track | Start | Length | Start sector | End sector
––––––––––––––––––––––––––––-
1 | 0:00.00 | 8:41.25 | 0 | 39099
2 | 8:41.25 | 10:43.25 | 39100 | 87349
3 | 19:24.50 | 12:03.12 | 87350 | 141586
4 | 31:27.62 | 14:15.13 | 141587 | 205724
5 | 45:43.00 | 25:27.00 | 205725 | 320249


Track 1

Filename G:\(qmaketorrent)\Madonna - The 12'' Singles Collection (Vol. 4) [1994] [FLAC] {CD-104}\01 - Holiday Mix.wav

Pre-gap length 0:00:02.00

Peak level 63.1 %
Extraction speed 1.4 X
Track quality 100.0 %
Test CRC 614E7E0D
Copy CRC 614E7E0D
Cannot be verified as accurate (confidence 1) [740DAE03], AccurateRip returned [D98DF36C] (AR v2)
Copy OK

Track 2

Filename G:\(qmaketorrent)\Madonna - The 12'' Singles Collection (Vol. 4) [1994] [FLAC] {CD-104}\02 - Classic Heaven Mix.wav

Peak level 74.5 %
Extraction speed 1.7 X
Track quality 100.0 %
Test CRC E02536D7
Copy CRC E02536D7
Cannot be verified as accurate (confidence 1) [0A44A872], AccurateRip returned [C6200DA4] (AR v2)
Copy OK

Track 3

Filename G:\(qmaketorrent)\Madonna - The 12'' Singles Collection (Vol. 4) [1994] [FLAC] {CD-104}\03 - Golden Girl Mix.wav

Peak level 71.4 %
Extraction speed 2.0 X
Track quality 100.0 %
Test CRC 975D36F4
Copy CRC 975D36F4
Cannot be verified as accurate (confidence 1) [A965F1E9], AccurateRip returned [27C7B60C] (AR v2)
Copy OK

Track 4

Filename G:\(qmaketorrent)\Madonna - The 12'' Singles Collection (Vol. 4) [1994] [FLAC] {CD-104}\04 - The Madonna Medley.wav

Peak level 77.7 %
Extraction speed 2.4 X
Track quality 100.0 %
Test CRC 40A922BC
Copy CRC 40A922BC
Cannot be verified as accurate (confidence 1) [5BB71EB7], AccurateRip returned [499BC4CF] (AR v2)
Copy OK

Track 5

Filename G:\(qmaketorrent)\Madonna - The 12'' Singles Collection (Vol. 4) [1994] [FLAC] {CD-104}\05 - The Erotic Mix.wav

Peak level 91.2 %
Extraction speed 2.8 X
Track quality 100.0 %
Test CRC F6FB1019
Copy CRC F6FB1019
Cannot be verified as accurate (confidence 1) [4FD147A5], AccurateRip returned [C0BAD052] (AR v2)
Copy OK


No tracks could be verified as accurate
You may have a different pressing from the one(s) in the database

No errors occurred

End of status report

–– CUETools DB Plugin V2.1.6

[CTDB TOCID: PfckNeEG82ZD_slNP7dya6i33Hs-] found
Submit result: PfckNeEG82ZD_slNP7dya6i33Hs- has been uploaded
Track | CTDB Status
1 | (1/1) Accurately ripped
2 | (1/1) Accurately ripped
3 | (1/1) Accurately ripped
4 | (1/1) Accurately ripped
5 | (1/1) Differs in 412 samples @20:33:41,20:57:21,21:04:70
If you are sure that your rip contains errors, you can use CUETools to repair it.


==== Log checksum A9E66849C0D671869B817A09CAB4085922103A5FFF219FA24667C98752DC8AC3 ====

All thanks go to the original ripper(s) …

>>> Madonna in my Blog <<<

DOWNLOAD: