Subcategories
Tags
Language
Tags

Magic Slim And The Teardrops - Scufflin' (1996) [Re-Up]

Posted By: Designol
Magic Slim And The Teardrops - Scufflin' (1996) [Re-Up]

Magic Slim And The Teardrops - Scufflin' (1996)
EAC | FLAC | Image (Cue&Log) ~ 286 Mb | Mp3 (CBR320) ~ 100 Mb | Scans included
Modern Electric Blues, Chicago Blues | Label: Blind Pig | # BPCD5036 | 00:40:53

One of the more imposing figures on modern blues scene, guitarist-singer Magic Slim serves up raw, passionate Chicago-style blues with his band The Teardrops on Scufflin’ (Blind Pig 5036; 40:53). Raucous, good-time romps like “Hole In The Wall,” Jimmy Reed’s “Down In Virginia” and Slim’s shuffle “Just Before You Go” sound like just another Saturday night at Florence’s on the South Side. And Slim imbues each tune with nasty licks from his trusty Fender Jazzmaster. Sloppy but powerfully intense, like the spirits of Albert King and Hound Dog Taylor mingling at a juke joint jam.

Review by Bill Milkowski, JazzTimes.com

Magic Slim at Allmusic
Magic Slim at Wiki

Tracklist:

01. Think (3:28)
02. Hole In The Wall (2:40)
03. Scufflin' (2:46)
04. Down In Virginia (3:33)
05. I'm Not The Same Person (4:06)
06. Just Before You Go (3:17)
07. I'm Gonna Send You Back To Georgia (2:44)
08. Room 109 (2:41)
09. I Need Lovin' (3:47)
10. I'm Gonna Get You Babe (3:43)
11. Lookin' For A Lover (5:17)
12. Can't Get No Grindin' (2:51)


Exact Audio Copy V0.99 prebeta 4 from 23. January 2008

Отчёт EAC об извлечении, выполненном 5. декабря 2008, 23:43

Magic Slim and the Teardrops / Scufflin'

Дисковод: HL-DT-STRW/DVD GCC-4522B Adapter: 1 ID: 1

Режим чтения : Достоверность
Использование точного потока : Да
Отключение кэша аудио : Да
Использование указателей C2 : Нет

Коррекция смещения при чтении : 6
Способность читать области Lead-in и Lead-out : Нет
Заполнение пропущенных сэмплов тишиной : Да
Удаление блоков с тишиной в начале и конце : Нет
При вычислениях CRC использовались нулевые сэмплы : Да
Интерфейс : Установленный внешний ASPI-интерфейс

Выходной формат : Пользовательский кодировщик
Выбранный битрейт : 640 kBit/s
Качество : Высокий
Добавление ID3-тэга : Нет
Утилита сжатия : C:\Downloads\Программы\flac-1.1.1-win\bin\flac.exe
Дополнительные параметры : -V -8 -T "artist=%a" -T "title=%t" -T "album=%g" -T "date=%y" -T "tracknumber=%n" -T "genre=%m" %s


TOC извлечённого CD

Трек | Старт | Длительность | Начальный сектор | Конечный сектор
––––––––––––––––––––––––––––––––––-
1 | 0:00.00 | 3:28.37 | 0 | 15636
2 | 3:28.37 | 2:40.30 | 15637 | 27666
3 | 6:08.67 | 2:45.60 | 27667 | 40101
4 | 8:54.52 | 3:33.13 | 40102 | 56089
5 | 12:27.65 | 4:06.27 | 56090 | 74566
6 | 16:34.17 | 3:16.55 | 74567 | 89321
7 | 19:50.72 | 2:44.15 | 89322 | 101636
8 | 22:35.12 | 2:40.43 | 101637 | 113679
9 | 25:15.55 | 3:47.25 | 113680 | 130729
10 | 29:03.05 | 3:42.50 | 130730 | 147429
11 | 32:45.55 | 5:17.10 | 147430 | 171214
12 | 38:02.65 | 2:50.40 | 171215 | 184004


Характеристики диапазона извлечения и сообщения об ошибках

Выбранный диапазон

Имя файла J:\Новая папка\Rip\Magic Slim and the Teardrops - Scufflin'.wav

Пиковый уровень 100.0 %
Качество диапазона 100.0 %
CRC теста 73B34D2A
CRC копии 73B34D2A
Копирование… OK

Ошибок не произошло


AccurateRip: сводка

Трек 1 точность не определена (достоверность 3) [C31F960C], AccurateRip вернул [5787BBEE]
Трек 2 точность не определена (достоверность 3) [AA719647], AccurateRip вернул [CD03B3FC]
Трек 3 точность не определена (достоверность 3) [4751B686], AccurateRip вернул [E8985E59]
Трек 4 точность не определена (достоверность 3) [14CE0C8A], AccurateRip вернул [15C96962]
Трек 5 точность не определена (достоверность 3) [6E56E529], AccurateRip вернул [81517F17]
Трек 6 точность не определена (достоверность 3) [EE967B9A], AccurateRip вернул [05F0AB12]
Трек 7 точность не определена (достоверность 3) [5E218C2F], AccurateRip вернул [979ECD85]
Трек 8 точность не определена (достоверность 3) [710286CC], AccurateRip вернул [9F2AECBC]
Трек 9 точность не определена (достоверность 3) [7841A049], AccurateRip вернул [D506FB53]
Трек 10 точность не определена (достоверность 3) [6166D203], AccurateRip вернул [06C5157D]
Трек 11 точность не определена (достоверность 3) [A873D255], AccurateRip вернул [581B2587]
Трек 12 точность не определена (достоверность 3) [7BAD9DB9], AccurateRip вернул [FF5B7F89]

Ни один трек не прошёл проверки на точность
В вашей базе может быть иной вариант штамповки диска

Конец отчёта

[CUETools log; Date: 19.01.2018 20:40:01; Version: 2.1.4]
[CTDB TOCID: PQhj4SIH5l9eYMreyVxjEVv6jG4-] found.
Track | CTDB Status
1 | (9/9) Accurately ripped
2 | (9/9) Accurately ripped
3 | (9/9) Accurately ripped
4 | (9/9) Accurately ripped
5 | (9/9) Accurately ripped
6 | (9/9) Accurately ripped
7 | (9/9) Accurately ripped
8 | (9/9) Accurately ripped
9 | (9/9) Accurately ripped
10 | (9/9) Accurately ripped
11 | (9/9) Accurately ripped
12 | (9/9) Accurately ripped
[AccurateRip ID: 00119452-00a56681-ac09950c] found.
Track [ CRC | V2 ] Status
01 [c31f960c|71136ebf] (00+00/15) No match
02 [aa719647|ea550fd9] (00+00/16) No match
03 [4751b686|54b31281] (00+00/16) No match
04 [14ce0c8a|72ffab47] (00+00/16) No match
05 [6e56e529|f522105c] (00+00/15) No match
06 [ee967b9a|98c84f4e] (00+00/16) No match
07 [5e218c2f|3b535d6e] (00+00/16) No match
08 [710286cc|c3838907] (00+00/16) No match
09 [7841a049|f5d8cf8c] (00+00/16) No match
10 [6166d203|ee687261] (00+00/15) No match
11 [a873d255|a4fd19c4] (00+00/14) No match
12 [7bad9db9|992c5ee2] (00+00/15) No match
Offsetted by 762:
01 [5787bbee] (04/15) Accurately ripped
02 [cd03b3fc] (05/16) Accurately ripped
03 [e8985e59] (05/16) Accurately ripped
04 [15c96962] (05/16) Accurately ripped
05 [81517f17] (05/15) Accurately ripped
06 [05f0ab12] (05/16) Accurately ripped
07 [979ecd85] (05/16) Accurately ripped
08 [9f2aecbc] (05/16) Accurately ripped
09 [d506fb53] (05/16) Accurately ripped
10 [06c5157d] (04/15) Accurately ripped
11 [581b2587] (04/14) Accurately ripped
12 [ff5b7f89] (04/15) Accurately ripped
Offsetted by 98:
01 [fb2a4af6] (00/15) No match (V2 was not tested)
02 [5ba46aa3] (00/16) No match (V2 was not tested)
03 [8164e26a] (00/16) No match (V2 was not tested)
04 [3686e6c2] (00/16) No match (V2 was not tested)
05 [5f4f7b4f] (00/15) No match (V2 was not tested)
06 [0f27caf2] (00/16) No match (V2 was not tested)
07 [e4844d5d] (00/16) No match (V2 was not tested)
08 [caef887c] (00/16) No match (V2 was not tested)
09 [f919d4fb] (00/16) No match (V2 was not tested)
10 [1b49f4e5] (00/15) No match (V2 was not tested)
11 [232895cf] (00/14) No match (V2 was not tested)
12 [50d012c9] (00/15) No match (V2 was not tested)

Track Peak [ CRC32 ] [W/O NULL] [ LOG ]
– 99,9 [73B34D2A] [F5AF6BB5] CRC32
01 99,9 [5678862D] [10827C42]
02 99,8 [15A2E981] [13757CA5]
03 95,4 [8421781B] [E68F4C37]
04 95,4 [64DCB05E] [C810B323]
05 97,7 [D2E46B39] [8C3E3A49]
06 99,9 [BCC13160] [5C2E9483]
07 99,9 [52C9405F] [1EDCAA6A]
08 99,9 [6514D011] [1FE255C1]
09 99,9 [9AF2276F] [26206226]
10 99,9 [B3336712] [BBC03EB4]
11 99,9 [58DCCBDE] [5F825BFE]
12 99,9 [30FCA58D] [0872855B]

foobar2000 1.2 / Dynamic Range Meter 1.1.1
log date: 2018-01-24 01:05:58

––––––––––––––––––––––––––––––––––––––––
Analyzed: Magic Slim and the Teardrops / Scufflin'
––––––––––––––––––––––––––––––––––––––––

DR Peak RMS Duration Track
––––––––––––––––––––––––––––––––––––––––
DR9 0.00 dB -10.50 dB 3:28 01-Think
DR10 -0.02 dB -11.69 dB 2:40 02-Hole In The Wall
DR8 -0.40 dB -10.34 dB 2:46 03-Scufflin'
DR8 -0.40 dB -9.33 dB 3:33 04-Down In Virginia
DR8 -0.20 dB -10.34 dB 4:06 05-I'm Not The Same Person
DR9 0.00 dB -10.18 dB 3:17 06-Just Before You Go
DR8 0.00 dB -9.65 dB 2:44 07-I'm Gonna Send You Back To Georgia
DR8 0.00 dB -9.23 dB 2:41 08-Room 109
DR8 0.00 dB -9.52 dB 3:47 09-I Need Lovin'
DR8 0.00 dB -9.03 dB 3:43 10-I'm Gonna Get You Babe
DR10 0.00 dB -10.61 dB 5:17 11-Lookin' For A Lover
DR9 0.00 dB -10.02 dB 2:51 12-Can't Get No Grindin'
––––––––––––––––––––––––––––––––––––––––

Number of tracks: 12
Official DR value: DR9

Samplerate: 44100 Hz
Channels: 2
Bits per sample: 16
Bitrate: 957 kbps
Codec: FLAC
================================================================================

Magic Slim And The Teardrops - Scufflin' (1996) [Re-Up]

Magic Slim And The Teardrops - Scufflin' (1996) [Re-Up]

All thanks to original releaser - рмх222

More interesting music in My Blog