Tags
Language
Tags
February 2024
Su Mo Tu We Th Fr Sa
28 29 30 31 1 2 3
4 5 6 7 8 9 10
11 12 13 14 15 16 17
18 19 20 21 22 23 24
25 26 27 28 29 1 2
Attention❗ To save your time, in order to download anything on this site, you must be registered 👉 HERE. If you do not have a registration yet, it is better to do it right away. ✌

( • )( • ) ( ͡⚆ ͜ʖ ͡⚆ ) (‿ˠ‿)
SpicyMags.xyz

Magic Slim & The Teardrops - Midnight Blues (2008)

Posted By: Designol
Magic Slim & The Teardrops - Midnight Blues (2008)

Magic Slim & The Teardrops - Midnight Blues (2008)
EAC | FLAC | Image (Cue&Log) ~ 324 Mb | Mp3 (CBR320) ~ 117 Mb | Scans included
Modern Electric Blues, Chicago Blues | Label: Blind Pig | # BPCD 5125 | Time: 00:47:19

Chicago blues drips from the raw and gritty music of Magic Slim. His vocals are delivered like a champion boxer punches. His sharp, fast lead guitar notes are drenched in sweat. His rife rhythms rock like a ship that’s tossed about by a hellacious storm. His potent backing band – comprised of Jon McDonald (guitar), Danny O’Connor (bass), and David Simms (drums) – is more than capable of supporting the master. Together with Slim, they are considered to be one of the last real Chicago blues bands. Magic Slim doesn’t need to rely on guest stars in order to make a great CD. Still, eight confidant colleagues, including Otis Clay and Elvin Bishop, appear throughout the 47-minute disc. This is practically a 100% pure Chicago blues record. It was recorded in Chicago, it was produced by a Chicago blues artist, the cover photo and CD design were created by a Chicago graphic artist, most of the songs were written by Chicago artists, and the guests are all associated with Chicago.

Some of the CD’s 13 songs have been previously recorded by Slim for albums on other labels. On Midnight Blues, the songs are all-new recordings. Muddy Waters’ You Can’t Lose What You Ain’t Never Had is delivered by two artists, James Cotton and Magic Slim, who have the right to play the song. That’s because Slim is considered to be the greatest living proponent of the electrified, Mississippi-to-Chicago blues style that was first made famous by Waters (Cotton played harp in Waters’ band for 12 years). The arrangement of the timeless song is made to sound as if it came from Slim’s own songbook. Waters’ Crosseyed Cat has also been Slim-ized to the point where you won’t recognize the song. If you think Hound Dog Taylor’s version of Give Me Back My Wig rocked, you’ll love Slim’s kick-butt interpretation that features the razor-sharp guitar of Lil’ Ed Williams. Little Milton’s Lonely Man sounds like it is being performed by producer/blues artist Nick Moss because Moss would perform it himself with the same raw Chicago Blues sound that Slim helped originate. Willie Dixon’s Spider In My Stew is a signature Slim tune for me because its one of the first Slim songs I ever heard. This rendition includes a familiar-sounding guitar solo courtesy of Lonnie Brooks. A couple of songs sound a bit out of place. The country rock of Going Down The Road Feeling Bad doesn’t naturally fit into Slim’s repertoire. Still, you will find yourself singing along during the chorus. Love songs aren’t usually associated with Slim but he nails Little Milton’s Loving You Is The Best Thing That Happened To Me. It is soulful and very happy sounding courtesy of Gene Barge (tenor sax) and the steaming Chicago Rhythm & Blues Kings horn section.

Sure, many of the songs sound similar and only five were written by Slim. But I state that as an observation not as a criticism. When Chicago blues is performed this well, it should just be played over and over again. If Slim ever makes a bad record, it will be time for him to retire. Based on this fiery CD, Slim’s retirement remains light years away.

Review by Tim Holek, ChicagoBluesGuide.com

At 71, Magic Slim sounds as nasty and gritty as any bluesman you can name. He's one of the few Mississippi bluesmen who moved to Chicago in the early '50s still on the scene. His sound hasn't evolved much over the years – he still plays slide guitar without a slide, just his fingers slipping up and down the strings so he's able to bend notes while he slides – but it doesn't have to. His primal vocals, red-hot guitar work, and the supple backing of his Teardrops, Jon McDonald, guitar and vocals, Danny O'Conner, bass, and David Sims, drums, create the kind of deep bluesy feeling that can't be faked. On Midnight Blues he makes the most of every track, be it an original or a standard. He opens things with his own "Let Me Love You," a rockin' love song that showcases his stinging guitar and powerhouse vocals. Near the end of the tune he tosses off a brief, growling Howlin' Wolf imitation that'll bring a smile to you face. "Full Load Boogie" is an instrumental that moves like a freight train headed North with Slim and McDonald trading blistering solos. "Carla" is a slow drag, an ode to a faithless girlfriend, full of tortured blues notes. "What Is That You Got" is a slow, sly, sexy number with a long sultry solo, while "Cryin' Won't Let You Stay" is a rollicking goodbye song featuring Elvin Bishop on second guitar. Muddy Water's "You Can't Lose What You Ain't Never Had" is taken at a leisurely pace with James Cotton contributing one of his patented wailing solos. Slim pulls some country licks out of his bag for "Going Down That Road Feeling Bad," a folk song known by both white and black southerners. His unexpected rebel yells give the track a jaunty air. He closes the set with an R&B arrangement of Little Milton's "Loving You Is the Best Thing That Happened to Me" with a smoldering horn section and backing vocals by soul great Otis Clay.

Review by Allmusic.com

Magic Slim & The Teardrops - Midnight Blues (2008)



Tracklist:

01. Let Me Love You (3:41)
02. You Can't Lose What You Ain't Never Had (3:43)
03. Give Me Back My Wig (2:54)
04. Lonely Man (2:32)
05. Spider In My Stew (4:37)
06. Going Down The Road Feeling Bad (2:21)
07. Full Load Boogie (2:40)
08. Crosseyed Cat (4:06)
09. House Cat Blues (3:00)
10. Carla (4:34)
11. Cryin' Won't Let You Stay (3:41)
12. What Is It That You Got (5:06)
13. Loving You Is The Best Thing That Ever Happened To Me (4:24)


Exact Audio Copy V1.0 beta 6 from 9. April 2015

Отчёт EAC об извлечении, выполненном 13. января 2020, 14:08

Magic Slim and the Teardrops / Midnight Blues

Дисковод: HL-DT-STRW/DVD GCC-4522B Adapter: 1 ID: 0

Режим чтения : Достоверность
Использование точного потока : Да
Отключение кэша аудио : Да
Использование указателей C2 : Нет

Коррекция смещения при чтении : 6
Способность читать области Lead-in и Lead-out : Нет
Заполнение пропущенных сэмплов тишиной : Да
Удаление блоков с тишиной в начале и конце : Нет
При вычислениях CRC использовались нулевые сэмплы : Да
Интерфейс : Встроенный Win32-интерфейс для Win NT/2000

Выходной формат : Пользовательский кодировщик
Выбранный битрейт : 768 kBit/s
Качество : Высокий
Добавление ID3-тега : Нет
Утилита сжатия : C:\Program Files (x86)\Exact Audio Copy\FLAC\FLAC.EXE
Дополнительные параметры : -V -8 -T "Genre=%genre%" -T "Artist=%artist%" -T "Title=%title%" -T "Album=%albumtitle%" -T "Date=%year%" -T "Tracknumber=%tracknr%" -T "Comment=%comment%" %source%


TOC извлечённого CD

Трек | Старт | Длительность | Начальный сектор | Конечный сектор
––––––––––––––––––––––––––––––––––-
1 | 0:00.00 | 3:41.08 | 0 | 16582
2 | 3:41.08 | 3:43.06 | 16583 | 33313
3 | 7:24.14 | 2:54.13 | 33314 | 46376
4 | 10:18.27 | 2:31.42 | 46377 | 57743
5 | 12:49.69 | 4:36.53 | 57744 | 78496
6 | 17:26.47 | 2:20.53 | 78497 | 89049
7 | 19:47.25 | 2:40.23 | 89050 | 101072
8 | 22:27.48 | 4:06.07 | 101073 | 119529
9 | 26:33.55 | 3:00.27 | 119530 | 133056
10 | 29:34.07 | 4:33.68 | 133057 | 153599
11 | 34:08.00 | 3:40.66 | 153600 | 170165
12 | 37:48.66 | 5:06.29 | 170166 | 193144
13 | 42:55.20 | 4:23.56 | 193145 | 212925


Характеристики диапазона извлечения и сообщения об ошибках

Выбранный диапазон

Имя файла D:\pmx222\Magic Slim and the Teardrops - Midnight Blues.wav

Пиковый уровень 100.0 %
Скорость извлечения 2.9 X
Качество диапазона 100.0 %
CRC теста 7FA301C6
CRC копии 7FA301C6
Копирование… OK

Ошибок не произошло


AccurateRip: сводка

Трек 1 : извлечено точно (доверие 17) [B42D9777] (AR v2)
Трек 2 : извлечено точно (доверие 18) [54B727ED] (AR v2)
Трек 3 : извлечено точно (доверие 18) [9F461F1E] (AR v2)
Трек 4 : извлечено точно (доверие 18) [3360D587] (AR v2)
Трек 5 : извлечено точно (доверие 18) [606763FE] (AR v2)
Трек 6 : извлечено точно (доверие 18) [BE86B814] (AR v2)
Трек 7 : извлечено точно (доверие 18) [1B2B5662] (AR v2)
Трек 8 : извлечено точно (доверие 18) [46FEE66C] (AR v2)
Трек 9 : извлечено точно (доверие 18) [D4E6927B] (AR v2)
Трек 10 : извлечено точно (доверие 18) [08A6EB2C] (AR v2)
Трек 11 : извлечено точно (доверие 18) [FB191EAB] (AR v2)
Трек 12 : извлечено точно (доверие 18) [C7F73110] (AR v2)
Трек 13 : извлечено точно (доверие 17) [83A63164] (AR v2)

Все треки извлечены точно

Конец отчёта

–– CUETools DB Plugin V2.1.6

[CTDB TOCID: ZBxh7o6d8Gb8dLOwAfy2cM1V0nA-] found
Submit result: ZBxh7o6d8Gb8dLOwAfy2cM1V0nA- has been confirmed
Track | CTDB Status
1 | (25/25) Accurately ripped
2 | (25/25) Accurately ripped
3 | (25/25) Accurately ripped
4 | (25/25) Accurately ripped
5 | (25/25) Accurately ripped
6 | (25/25) Accurately ripped
7 | (25/25) Accurately ripped
8 | (24/25) Accurately ripped
9 | (25/25) Accurately ripped
10 | (25/25) Accurately ripped
11 | (25/25) Accurately ripped
12 | (25/25) Accurately ripped
13 | (24/25) Accurately ripped


==== Контрольная сумма отчёта 17B519A4A6CC00CAA44F546642242D900F4904F6FAF323C1A2092159869B0131 ====

[CUETools log; Date: 15.11.2023 19:40:30; Version: 2.1.7]
[CTDB TOCID: ZBxh7o6d8Gb8dLOwAfy2cM1V0nA-] found.
Track | CTDB Status
1 | (41/41) Accurately ripped
2 | (41/41) Accurately ripped
3 | (41/41) Accurately ripped
4 | (41/41) Accurately ripped
5 | (41/41) Accurately ripped
6 | (41/41) Accurately ripped
7 | (41/41) Accurately ripped
8 | (40/41) Accurately ripped
9 | (41/41) Accurately ripped
10 | (41/41) Accurately ripped
11 | (41/41) Accurately ripped
12 | (41/41) Accurately ripped
13 | (40/41) Accurately ripped
[AccurateRip ID: 00157086-00d7c282-af0b170d] found.
Track [ CRC | V2 ] Status
01 [ed063df2|b42d9777] (11+20/34) Accurately ripped
02 [649503dc|54b727ed] (11+21/35) Accurately ripped
03 [cbecabe8|9f461f1e] (11+21/35) Accurately ripped
04 [34385aed|3360d587] (11+21/35) Accurately ripped
05 [fc75e971|606763fe] (11+21/35) Accurately ripped
06 [69505683|be86b814] (11+21/35) Accurately ripped
07 [ceced780|1b2b5662] (11+21/35) Accurately ripped
08 [96906f39|46fee66c] (11+21/35) Accurately ripped
09 [bf46f31f|d4e6927b] (11+21/35) Accurately ripped
10 [b5d94d0c|08a6eb2c] (11+21/35) Accurately ripped
11 [e08c2516|fb191eab] (11+21/35) Accurately ripped
12 [13355329|c7f73110] (11+21/35) Accurately ripped
13 [a6a6f036|83a63164] (11+20/34) Accurately ripped
Offsetted by -664:
01 [6713b582] (03/34) Accurately ripped
02 [53205ad6] (03/35) Accurately ripped
03 [d651e595] (03/35) Accurately ripped
04 [22cf3708] (03/35) Accurately ripped
05 [24f63ba0] (03/35) Accurately ripped
06 [43d3b405] (03/35) Accurately ripped
07 [64f13fe4] (03/35) Accurately ripped
08 [9d7ae060] (03/35) Accurately ripped
09 [3bfe559f] (03/35) Accurately ripped
10 [58902a79] (03/35) Accurately ripped
11 [fbe9b8d0] (03/35) Accurately ripped
12 [967cc7b8] (03/35) Accurately ripped
13 [c3182b90] (03/34) Accurately ripped

Track Peak [ CRC32 ] [W/O NULL] [ LOG ]
– 100,0 [7FA301C6] [D070675D] CRC32
01 100,0 [6969A4E4] [E162CB00]
02 100,0 [36F55256] [DC7DE76B]
03 100,0 [A1134112] [8F4109A0]
04 100,0 [3A94E342] [130FFC5A]
05 100,0 [E57D9689] [6ED1C24D]
06 100,0 [0D515634] [E4826FBD]
07 100,0 [CE8B20F6] [EBC0B31E]
08 100,0 [2B641F33] [0748E5B2]
09 100,0 [8A3BDAFB] [D2144227]
10 100,0 [C5E7826F] [3508569E]
11 100,0 [1EBADD98] [C966CEC3]
12 100,0 [763C4607] [FFDA2751]
13 100,0 [D896DA56] [09DBB18F]

foobar2000 1.6.3 / Dynamic Range Meter 1.1.1
log date: 2023-11-16 06:17:29

––––––––––––––––––––––––––––––––––––––––
Analyzed: Magic Slim and the Teardrops / Midnight Blues
––––––––––––––––––––––––––––––––––––––––

DR Peak RMS Duration Track
––––––––––––––––––––––––––––––––––––––––
DR7 0.00 dB -8.30 dB 3:41 01-Let Me Love You
DR7 0.00 dB -8.26 dB 3:43 02-You Can't Lose What You Ain't Never Had
DR8 0.00 dB -8.58 dB 2:54 03-Give Me Back My Wig
DR8 0.00 dB -9.36 dB 2:32 04-Lonely Man
DR8 0.00 dB -8.58 dB 4:37 05-Spider in My Stew
DR8 0.00 dB -8.52 dB 2:21 06-Going Down the Road Feeling Bad
DR9 0.00 dB -9.10 dB 2:40 07-Full Load Boogie
DR8 0.00 dB -8.90 dB 4:06 08-Crosseyed Cat
DR8 0.00 dB -8.44 dB 3:00 09-House Cat Blues
DR8 0.00 dB -8.63 dB 4:34 10-Carla
DR7 0.00 dB -8.32 dB 3:41 11-Cryin' Won't Let You Stay
DR8 0.00 dB -9.10 dB 5:06 12-What Is It That You Got
DR8 0.00 dB -9.14 dB 4:24 13-Loving You Is the Best Thing That Ever Happened to Me
––––––––––––––––––––––––––––––––––––––––

Number of tracks: 13
Official DR value: DR8

Samplerate: 44100 Hz
Channels: 2
Bits per sample: 16
Bitrate: 931 kbps
Codec: FLAC
================================================================================

Magic Slim & The Teardrops - Midnight Blues (2008)

Magic Slim & The Teardrops - Midnight Blues (2008)

All thanks to original releaser

More interesting music in My Blog