Subcategories

Magma - Rehearsals For KA (Kohntarkosz Anteria) 1973 (2009)

Posted By: v3122
Magma - Rehearsals For KA (Kohntarkosz Anteria) 1973 (2009)

Magma - Rehearsals For KA (Kohntarkosz Anteria) 1973 (2009)
EAC | Flac(Image) + Cue + Log & MP3 CBR 320Kbps
2009 | Tachika Records | ~ 392 or 152 Mb | Scans(png, 600dpi) -> 59 Mb
Progressive Rock / Zeuhl

These rehearsals have been a "public secret" among many die-hard Magma collectors in France for several years. However, in the past year, they have become more widely disseminated to the point where I have been offered these recordings by 3 seperate people on the UZMK-Magma chatroom on Soulseek. So, I figured that it was about time that these recordings were shared on a more "global" basis through DIME.

Magma fans who are specialists of the 1973-74 period (in my opinion, the best formation of the group) have tracked the evolution of the melange known as Kohntarkosz Anteria, first through the famous concert at Pont de Ce in May 1973 (originally recorded by Jacques "MagmaFan" Guiton - http://magma.fan.free.fr/intro_UK.html), then through the incredible concert in Marseilles on July 24, 1973, the famous gig at the Marquee on December 5, 1973, and finally culmitating in my Desert Island Disk, Magma BBC 1974. Each of these gigs shows KA and Kohntarkosz in a state of transition, and shows how Christian Vander constantly tinkered with the music.

by EDGE
Magma - Rehearsals For KA (Kohntarkosz Anteria) 1973 (2009):

Magma - Rehearsals For KA (Kohntarkosz Anteria) 1973 (2009)

Tracklist:

01 - KA I (9:16)
02 - Discussion (2:12)
03 - KA I (9:23)
04 - KA II (Intro) (1:03)
05 - Discussion (0:55)
06 - KA II (Intro) (1:28)
07 - Les Musiciens du Bord du Monde (8:36)
08 - Om Zanka (3:27)
09 - Transition (0:17)
10 - Om Zanka (2:45)
11 - Transition (1:39)
12 - Gamma Anteria + Alleluia (7:49)
13 - Discussion (0:05)
14 - Alleluia (0:29)
15 - Alleluia (1:57)
16 - KA II (6:31)
17 - Les Musiciens du Bord du Monde (6:04)

Tracks 1-7 are with JP Lambert on bass
Tracks 8-17 are with Jannick Top on bass


Exact Audio Copy V1.0 beta 3 from 29. August 2011

EAC extraction logfile from 19. October 2012, 10:28

Magma / Rehearsals For KA (Kohntarkosz Anteria)

Used drive : TOSHIBA DVD-ROM SD-R9012 Adapter: 1 ID: 0

Read mode : Secure
Utilize accurate stream : Yes
Defeat audio cache : Yes
Make use of C2 pointers : No

Read offset correction : 116
Overread into Lead-In and Lead-Out : No
Fill up missing offset samples with silence : Yes
Delete leading and trailing silent blocks : No
Null samples used in CRC calculations : Yes
Used interface : Native Win32 interface for Win NT & 2000

Used output format : User Defined Encoder
Selected bitrate : 768 kBit/s
Quality : High
Add ID3 tag : Yes
Command line compressor : C:\Program Files\Exact Audio Copy\Wavpack\wavpack.exe
Additional command line options : -hlm %source%


TOC of the extracted CD

Track | Start | Length | Start sector | End sector
––––––––––––––––––––––––––––-
1 | 0:00.00 | 9:16.27 | 0 | 41726
2 | 9:16.27 | 2:12.38 | 41727 | 51664
3 | 11:28.65 | 9:23.25 | 51665 | 93914
4 | 20:52.15 | 1:03.20 | 93915 | 98659
5 | 21:55.35 | 0:55.35 | 98660 | 102819
6 | 22:50.70 | 1:28.70 | 102820 | 109489
7 | 24:19.65 | 8:36.29 | 109490 | 148218
8 | 32:56.19 | 3:27.62 | 148219 | 163805
9 | 36:24.06 | 0:17.40 | 163806 | 165120
10 | 36:41.46 | 2:45.08 | 165121 | 177503
11 | 39:26.54 | 1:39.50 | 177504 | 184978
12 | 41:06.29 | 7:49.52 | 184979 | 220205
13 | 48:56.06 | 0:05.00 | 220206 | 220580
14 | 49:01.06 | 0:29.00 | 220581 | 222755
15 | 49:30.06 | 1:57.47 | 222756 | 231577
16 | 51:27.53 | 6:31.72 | 231578 | 260974
17 | 57:59.50 | 6:04.28 | 260975 | 288302


Range status and errors

Selected range

Filename C:\_flac\Magma\Magma - Rehearsals For KA (Kohntarkosz Anteria).wav

Peak level 80.2 %
Extraction speed 2.9 X
Range quality 100.0 %
Copy CRC DBBD1570
Copy OK

No errors occurred


AccurateRip summary

Track 1 not present in database
Track 2 not present in database
Track 3 not present in database
Track 4 not present in database
Track 5 not present in database
Track 6 not present in database
Track 7 not present in database
Track 8 not present in database
Track 9 not present in database
Track 10 not present in database
Track 11 not present in database
Track 12 not present in database
Track 13 not present in database
Track 14 not present in database
Track 15 not present in database
Track 16 not present in database
Track 17 not present in database

None of the tracks are present in the AccurateRip database

End of status report

Magma - Rehearsals For KA (Kohntarkosz Anteria) 1973 (2009)

All thanks go to tatuk