Tags
Language
Tags

Manfred Mann - 8 Albums Collection 1964-66 (2014) [Parlophone Records / Warner Music Japan] Re-up

Posted By:
Manfred Mann - 8 Albums Collection 1964-66 (2014) [Parlophone Records / Warner Music Japan] Re-up

Manfred Mann - 8 Albums Collection 1964-66 (2014)
EAC | Flac(Image) + Cue + Log & MP3 CBR 320Kbps
8CD | Parlophone, Warner Music Japan | ~ 3164 or 1375 Mb | Artwork(png) -> 880 Mb
Rock, Blues, Blues Rock, Pop Rock

British band founded in 1962 by Manfred Mann and Mike Hugg as "Mann Hugg Blues Brothers" and later renamed to "Manfred Mann". The band's line-up changed several times before the break up in 1969. After the break up Manfred Mann and Mike Hugg first formed the short lived Manfred Mann Chapter Three before Mann formed Manfred Mann's Earth Band and some other members of the group reunited 1991 playing as The Manfreds.

Original members:
Manfred Mann
Mike Hugg
Mike Vickers
Dave Richmond
Paul Jones

Additional members:
Tom McGuinness
Jack Bruce
Klaus Voorman
Mike D'Abo

~ discogs
Manfred Mann - 8 Albums Collection 1964-66 (2014):

Manfred Mann - 8 Albums Collection 1964-66 (2014) [Parlophone Records / Warner Music Japan] Re-up

Tracklist CD1 - 1964 - The Five Faces Of Manfred Mann / UK Version:
Parlophone Records / Warner Music Japan, WPCR-15450

Mono:
01. Smokestack Lightning 03:31
02. Don't Ask Me What I Say 02:59
03. Sack O'Woe 02:05
04. What You Gonna Do? 02:35
05. I'm Your Hoochie Coochie Man 03:16
06. I'm Your Kingpin 02:49
07. Down The Road Apiece 02:23
08. I've Got My Mojo Working 03:11
09. I'ts Gonna Work Out Fine 02:33
10. Mr. Anello 02:16
11. Untie Me 03:39
12. Bring It To Jerome 03:28
13. Without You 02:20
14. You've Got To Take It 02:01
Bonus Tracks:
15. Why Should We Not (Take 6) / Mono 02:33
16. Brother Jack / Stereo 02:32
17. Cook-A-Hoop / Stereo 02:03
18. Now You're Needing Me / Stereo 02:15
19. 5-4-3-2-1 / Mono 01:59
20. Do Wah Diddy Diddy / Stereo 02:22
21. Why Should We Not (Take 1) / Stereo 03:20
22. I Don't Want To Know / Stereo 02:10
23. Let's Go / Stereo 01:30
24. Tell Me What Did I Say / Stereo 02:03
25. Chattering / Stereo 01:53
26. Without You (Early Version) / Stereo 02:22

Exact Audio Copy V1.0 beta 3 from 29. August 2011

EAC extraction logfile from 28. May 2014, 20:03

Manfred Mann / The Five Faces Of Manfred Mann UK SHM-CD

Used drive : PLEXTOR BD-R PX-B950SA Adapter: 6 ID: 0

Read mode : Secure
Utilize accurate stream : Yes
Defeat audio cache : Yes
Make use of C2 pointers : No

Read offset correction : 6
Overread into Lead-In and Lead-Out : No
Fill up missing offset samples with silence : Yes
Delete leading and trailing silent blocks : No
Null samples used in CRC calculations : Yes
Used interface : Native Win32 interface for Win NT & 2000

Used output format : Internal WAV Routines
Sample format : 44.100 Hz; 16 Bit; Stereo


TOC of the extracted CD

Track | Start | Length | Start sector | End sector
––––––––––––––––––––––––––––-
1 | 0:00.00 | 3:31.40 | 0 | 15864
2 | 3:31.40 | 2:59.39 | 15865 | 29328
3 | 6:31.04 | 2:05.69 | 29329 | 38772
4 | 8:36.73 | 2:35.11 | 38773 | 50408
5 | 11:12.09 | 3:16.46 | 50409 | 65154
6 | 14:28.55 | 2:49.70 | 65155 | 77899
7 | 17:18.50 | 2:23.56 | 77900 | 88680
8 | 19:42.31 | 3:11.44 | 88681 | 103049
9 | 22:54.00 | 2:33.37 | 103050 | 114561
10 | 25:27.37 | 2:16.60 | 114562 | 124821
11 | 27:44.22 | 3:39.25 | 124822 | 141271
12 | 31:23.47 | 3:28.09 | 141272 | 156880
13 | 34:51.56 | 2:20.45 | 156881 | 167425
14 | 37:12.26 | 2:01.55 | 167426 | 176555
15 | 39:14.06 | 2:33.45 | 176556 | 188075
16 | 41:47.51 | 2:32.47 | 188076 | 199522
17 | 44:20.23 | 2:03.41 | 199523 | 208788
18 | 46:23.64 | 2:15.39 | 208789 | 218952
19 | 48:39.28 | 1:59.23 | 218953 | 227900
20 | 50:38.51 | 2:22.61 | 227901 | 238611
21 | 53:01.37 | 3:20.05 | 238612 | 253616
22 | 56:21.42 | 2:10.09 | 253617 | 263375
23 | 58:31.51 | 1:30.66 | 263376 | 270191
24 | 60:02.42 | 2:03.04 | 270192 | 279420
25 | 62:05.46 | 1:53.22 | 279421 | 287917
26 | 63:58.68 | 2:22.37 | 287918 | 298604


Range status and errors

Selected range

Filename C:\Users\Meijin\Desktop\ALLexxess\Manfred Mann\1964 The Five Faces Of Manfred Mann (Mini LP SHM-CD UK Warner Music Japan 2014)\Manfred Mann - The Five Faces Of Manfred Mann UK SHM-CD.wav

Peak level 100.0 %
Extraction speed 8.5 X
Range quality 100.0 %
Test CRC 1147624A
Copy CRC 1147624A
Copy OK

No errors occurred


AccurateRip summary

Track 1 not present in database
Track 2 not present in database
Track 3 not present in database
Track 4 not present in database
Track 5 not present in database
Track 6 not present in database
Track 7 not present in database
Track 8 not present in database
Track 9 not present in database
Track 10 not present in database
Track 11 not present in database
Track 12 not present in database
Track 13 not present in database
Track 14 not present in database
Track 15 not present in database
Track 16 not present in database
Track 17 not present in database
Track 18 not present in database
Track 19 not present in database
Track 20 not present in database
Track 21 not present in database
Track 22 not present in database
Track 23 not present in database
Track 24 not present in database
Track 25 not present in database
Track 26 not present in database

None of the tracks are present in the AccurateRip database

End of status report

==== Log checksum 05741BBF1594A32D397033D5F3C70BD1BF6A1B5D3551A52582804411B48A0770 ====


[CUETools log; Date: 06.09.2019 7:55:27; Version: 2.1.4]
[AccurateRip ID: 004164e0-04b3c228-730f8d1a] found.
Track [ CRC | V2 ] Status
01 [73cc0709|2fe4f286] (0+4/4) Accurately ripped
02 [788ae182|a1dc2fb7] (0+4/4) Accurately ripped
03 [15eeaa29|49fe6168] (0+4/4) Accurately ripped
04 [2f87e3b5|2ea4e8f4] (0+4/4) Accurately ripped
05 [6afa6f4f|e7105b01] (0+4/4) Accurately ripped
06 [1dd2a48f|3413481f] (0+4/4) Accurately ripped
07 [27f2a626|741a5703] (0+4/4) Accurately ripped
08 [ef8212f2|7111c490] (0+4/4) Accurately ripped
09 [35581811|bb6e1ca2] (0+4/4) Accurately ripped
10 [bd203d46|c08dfddf] (0+4/4) Accurately ripped
11 [06c46dd4|b3c7b482] (0+4/4) Accurately ripped
12 [c6654007|fa7d98fb] (0+4/4) Accurately ripped
13 [c920ff44|a4b876bd] (0+4/4) Accurately ripped
14 [e9a9cc39|210360e1] (0+4/4) Accurately ripped
15 [36345f5e|c741338d] (0+4/4) Accurately ripped
16 [b2106d43|3e396c58] (0+4/4) Accurately ripped
17 [c26096ea|d8696e01] (0+4/4) Accurately ripped
18 [1ade8e4b|ebee416d] (0+4/4) Accurately ripped
19 [bf18af1d|ee9acbd2] (0+4/4) Accurately ripped
20 [697c6b32|b959c94c] (0+4/4) Accurately ripped
21 [41e85a76|ff924451] (0+4/4) Accurately ripped
22 [f074e83c|01fe8f97] (0+4/4) Accurately ripped
23 [ae55b450|c3951c50] (0+4/4) Accurately ripped
24 [29243622|fc5a7927] (0+4/4) Accurately ripped
25 [45803c17|f8665d31] (0+4/4) Accurately ripped
26 [5b0d1261|98dc11f0] (0+4/4) Accurately ripped

Track Peak [ CRC32 ] [W/O NULL] [ LOG ]
– 100,0 [1147624A] [843C7A4B] CRC32
01 100,0 [FBB63F2F] [7C0F78E5]
02 100,0 [E0F08C1A] [CAE7DEBA]
03 100,0 [0B0E0D0D] [242D7741]
04 100,0 [01D9373D] [59210E31]
05 100,0 [46EE3644] [DC3E4824]
06 100,0 [A6006014] [F674408A]
07 100,0 [7E5E1822] [AF7CBD9B]
08 100,0 [22D1FFE1] [FED704D1]
09 100,0 [0EE4568A] [03963604]
10 100,0 [752C3215] [722917E9]
11 100,0 [56B82B4C] [755D503D]
12 100,0 [0EB82624] [B3759EEE]
13 100,0 [9C962FA5] [89B181C3]
14 100,0 [C7D9A009] [7035E6CB]
15 100,0 [36344EB8] [7699CBC1]
16 100,0 [9DCB298B] [3DF31AC7]
17 100,0 [C4180D26] [670CC862]
18 100,0 [EC89C984] [C883321B]
19 100,0 [E44B0C23] [C397928B]
20 100,0 [4A112E9F] [F40EF06D]
21 100,0 [1793D162] [23A98254]
22 100,0 [4A7B529C] [081CE9FA]
23 100,0 [D8D46DA8] [9EB556D4]
24 100,0 [8EA191CC] [B83A90D7]
25 100,0 [3B3EA7B3] [796A347E]
26 100,0 [E6F14181] [7EE49726]


Manfred Mann - 8 Albums Collection 1964-66 (2014) [Parlophone Records / Warner Music Japan] Re-up

Tracklist CD2 - 1964 - The Five Faces Of Manfred Mann / US Version:
Parlophone Records / Warner Music Japan, WPCR-15452

Mono:
01. Sha La La 02:33
02. Come Tomorrow 02:46
03. She 02:13
04. Can't Believe It 03:21
05. John Hardy 02:05
06. Did You Have To Do That? 03:31
07. Watermelon Man 03:14
08. I'm Your Kingpin 02:49
09. Hubble Bubble (Toil And Trouble) 02:26
10. You've Got To Take It 02:19
11. Groovin' 03:42
12. Dashing Away With The Smoothing Iron 02:07
Bonus Tracks:
13. Come Tomorrow / Stereo 02:45
14. She / Stereo 02:17
15. Can't Believe It / Stereo 03:21
16. Did You Have To Do That? / Stereo 03:33
17. Watermelon Man / Stereo 03:15
18. Groovin' / Stereo 03:42
19. Dashing Away With The Smoothing Iron / Stereo 02:02
20. All You Love / Mono 02:12
21. What Did I Do Wrong? / Mono 03:53
22. What Am I Doing Wrong? / Mono 02:37
23. Pretty Babe (Weine Nicht) / Mono 02:49
24. Sie / Mono 02:12
25. Pretty Babe (Weine Nicht) / Stereo 02:48
26. Sie / Stereo 02:10
27. Watermelon Man (Altenate Mix) / Stereo 03:17

Exact Audio Copy V1.0 beta 3 from 29. August 2011

EAC extraction logfile from 28. May 2014, 19:08

Manfred Mann / The Five Faces Of Manfred Mann US SHM-CD

Used drive : PLEXTOR BD-R PX-B950SA Adapter: 6 ID: 0

Read mode : Secure
Utilize accurate stream : Yes
Defeat audio cache : Yes
Make use of C2 pointers : No

Read offset correction : 6
Overread into Lead-In and Lead-Out : No
Fill up missing offset samples with silence : Yes
Delete leading and trailing silent blocks : No
Null samples used in CRC calculations : Yes
Used interface : Native Win32 interface for Win NT & 2000

Used output format : Internal WAV Routines
Sample format : 44.100 Hz; 16 Bit; Stereo


TOC of the extracted CD

Track | Start | Length | Start sector | End sector
––––––––––––––––––––––––––––-
1 | 0:00.00 | 2:33.04 | 0 | 11478
2 | 2:33.04 | 2:46.27 | 11479 | 23955
3 | 5:19.31 | 2:13.00 | 23956 | 33930
4 | 7:32.31 | 3:21.19 | 33931 | 49024
5 | 10:53.50 | 2:05.22 | 49025 | 58421
6 | 12:58.72 | 3:31.45 | 58422 | 74291
7 | 16:30.42 | 3:14.05 | 74292 | 88846
8 | 19:44.47 | 2:49.45 | 88847 | 101566
9 | 22:34.17 | 2:26.03 | 101567 | 112519
10 | 25:00.20 | 2:19.09 | 112520 | 122953
11 | 27:19.29 | 3:42.48 | 122954 | 139651
12 | 31:02.02 | 2:07.15 | 139652 | 149191
13 | 33:09.17 | 2:45.01 | 149192 | 161567
14 | 35:54.18 | 2:17.56 | 161568 | 171898
15 | 38:11.74 | 3:21.33 | 171899 | 187006
16 | 41:33.32 | 3:33.07 | 187007 | 202988
17 | 45:06.39 | 3:15.12 | 202989 | 217625
18 | 48:21.51 | 3:42.49 | 217626 | 234324
19 | 52:04.25 | 2:02.54 | 234325 | 243528
20 | 54:07.04 | 2:12.64 | 243529 | 253492
21 | 56:19.68 | 3:53.36 | 253493 | 271003
22 | 60:13.29 | 2:37.18 | 271004 | 282796
23 | 62:50.47 | 2:49.20 | 282797 | 295491
24 | 65:39.67 | 2:11.54 | 295492 | 305370
25 | 67:51.46 | 2:48.73 | 305371 | 318043
26 | 70:40.44 | 2:10.34 | 318044 | 327827
27 | 72:51.03 | 3:17.63 | 327828 | 342665


Range status and errors

Selected range

Filename C:\Users\Meijin\Desktop\ALLexxess\Manfred Mann\1964 The Five Faces Of Manfred Mann (Mini LP SHM-CD US Warner Music Japan 2014)\Manfred Mann - The Five Faces Of Manfred Mann US SHM-CD.wav

Peak level 100.0 %
Extraction speed 8.5 X
Range quality 99.9 %
Test CRC B4EEB2E9
Copy CRC B4EEB2E9
Copy OK

No errors occurred


AccurateRip summary

Track 1 not present in database
Track 2 not present in database
Track 3 not present in database
Track 4 not present in database
Track 5 not present in database
Track 6 not present in database
Track 7 not present in database
Track 8 not present in database
Track 9 not present in database
Track 10 not present in database
Track 11 not present in database
Track 12 not present in database
Track 13 not present in database
Track 14 not present in database
Track 15 not present in database
Track 16 not present in database
Track 17 not present in database
Track 18 not present in database
Track 19 not present in database
Track 20 not present in database
Track 21 not present in database
Track 22 not present in database
Track 23 not present in database
Track 24 not present in database
Track 25 not present in database
Track 26 not present in database
Track 27 not present in database

None of the tracks are present in the AccurateRip database

End of status report

==== Log checksum 27BF7410C8B2AE45DEA4B67BBA7DAA85EA83B70569E805792E3A750942427E59 ====


[CUETools log; Date: 06.09.2019 7:58:40; Version: 2.1.4]
[AccurateRip ID: 0048f5a3-05884c65-8a11d81b] found.
Track [ CRC | V2 ] Status
01 [97ed583e|ae6d1798] (0+2/2) Accurately ripped
02 [b5a130b6|df2a6362] (0+2/2) Accurately ripped
03 [4cdf0e45|2b69a7ff] (0+2/2) Accurately ripped
04 [df27e837|7ce2099c] (0+2/2) Accurately ripped
05 [8c992458|1cf3a317] (0+2/2) Accurately ripped
06 [46d6beaf|26fe82d4] (0+2/2) Accurately ripped
07 [f5ad16c5|67a921cc] (0+2/2) Accurately ripped
08 [6d504687|4d97246c] (0+2/2) Accurately ripped
09 [2623d3fb|ad0afbef] (0+2/2) Accurately ripped
10 [5a2b8d8a|de45d817] (0+2/2) Accurately ripped
11 [5df76ed7|faf01e4f] (0+2/2) Accurately ripped
12 [78a9f0af|1af770ff] (0+2/2) Accurately ripped
13 [2d9c5785|fa1b9025] (0+2/2) Accurately ripped
14 [af036b0f|c368c31b] (0+2/2) Accurately ripped
15 [2a12c7b2|7b9ca7bc] (0+2/2) Accurately ripped
16 [89800cc4|ce5c4f84] (0+2/2) Accurately ripped
17 [943e9421|3f1c9975] (0+2/2) Accurately ripped
18 [ec115d35|7230dd12] (0+2/2) Accurately ripped
19 [a7b5a068|ee2ac342] (0+2/2) Accurately ripped
20 [cb955ffa|7bc2dbf3] (0+2/2) Accurately ripped
21 [ec8a600d|cd5a6127] (0+2/2) Accurately ripped
22 [aeb0b06a|14eb2a17] (0+2/2) Accurately ripped
23 [c7bf22f6|929cb1eb] (0+2/2) Accurately ripped
24 [210db542|fd97769b] (0+2/2) Accurately ripped
25 [1d46ae7d|a651c1d7] (0+2/2) Accurately ripped
26 [a4628aae|5a2112c8] (0+2/2) Accurately ripped
27 [142394dc|b37ec169] (0+2/2) Accurately ripped

Track Peak [ CRC32 ] [W/O NULL] [ LOG ]
– 100,0 [B4EEB2E9] [24B07F59] CRC32
01 100,0 [CDBCCBCD] [708ED632]
02 100,0 [BF3EF257] [940B6A28]
03 100,0 [DC76FA5D] [36FFA186]
04 100,0 [595415B7] [1A306C60]
05 100,0 [3848CCE0] [B4AD4F5F]
06 100,0 [8E533380] [70B1CB5B]
07 100,0 [D41FE96F] [663F548E]
08 100,0 [3ECFE5DB] [CAD51CAD]
09 99,9 [2C53413C] [4A6EDBF7]
10 100,0 [A6E3426B] [0CFDD20D]
11 100,0 [32DECF71] [63875260]
12 100,0 [421D86C3] [230C7ABA]
13 99,8 [C01B4AB2] [E62284DD]
14 100,0 [BA6E9689] [87FF9AF4]
15 100,0 [9E146BD5] [A98DD200]
16 100,0 [7A6ED434] [4CC40FD2]
17 100,0 [C9845D74] [52A95D33]
18 97,7 [E2E433B3] [49F87D2C]
19 100,0 [2BB01769] [C5E27CE0]
20 94,3 [BC90F163] [3919D2B2]
21 100,0 [559A23BE] [C71B2ED0]
22 100,0 [749FA659] [CC373E43]
23 100,0 [3CFE3390] [71117CED]
24 100,0 [0306D822] [7E49E56C]
25 100,0 [F481AFB4] [B775AD97]
26 100,0 [E1CBB8E4] [6D54BB1C]
27 100,0 [77D594CF] [A51470DF]


Manfred Mann - 8 Albums Collection 1964-66 (2014) [Parlophone Records / Warner Music Japan] Re-up

Tracklist CD3 - 1964 - The Manfred Mann Album:
Parlophone Records / Warner Music Japan, WPCR-15451

Stereo:
01. Do Wah Diddy Diddy 02:24
02. Don't Ask Me What I Say 03:01
03. Sack O'Woe 02:10
04. What You Gonna Do? 02:40
05. I'm Your Hoochie Coochie Man 03:20
06. Smokestack Lightning 03:34
07. Got My Mojo Working 03:12
08. It's Gonna Work Out Fine 02:37
09. Down The Road Apiece 02:27
10. Untie Me (Version 2) 03:39
11. Bring It To Jerome 03:27
12. Without You 02:24
Bonus Tracks:
13. Mr. Anello (Version 2) / Stereo 02:09
14. You've Got To Take It / Stereo 02:20
15. I'm Your Kingpin / Stereo 02:49
16. Why Should We Not (Take 5) / Stereo 03:03
17. Brother Jack / Stereo 02:29
18. Cock-A-Hoop / Stereo 02:07
19. Now You're Needing Me / Stereo 02:23
20. Ain't That Love / Mono 02:19
21. Sticks And Stones / Mono 02:25
22. 5-4-3-2-1 / Mono 01:11
23. Do Wah Diddy Diddy (Unedited Version) / Mono 02:26
24. Do Wah Diddy Diddy (Remix Version) / Stereo 02:22

Exact Audio Copy V1.0 beta 3 from 29. August 2011

EAC extraction logfile from 28. May 2014, 16:54

Manfred Mann / The Manfred Mann Album SHM-CD

Used drive : PLEXTOR BD-R PX-B950SA Adapter: 6 ID: 0

Read mode : Secure
Utilize accurate stream : Yes
Defeat audio cache : Yes
Make use of C2 pointers : No

Read offset correction : 6
Overread into Lead-In and Lead-Out : No
Fill up missing offset samples with silence : Yes
Delete leading and trailing silent blocks : No
Null samples used in CRC calculations : Yes
Used interface : Native Win32 interface for Win NT & 2000

Used output format : Internal WAV Routines
Sample format : 44.100 Hz; 16 Bit; Stereo


TOC of the extracted CD

Track | Start | Length | Start sector | End sector
––––––––––––––––––––––––––––-
1 | 0:00.00 | 2:24.66 | 0 | 10865
2 | 2:24.66 | 3:01.43 | 10866 | 24483
3 | 5:26.34 | 2:10.02 | 24484 | 34235
4 | 7:36.36 | 2:40.38 | 34236 | 46273
5 | 10:16.74 | 3:20.24 | 46274 | 61297
6 | 13:37.23 | 3:34.49 | 61298 | 77396
7 | 17:11.72 | 3:12.22 | 77397 | 91818
8 | 20:24.19 | 2:37.31 | 91819 | 103624
9 | 23:01.50 | 2:27.60 | 103625 | 114709
10 | 25:29.35 | 3:39.61 | 114710 | 131195
11 | 29:09.21 | 3:27.00 | 131196 | 146720
12 | 32:36.21 | 2:24.53 | 146721 | 157573
13 | 35:00.74 | 2:09.21 | 157574 | 167269
14 | 37:10.20 | 2:20.05 | 167270 | 177774
15 | 39:30.25 | 2:49.05 | 177775 | 190454
16 | 42:19.30 | 3:03.37 | 190455 | 204216
17 | 45:22.67 | 2:29.56 | 204217 | 215447
18 | 47:52.48 | 2:07.42 | 215448 | 225014
19 | 50:00.15 | 2:23.43 | 225015 | 235782
20 | 52:23.58 | 2:19.20 | 235783 | 246227
21 | 54:43.03 | 2:25.11 | 246228 | 257113
22 | 57:08.14 | 1:11.63 | 257114 | 262501
23 | 58:20.02 | 2:26.52 | 262502 | 273503
24 | 60:46.54 | 2:22.52 | 273504 | 284205


Range status and errors

Selected range

Filename C:\Users\Meijin\Desktop\ALLexxess\Manfred Mann\1964 The Manfred Mann Album (Mini LP SHM-CD Warner Music Japan 2014)\Manfred Mann - The Manfred Mann Album SHM-CD.wav

Peak level 100.0 %
Extraction speed 3.8 X
Range quality 100.0 %
Test CRC 715F825F
Copy CRC 715F825F
Copy OK

No errors occurred


AccurateRip summary

Track 1 not present in database
Track 2 not present in database
Track 3 not present in database
Track 4 not present in database
Track 5 not present in database
Track 6 not present in database
Track 7 not present in database
Track 8 not present in database
Track 9 not present in database
Track 10 not present in database
Track 11 not present in database
Track 12 not present in database
Track 13 not present in database
Track 14 not present in database
Track 15 not present in database
Track 16 not present in database
Track 17 not present in database
Track 18 not present in database
Track 19 not present in database
Track 20 not present in database
Track 21 not present in database
Track 22 not present in database
Track 23 not present in database
Track 24 not present in database

None of the tracks are present in the AccurateRip database

End of status report

==== Log checksum 990CD448C33A675BEA4653C660BAB4CA3B81113AFE24C7DE958DB60244B1C8D6 ====


[CUETools log; Date: 06.09.2019 8:11:59; Version: 2.1.4]
[AccurateRip ID: 00391045-03d635a4-360ecd18] found.
Track [ CRC | V2 ] Status
01 [acb56890|189ec0a9] (0+2/2) Accurately ripped
02 [e6f98d93|f78c8d43] (0+2/2) Accurately ripped
03 [1c1551ee|cbdfa7e9] (0+2/2) Accurately ripped
04 [8ba2df5c|65d5107b] (0+2/2) Accurately ripped
05 [5d765d38|30acde75] (0+2/2) Accurately ripped
06 [803bcb69|1321f21e] (0+2/2) Accurately ripped
07 [bc5e70a7|05af4920] (0+2/2) Accurately ripped
08 [5b9eeba1|402ef141] (0+2/2) Accurately ripped
09 [e257a243|e5c4ce73] (0+1/2) Accurately ripped
10 [32eb1c4e|461b72f5] (0+2/2) Accurately ripped
11 [dca4a81e|b81e5a9d] (0+2/2) Accurately ripped
12 [4118f7b2|39b6f15a] (0+2/2) Accurately ripped
13 [7f78c6aa|658ccf20] (0+2/2) Accurately ripped
14 [0a7e9bba|6b895a71] (0+2/2) Accurately ripped
15 [f78b1c6a|6725e3e9] (0+2/2) Accurately ripped
16 [3311c928|d36d9d3c] (0+2/2) Accurately ripped
17 [c17ca0f7|8f430223] (0+2/2) Accurately ripped
18 [49f4ff6f|9c5ce1aa] (0+2/2) Accurately ripped
19 [e0f6f62d|03ff6e96] (0+2/2) Accurately ripped
20 [1757722f|4a058f1e] (0+2/2) Accurately ripped
21 [95618bb0|ee54bf84] (0+2/2) Accurately ripped
22 [ae666516|3292bfe3] (0+2/2) Accurately ripped
23 [47bfa169|50981765] (0+2/2) Accurately ripped
24 [b68178ad|2dbaa4ac] (0+2/2) Accurately ripped

Track Peak [ CRC32 ] [W/O NULL] [ LOG ]
– 100,0 [715F825F] [2C1F7661] CRC32
01 100,0 [49246DB5] [0ACA5DB1]
02 100,0 [FDE1CDE4] [9A94CBA3]
03 100,0 [136A7C9E] [9B5AF3E0]
04 100,0 [35673184] [E3B9BF04]
05 100,0 [B6A947A7] [3638FE7E]
06 100,0 [E7B6FA22] [2DDA90C8]
07 100,0 [EF6F62E2] [58549587]
08 100,0 [F3AF9431] [A5068456]
09 100,0 [D7261E01] [FFEAD7AC]
10 100,0 [17D868A6] [1A999B4A]
11 100,0 [72A921B2] [8603060B]
12 100,0 [AE08DB24] [8E5CA6D9]
13 100,0 [06E5FA5C] [24289E1C]
14 100,0 [5CD9756D] [E1F2CC32]
15 100,0 [AAE030F4] [9DCCBCA6]
16 100,0 [454253C0] [C0D6364F]
17 100,0 [54285915] [16B10C7E]
18 100,0 [AA1B3411] [3FB3BBE4]
19 100,0 [A42EA380] [2679CE82]
20 100,0 [2021BC2A] [F3D648A3]
21 100,0 [28F160FE] [A4939757]
22 100,0 [5F570CBC] [5E1E5638]
23 98,5 [E5584656] [3F14802E]
24 100,0 [BD194F0B] [34B7E72C]


Manfred Mann - 8 Albums Collection 1964-66 (2014) [Parlophone Records / Warner Music Japan] Re-up

Tracklist CD4 - 1965 - Mann Made / UK Version:
Parlophone Records / Warner Music Japan, WPCR-15488

Mono:
01. Since I Don't Have You 02:38
02. You're For Me 02:58
03. Look Away 02:21
04. The Abominable Showmann 02:47
05. Watch Your Step 02:16
06. Call It Stormy Monday 03:43
07. I Really Do Believe 03:02
08. Hi Lili, Hi Lo 02:39
09. The Way You Do The Things You Do 02:49
10. Bare Hugg 03:54
11. You Don't Know Me 03:49
12. L.S.D. 03:52
13. I'll Make It Up To You 03:17
Bonus Tracks:
14. Still I'm Sad / Mono 02:41
15. My Generation / Mono 02:29
16. (I Can't Get No) Satisfaction / Mono 02:55
17. I Got You Babe / Mono 02:32
18. That's All I Ever Want From You Baby / Mono 02:37
19. Still I'm Sad / Stereo 02:44
20. My Generation / Stereo 02:30
21. (I Can't Get No) Satisfaction / Stereo 02:50
22. I Got You Babe / Stereo 02:32
23. That's All I Ever Want From You Baby / Stereo 02:34

Exact Audio Copy V1.0 beta 3 from 29. August 2011

EAC extraction logfile from 27. May 2014, 20:59

Manfred Mann / Mann Made UK SHM-CD

Used drive : PLEXTOR BD-R PX-B950SA Adapter: 6 ID: 0

Read mode : Secure
Utilize accurate stream : Yes
Defeat audio cache : Yes
Make use of C2 pointers : No

Read offset correction : 6
Overread into Lead-In and Lead-Out : No
Fill up missing offset samples with silence : Yes
Delete leading and trailing silent blocks : No
Null samples used in CRC calculations : Yes
Used interface : Native Win32 interface for Win NT & 2000

Used output format : Internal WAV Routines
Sample format : 44.100 Hz; 16 Bit; Stereo


TOC of the extracted CD

Track | Start | Length | Start sector | End sector
––––––––––––––––––––––––––––-
1 | 0:00.00 | 2:38.55 | 0 | 11904
2 | 2:38.55 | 2:58.04 | 11905 | 25258
3 | 5:36.59 | 2:21.74 | 25259 | 35907
4 | 7:58.58 | 2:47.30 | 35908 | 48462
5 | 10:46.13 | 2:16.69 | 48463 | 58731
6 | 13:03.07 | 3:43.55 | 58732 | 75511
7 | 16:46.62 | 3:02.04 | 75512 | 89165
8 | 19:48.66 | 2:39.01 | 89166 | 101091
9 | 22:27.67 | 2:49.05 | 101092 | 113771
10 | 25:16.72 | 3:54.63 | 113772 | 131384
11 | 29:11.60 | 3:48.45 | 131385 | 148529
12 | 33:00.30 | 3:52.15 | 148530 | 165944
13 | 36:52.45 | 3:17.72 | 165945 | 180791
14 | 40:10.42 | 2:41.56 | 180792 | 192922
15 | 42:52.23 | 2:29.54 | 192923 | 204151
16 | 45:22.02 | 2:55.08 | 204152 | 217284
17 | 48:17.10 | 2:32.48 | 217285 | 228732
18 | 50:49.58 | 2:37.58 | 228733 | 240565
19 | 53:27.41 | 2:44.48 | 240566 | 252913
20 | 56:12.14 | 2:30.44 | 252914 | 264207
21 | 58:42.58 | 2:50.64 | 264208 | 277021
22 | 61:33.47 | 2:32.09 | 277022 | 288430
23 | 64:05.56 | 2:34.73 | 288431 | 300053


Range status and errors

Selected range

Filename C:\Users\Meijin\Desktop\ALLexxess\Manfred Mann\1965 Mann Made (Mini LP SHM-CD UK Warner Music Japan 2014)\Manfred Mann - Mann Made UK SHM-CD.wav

Peak level 100.0 %
Extraction speed 8.5 X
Range quality 100.0 %
Test CRC B13C4000
Copy CRC B13C4000
Copy OK

No errors occurred


AccurateRip summary

Track 1 not present in database
Track 2 not present in database
Track 3 not present in database
Track 4 not present in database
Track 5 not present in database
Track 6 not present in database
Track 7 not present in database
Track 8 not present in database
Track 9 not present in database
Track 10 not present in database
Track 11 not present in database
Track 12 not present in database
Track 13 not present in database
Track 14 not present in database
Track 15 not present in database
Track 16 not present in database
Track 17 not present in database
Track 18 not present in database
Track 19 not present in database
Track 20 not present in database
Track 21 not present in database
Track 22 not present in database
Track 23 not present in database

None of the tracks are present in the AccurateRip database

End of status report

==== Log checksum 7BF44B643D47DC17F5EC012FE14918B373838E1A3D3B1D405C174CEE18555CD5 ====


[CUETools log; Date: 06.09.2019 8:19:17; Version: 2.1.4]
[AccurateRip ID: 0037bc8d-03a4a4e6-540fa017] found.
Track [ CRC | V2 ] Status
01 [3133fe82|19bae2f8] (0+2/2) Accurately ripped
02 [3723a301|f4f90bd0] (0+2/2) Accurately ripped
03 [397b70fd|f1b0cb08] (0+2/2) Accurately ripped
04 [3b768dd8|35dcf9ea] (0+2/2) Accurately ripped
05 [4347cfa6|3329939f] (0+2/2) Accurately ripped
06 [ed524381|da807e05] (0+2/2) Accurately ripped
07 [ec1cf52d|db498f1e] (0+2/2) Accurately ripped
08 [4035cd54|6ed17f02] (0+2/2) Accurately ripped
09 [fcd75300|a7a118c3] (0+2/2) Accurately ripped
10 [707ba611|439183d9] (0+2/2) Accurately ripped
11 [5e180529|462af0bf] (0+2/2) Accurately ripped
12 [06101d6c|a0113dfb] (0+2/2) Accurately ripped
13 [6dd1d922|b4d3396e] (0+2/2) Accurately ripped
14 [945724b4|0415b137] (0+2/2) Accurately ripped
15 [e6191797|b1835eb7] (0+2/2) Accurately ripped
16 [b9bdb376|a9dac10a] (0+2/2) Accurately ripped
17 [ebea46e6|de99c03a] (0+2/2) Accurately ripped
18 [4e5ff888|d23a55ec] (0+2/2) Accurately ripped
19 [e38e48bc|352b2f5f] (0+2/2) Accurately ripped
20 [87bbbd6d|ffe7d676] (0+2/2) Accurately ripped
21 [8ee94324|6f6069f9] (0+2/2) Accurately ripped
22 [fb7783b3|da2df105] (0+2/2) Accurately ripped
23 [0a3244f5|387994b7] (0+2/2) Accurately ripped

Track Peak [ CRC32 ] [W/O NULL] [ LOG ]
– 100,0 [B13C4000] [8CB7EF8B] CRC32
01 100,0 [1E536447] [23E8AFD8]
02 96,6 [2A05DCF4] [F694B5FE]
03 98,3 [7829A8AA] [1EFA718F]
04 96,3 [0DA1BB68] [9141DE88]
05 100,0 [A30C7FE8] [8D722407]
06 100,0 [C520E8DC] [A7789E39]
07 100,0 [BF42360B] [21D62B64]
08 96,3 [E9579FCF] [0ABD7645]
09 96,3 [B2630CBA] [7FC42730]
10 100,0 [DA37EDA5] [D445D7FA]
11 100,0 [1943273D] [102F7559]
12 96,3 [80DE9D0F] [121B312B]
13 100,0 [1F084740] [AFD6AF41]
14 100,0 [B5ECB7E9] [7ABD4EF0]
15 100,0 [E5868D6A] [9D34E3D9]
16 100,0 [40792676] [BD327A53]
17 100,0 [87A55829] [31C1A28D]
18 96,6 [561C3BA9] [62792FF0]
19 100,0 [3684E53A] [CF607E54]
20 100,0 [B6322534] [46A4CC0C]
21 96,4 [A17B002B] [6B5A70D3]
22 92,0 [54522BE8] [455F0CD8]
23 100,0 [E494F539] [3AAF0A18]


Manfred Mann - 8 Albums Collection 1964-66 (2014) [Parlophone Records / Warner Music Japan] Re-up

Tracklist CD5 - 1965 - Mann Made / US Version:
Parlophone Records / Warner Music Japan, WPCR-15489

Stereo:
01. Since I Don't Have You 02:36
02. You're For Me 02:56
03. Look Away 02:20
04. The Abominable Showmann 02:45
05. Watch Your Step 02:15
06. Call It Stormy Monday 03:41
07. I Really Do Believe 03:02
08. Hi Lili, Hi Lo 02:39
09. The Way You Do The Things You Do 02:41
10. Bare Hugg 03:53
11. You Don't Know Me 03:46
12. L.S.D. 03:51
13. I'll Make It Up To You 03:19
Bonus Tracks:
14. Got Rest Ye Merry Gentlemen / Mono 01:54
15. Spirit Feel / Mono 02:39
16. Tengo, Tango / Mono 03:34
17. Got Rest Ye Merry Gentlemen / Stereo 01:55
18. Spirit Feel / Stereo 02:42
19. Tengo, Tango / Stereo 03:36
20. She Needs Company / Mono 02:48
21. When Will I Be Loved / Mono 02:02
22. She Needs Company (Version 2) / Mono 03:05
23. When Will I Be Loved / Stereo 02:02
24. Come Home Baby / Mono 02:29

Exact Audio Copy V1.0 beta 3 from 29. August 2011

EAC extraction logfile from 27. May 2014, 20:03

Manfred Mann / Mann Made US SHM-CD

Used drive : PLEXTOR BD-R PX-B950SA Adapter: 6 ID: 0

Read mode : Secure
Utilize accurate stream : Yes
Defeat audio cache : Yes
Make use of C2 pointers : No

Read offset correction : 6
Overread into Lead-In and Lead-Out : No
Fill up missing offset samples with silence : Yes
Delete leading and trailing silent blocks : No
Null samples used in CRC calculations : Yes
Used interface : Native Win32 interface for Win NT & 2000

Used output format : Internal WAV Routines
Sample format : 44.100 Hz; 16 Bit; Stereo


TOC of the extracted CD

Track | Start | Length | Start sector | End sector
––––––––––––––––––––––––––––-
1 | 0:00.00 | 2:36.41 | 0 | 11740
2 | 2:36.41 | 2:56.54 | 11741 | 24994
3 | 5:33.20 | 2:20.54 | 24995 | 35548
4 | 7:53.74 | 2:45.45 | 35549 | 47968
5 | 10:39.44 | 2:15.01 | 47969 | 58094
6 | 12:54.45 | 3:41.18 | 58095 | 74687
7 | 16:35.63 | 3:02.52 | 74688 | 88389
8 | 19:38.40 | 2:39.08 | 88390 | 100322
9 | 22:17.48 | 2:41.42 | 100323 | 112439
10 | 24:59.15 | 3:53.54 | 112440 | 129968
11 | 28:52.69 | 3:46.25 | 129969 | 146943
12 | 32:39.19 | 3:51.41 | 146944 | 164309
13 | 36:30.60 | 3:19.56 | 164310 | 179290
14 | 39:50.41 | 1:54.26 | 179291 | 187866
15 | 41:44.67 | 2:39.72 | 187867 | 199863
16 | 44:24.64 | 3:34.06 | 199864 | 215919
17 | 47:58.70 | 1:55.43 | 215920 | 224587
18 | 49:54.38 | 2:42.22 | 224588 | 236759
19 | 52:36.60 | 3:36.41 | 236760 | 253000
20 | 56:13.26 | 2:48.29 | 253001 | 265629
21 | 59:01.55 | 2:02.63 | 265630 | 274842
22 | 61:04.43 | 3:05.61 | 274843 | 288778
23 | 64:10.29 | 2:02.69 | 288779 | 297997
24 | 66:13.23 | 2:29.63 | 297998 | 309235


Range status and errors

Selected range

Filename C:\Users\Meijin\Desktop\ALLexxess\Manfred Mann\1965 Mann Made (Mini LP SHM-CD US Warner Music Japan 2014)\Manfred Mann - Mann Made US SHM-CD.wav

Peak level 100.0 %
Extraction speed 8.4 X
Range quality 99.9 %
Test CRC 4820540E
Copy CRC 4820540E
Copy OK

No errors occurred


AccurateRip summary

Track 1 not present in database
Track 2 not present in database
Track 3 not present in database
Track 4 not present in database
Track 5 not present in database
Track 6 not present in database
Track 7 not present in database
Track 8 not present in database
Track 9 not present in database
Track 10 not present in database
Track 11 not present in database
Track 12 not present in database
Track 13 not present in database
Track 14 not present in database
Track 15 not present in database
Track 16 not present in database
Track 17 not present in database
Track 18 not present in database
Track 19 not present in database
Track 20 not present in database
Track 21 not present in database
Track 22 not present in database
Track 23 not present in database
Track 24 not present in database

None of the tracks are present in the AccurateRip database

End of status report

==== Log checksum 0435A359DDB1FCC879CFD5C2D11F851E2395E68599E06E767EE638C3F60D9B2F ====


[CUETools log; Date: 06.09.2019 8:51:53; Version: 2.1.4]
[AccurateRip ID: 003bf466-041320e7-81101b18] found.
Track [ CRC | V2 ] Status
01 [67531dd5|6a626164] (0+2/2) Accurately ripped
02 [6b220372|e7ff5414] (0+2/2) Accurately ripped
03 [0e4ec432|d491f867] (0+2/2) Accurately ripped
04 [85ba796f|ce69c9f9] (0+2/2) Accurately ripped
05 [daa65feb|cf0d9d69] (0+2/2) Accurately ripped
06 [9299cdd7|d5dce82d] (0+2/2) Accurately ripped
07 [469d484f|7d1a6711] (0+2/2) Accurately ripped
08 [028bb9bc|8b95dbd5] (0+2/2) Accurately ripped
09 [f67495e6|6b119bd2] (0+2/2) Accurately ripped
10 [0d254e1b|f386799a] (0+2/2) Accurately ripped
11 [be044085|fbdbf8e5] (0+2/2) Accurately ripped
12 [d5e997c9|cc08b787] (0+2/2) Accurately ripped
13 [bdc90bb6|fbb08d39] (0+2/2) Accurately ripped
14 [e7effeb7|e1a63294] (0+2/2) Accurately ripped
15 [11e02a5f|6ba7b50f] (0+2/2) Accurately ripped
16 [0bbf3c31|1634a023] (0+2/2) Accurately ripped
17 [d16765d6|8b745f2f] (0+2/2) Accurately ripped
18 [6bed821f|892bd3fb] (0+2/2) Accurately ripped
19 [c4c03d81|0e5c0db6] (0+2/2) Accurately ripped
20 [d5d43d5c|39f0455f] (0+2/2) Accurately ripped
21 [3b710861|b0e6f578] (0+2/2) Accurately ripped
22 [9b18853b|1301ce05] (0+2/2) Accurately ripped
23 [f6eda375|126f9abc] (0+2/2) Accurately ripped
24 [b2cad086|6ffb2df9] (0+2/2) Accurately ripped

Track Peak [ CRC32 ] [W/O NULL] [ LOG ]
– 100,0 [4820540E] [4D438C94] CRC32
01 100,0 [B8A15834] [8D681BF9]
02 100,0 [494422A3] [C4DE398A]
03 100,0 [759A30F5] [3B51B1EB]
04 100,0 [AB325FD8] [ADC0C6F8]
05 100,0 [C32F676F] [FCA744D1]
06 100,0 [AC02518A] [34014D5C]
07 100,0 [80567D3D] [181E36A5]
08 100,0 [C198C44B] [1A4BA97E]
09 100,0 [C315CFE6] [47380157]
10 100,0 [62051BB1] [40DF640B]
11 100,0 [6A5A8306] [A9FCB30E]
12 100,0 [25B97513] [EA45DF5B]
13 100,0 [122EDFE1] [BBFA4F47]
14 96,3 [B9E6E7C6] [9FDA0E96]
15 99,7 [6E370729] [5C24C339]
16 100,0 [A49C36E0] [4A5748EC]
17 100,0 [A2B32C52] [44E459BD]
18 99,9 [CB9ED558] [F3778E6C]
19 100,0 [BBD4B220] [C5D230A2]
20 99,7 [CE0C8973] [75722E40]
21 100,0 [2FD507FA] [A349A52B]
22 100,0 [C17FD06B] [B6DCF066]
23 100,0 [C7F85D1E] [078A819B]
24 100,0 [08951FEB] [12E034D9]


Manfred Mann - 8 Albums Collection 1964-66 (2014) [Parlophone Records / Warner Music Japan] Re-up

Tracklist CD6 - 1965 - My Little Red Book Of Winners:
Parlophone Records / Warner Music Japan, WPCR-15487

Mono:
01. My Little Red Book (All I Do Is Talk About You) 02:23
02. Oh, No, Not My Baby 02:23
03. What Am I To Do 02:41
04. The One In The Middle 02:41
05. You Gave Me Somebody To Love 03:06
06. You're For Me 02:57
07. Poison Ivy 02:56
08. Without You 02:23
09. Brother Jack 02:30
10. A Love Like Yours (Don't Come Knocking Every Day) 02:30
11. I Can't Believe What You Say 02:24
12. With God On Our Side 04:28
Bonus Tracks / Stereo:
13. My Little Red Book (All I Do Is Talk About You) 02:32
14. Oh, No, Not My Baby 02:23
15. What Am I To Do 02:42
16. The One In The Middle 02:40
17. You Gave Me Somebody To Love (Version 2) 03:02
18. Poison Ivy 02:50
19. A Love Like Yours (Don't Come Knocking Every Day) 02:26
20. I Can't Believe What You Say 02:17
21. With God On Our Side 04:26
22. The One In The Middle (Version 2) / Mono 02:29
23. If You Gotta Go, Go Now / Mono 02:33
24. There's No Living Without Your Loving / Mono 02:40
25. If You Gotta Go, Go Now 02:32
26. There's No Living Without Your Loving 02:39

Exact Audio Copy V1.0 beta 3 from 29. August 2011

EAC extraction logfile from 27. May 2014, 19:21

Manfred Mann / My Little Red Book Of Winners SHM-CD

Used drive : PLEXTOR BD-R PX-B950SA Adapter: 6 ID: 0

Read mode : Secure
Utilize accurate stream : Yes
Defeat audio cache : Yes
Make use of C2 pointers : No

Read offset correction : 6
Overread into Lead-In and Lead-Out : No
Fill up missing offset samples with silence : Yes
Delete leading and trailing silent blocks : No
Null samples used in CRC calculations : Yes
Used interface : Native Win32 interface for Win NT & 2000

Used output format : Internal WAV Routines
Sample format : 44.100 Hz; 16 Bit; Stereo


TOC of the extracted CD

Track | Start | Length | Start sector | End sector
––––––––––––––––––––––––––––-
1 | 0:00.00 | 2:23.74 | 0 | 10798
2 | 2:23.74 | 2:23.51 | 10799 | 21574
3 | 4:47.50 | 2:41.05 | 21575 | 33654
4 | 7:28.55 | 2:41.41 | 33655 | 45770
5 | 10:10.21 | 3:06.51 | 45771 | 59771
6 | 13:16.72 | 2:57.28 | 59772 | 73074
7 | 16:14.25 | 2:56.44 | 73075 | 86318
8 | 19:10.69 | 2:23.24 | 86319 | 97067
9 | 21:34.18 | 2:30.33 | 97068 | 108350
10 | 24:04.51 | 2:30.62 | 108351 | 119662
11 | 26:35.38 | 2:24.49 | 119663 | 130511
12 | 29:00.12 | 4:28.04 | 130512 | 150615
13 | 33:28.16 | 2:32.12 | 150616 | 162027
14 | 36:00.28 | 2:23.09 | 162028 | 172761
15 | 38:23.37 | 2:42.31 | 172762 | 184942
16 | 41:05.68 | 2:40.18 | 184943 | 196960
17 | 43:46.11 | 3:02.61 | 196961 | 210671
18 | 46:48.72 | 2:50.56 | 210672 | 223477
19 | 49:39.53 | 2:26.27 | 223478 | 234454
20 | 52:06.05 | 2:17.64 | 234455 | 244793
21 | 54:23.69 | 4:26.42 | 244794 | 264785
22 | 58:50.36 | 2:29.42 | 264786 | 276002
23 | 61:20.03 | 2:33.29 | 276003 | 287506
24 | 63:53.32 | 2:40.18 | 287507 | 299524
25 | 66:33.50 | 2:32.37 | 299525 | 310961
26 | 69:06.12 | 2:39.25 | 310962 | 322911


Range status and errors

Selected range

Filename C:\Users\Meijin\Desktop\ALLexxess\Manfred Mann\1965 My Little Red Book Of Winners (Mini LP SHM-CD Warner Music Japan 2014)\Manfred Mann - My Little Red Book Of Winners SHM-CD.wav

Peak level 100.0 %
Extraction speed 8.7 X
Range quality 100.0 %
Test CRC A4E83E05
Copy CRC A4E83E05
Copy OK

No errors occurred


AccurateRip summary

Track 1 not present in database
Track 2 not present in database
Track 3 not present in database
Track 4 not present in database
Track 5 not present in database
Track 6 not present in database
Track 7 not present in database
Track 8 not present in database
Track 9 not present in database
Track 10 not present in database
Track 11 not present in database
Track 12 not present in database
Track 13 not present in database
Track 14 not present in database
Track 15 not present in database
Track 16 not present in database
Track 17 not present in database
Track 18 not present in database
Track 19 not present in database
Track 20 not present in database
Track 21 not present in database
Track 22 not present in database
Track 23 not present in database
Track 24 not present in database
Track 25 not present in database
Track 26 not present in database

None of the tracks are present in the AccurateRip database

End of status report

==== Log checksum CAC918E7CE36B862525FC0DD177E0F9A176B0DEEF7E0F4014D21DB6DC7211F46 ====


[CUETools log; Date: 06.09.2019 9:00:31; Version: 2.1.4]
[AccurateRip ID: 00420e04-04d724f4-8610d11a] found.
Track [ CRC | V2 ] Status
01 [8a50a954|0b925ef1] (0+2/2) Accurately ripped
02 [7427a3b0|f61715fb] (0+2/2) Accurately ripped
03 [6361d5c0|0074b8d6] (0+2/2) Accurately ripped
04 [c7821bd5|403fab72] (0+2/2) Accurately ripped
05 [781c8e5e|d6fb24b0] (0+2/2) Accurately ripped
06 [ad8c5d96|4bdf7720] (0+2/2) Accurately ripped
07 [093f3c33|b673e3e1] (0+2/2) Accurately ripped
08 [83217522|15855f98] (0+2/2) Accurately ripped
09 [baea1689|bac604fa] (0+2/2) Accurately ripped
10 [41a0baa6|8c9e7571] (0+2/2) Accurately ripped
11 [dc385c41|788a6902] (0+2/2) Accurately ripped
12 [8eb7483f|d53cf767] (0+2/2) Accurately ripped
13 [79152dc4|4fef8ee4] (0+2/2) Accurately ripped
14 [69eb5c95|57b53439] (0+2/2) Accurately ripped
15 [60a3992b|24accfa7] (0+2/2) Accurately ripped
16 [f9e7bea1|cb3d531a] (0+2/2) Accurately ripped
17 [84ca866d|791687d1] (0+2/2) Accurately ripped
18 [b9bd677b|dd3e49f9] (0+2/2) Accurately ripped
19 [24f50d91|ff4e8b8b] (0+2/2) Accurately ripped
20 [fefef955|3aa98edf] (0+2/2) Accurately ripped
21 [5ac5591c|e2a0a375] (0+2/2) Accurately ripped
22 [099f7c0c|30ce7beb] (0+2/2) Accurately ripped
23 [f9a3e769|6e7781cf] (0+2/2) Accurately ripped
24 [9f670240|c368b720] (0+2/2) Accurately ripped
25 [0f09f840|73d7c96d] (0+2/2) Accurately ripped
26 [88a37f72|7a6945a6] (0+2/2) Accurately ripped

Track Peak [ CRC32 ] [W/O NULL] [ LOG ]
– 100,0 [A4E83E05] [96EEEEE9] CRC32
01 100,0 [276511CF] [27E5F321]
02 100,0 [2536F5A4] [4533537C]
03 100,0 [CD01C94D] [59AC5446]
04 100,0 [7C1AED15] [5B050B78]
05 100,0 [1D32DA8F] [C3F6F73F]
06 100,0 [5BE4F550] [7F12378A]
07 97,6 [F6409A3B] [80E33818]
08 100,0 [5532FAE6] [F672574A]
09 97,7 [2A76BFA7] [1B7CE990]
10 95,3 [9896BB75] [EBDFBE2E]
11 95,4 [79A27732] [80432810]
12 100,0 [79FF94E9] [E8805A04]
13 100,0 [F307E3BB] [A6781523]
14 100,0 [2B31499B] [DF34CDDA]
15 100,0 [1A0B872E] [F6ADA40D]
16 100,0 [62DCC640] [F5CF6D10]
17 100,0 [C444CD68] [138AB621]
18 100,0 [869BAAE0] [6C3D9D30]
19 100,0 [DE80AB4E] [5DEE3345]
20 100,0 [E41B0758] [B31F0C93]
21 100,0 [BF379EE2] [6953E4EA]
22 100,0 [75340F5E] [ECCBB8AE]
23 100,0 [C81FA038] [4FA7293E]
24 100,0 [9B538C82] [E20B4480]
25 97,5 [ACC893AF] [0CE2DEAC]
26 96,6 [CC97B0C3] [5A807A1C]


Manfred Mann - 8 Albums Collection 1964-66 (2014) [Parlophone Records / Warner Music Japan] Re-up

Tracklist CD7 - 1966 - Pretty Flamingo:
Parlophone Records / Warner Music Japan, WPCR-15490

Mono:
01. Pretty Flamingo 02:38
02. Let's Go Get Stoned 02:51
03. Tired Of Trying, Bored With Living, Scared Of Dying 02:56
04. I Put A Spell On You 03:37
05. It's Getting Late 02:41
06. You're Standing By 03:01
07. Machines 02:40
08. Stay Around 02:28
09. Tennessee Waltz 03:05
10. Driva Man 02:32
11. Do You Have To Do That? 03:31
Bonus Tracks / Stereo:
12. Pretty Flamingo 02:30
13. Let's Go Get Stoned 03:52
14. Tired Of Trying, Bored With Living, Scared Of Dying 02:43
15. I Put A Spell On You 03:38
16. It's Getting Late 02:37
17. You're Standing By 02:49
18. Machines 02:29
19. Stay Around 02:28
20. Tennessee Waltz 03:05
21. Driva Man 03:32
22. The Charge Of The Light Brigade / Mono 03:01
23. The Charge Of The Light Brigade 02:58
24. Group Interview 11:05

Exact Audio Copy V1.0 beta 3 from 29. August 2011

EAC extraction logfile from 27. May 2014, 17:28

Manfred Mann / Pretty Flamingo SHM-CD

Used drive : PLEXTOR BD-R PX-B950SA Adapter: 6 ID: 0

Read mode : Secure
Utilize accurate stream : Yes
Defeat audio cache : Yes
Make use of C2 pointers : No

Read offset correction : 6
Overread into Lead-In and Lead-Out : No
Fill up missing offset samples with silence : Yes
Delete leading and trailing silent blocks : No
Null samples used in CRC calculations : Yes
Used interface : Native Win32 interface for Win NT & 2000

Used output format : Internal WAV Routines
Sample format : 44.100 Hz; 16 Bit; Stereo


TOC of the extracted CD

Track | Start | Length | Start sector | End sector
––––––––––––––––––––––––––––-
1 | 0:00.00 | 2:38.22 | 0 | 11871
2 | 2:38.22 | 3:51.46 | 11872 | 29242
3 | 6:29.68 | 2:56.08 | 29243 | 42450
4 | 9:26.01 | 3:37.74 | 42451 | 58799
5 | 13:04.00 | 2:41.72 | 58800 | 70946
6 | 15:45.72 | 3:01.56 | 70947 | 84577
7 | 18:47.53 | 2:40.26 | 84578 | 96603
8 | 21:28.04 | 2:28.66 | 96604 | 107769
9 | 23:56.70 | 3:05.30 | 107770 | 121674
10 | 27:02.25 | 2:32.63 | 121675 | 133137
11 | 29:35.13 | 3:31.36 | 133138 | 148998
12 | 33:06.49 | 2:30.15 | 148999 | 160263
13 | 35:36.64 | 3:52.50 | 160264 | 177713
14 | 39:29.39 | 2:43.15 | 177714 | 189953
15 | 42:12.54 | 3:38.63 | 189954 | 206366
16 | 45:51.42 | 2:37.63 | 206367 | 218204
17 | 48:29.30 | 2:49.30 | 218205 | 230909
18 | 51:18.60 | 2:29.01 | 230910 | 242085
19 | 53:47.61 | 2:28.03 | 242086 | 253188
20 | 56:15.64 | 3:05.48 | 253189 | 267111
21 | 59:21.37 | 2:32.17 | 267112 | 278528
22 | 61:53.54 | 3:01.37 | 278529 | 292140
23 | 64:55.16 | 2:58.47 | 292141 | 305537
24 | 67:53.63 | 11:05.37 | 305538 | 355449


Range status and errors

Selected range

Filename C:\Users\Meijin\Desktop\ALLexxess\Manfred Mann\1966 Pretty Flamingo (Mini LP SHM-CD Warner Music Japan 2014)\Manfred Mann - Pretty Flamingo SHM-CD.wav

Peak level 100.0 %
Extraction speed 8.8 X
Range quality 99.9 %
Test CRC A6F970AA
Copy CRC A6F970AA
Copy OK

No errors occurred


AccurateRip summary

Track 1 not present in database
Track 2 not present in database
Track 3 not present in database
Track 4 not present in database
Track 5 not present in database
Track 6 not present in database
Track 7 not present in database
Track 8 not present in database
Track 9 not present in database
Track 10 not present in database
Track 11 not present in database
Track 12 not present in database
Track 13 not present in database
Track 14 not present in database
Track 15 not present in database
Track 16 not present in database
Track 17 not present in database
Track 18 not present in database
Track 19 not present in database
Track 20 not present in database
Track 21 not present in database
Track 22 not present in database
Track 23 not present in database
Track 24 not present in database

None of the tracks are present in the AccurateRip database

End of status report

==== Log checksum B0102B31D1C1524B341A765B4AEAF6BEC8D00550B3F8071E9C225EDA8C7CAD0E ====


[CUETools log; Date: 06.09.2019 9:48:50; Version: 2.1.4]
[AccurateRip ID: 003e4f50-04374a14-7b128318] found.
Track [ CRC | V2 ] Status
01 [965bb51f|261b3a94] (0+2/2) Accurately ripped
02 [f8a3aa79|5c1943e3] (0+2/2) Accurately ripped
03 [3ae6f575|daa7647d] (0+2/2) Accurately ripped
04 [442e542f|7a3a2385] (0+2/2) Accurately ripped
05 [b0339a60|ce5971ca] (0+2/2) Accurately ripped
06 [7046289c|4792b531] (0+2/2) Accurately ripped
07 [abaa6304|1397c135] (0+2/2) Accurately ripped
08 [b2a34b29|aa5220d5] (0+2/2) Accurately ripped
09 [0f98c3f8|7e4c1e77] (0+2/2) Accurately ripped
10 [b85c0a76|6e44b95d] (0+2/2) Accurately ripped
11 [70876591|37e478ee] (0+2/2) Accurately ripped
12 [539d66c4|32055ff8] (0+2/2) Accurately ripped
13 [1dcdc9e2|54d96a02] (0+2/2) Accurately ripped
14 [bed72c17|c713569e] (0+2/2) Accurately ripped
15 [0dcf5df0|d4a427a0] (0+2/2) Accurately ripped
16 [887af8b4|a5cabe29] (0+2/2) Accurately ripped
17 [3111290e|a5a2fc4c] (0+2/2) Accurately ripped
18 [6af25083|cf3d1e0f] (0+2/2) Accurately ripped
19 [4b47656b|b3174e22] (0+2/2) Accurately ripped
20 [25a57716|34853b0a] (0+2/2) Accurately ripped
21 [0ff31479|8ca02a29] (0+2/2) Accurately ripped
22 [0b38483a|aa5310aa] (0+2/2) Accurately ripped
23 [a7cc99f0|37779134] (0+2/2) Accurately ripped
24 [a2cfeecb|2c8fd95d] (0+2/2) Accurately ripped

Track Peak [ CRC32 ] [W/O NULL] [ LOG ]
– 100,0 [A6F970AA] [C0755C74] CRC32
01 100,0 [CBF8D6A0] [FC2716BC]
02 100,0 [DF8E822B] [7CD4BAFB]
03 100,0 [3066B058] [31F83DC4]
04 100,0 [1C772FE9] [DDEFAEC7]
05 100,0 [550610AA] [29BC063F]
06 100,0 [DECA982A] [AA8B1D68]
07 100,0 [2B92247D] [289917B6]
08 100,0 [3805AA48] [645ED369]
09 100,0 [649A6ACB] [7B68A374]
10 100,0 [EEFFE480] [ED908BA8]
11 100,0 [E8B2542E] [A4F2C2D6]
12 100,0 [0689D7A9] [0B9F978A]
13 100,0 [1815A0BE] [B6BB9765]
14 100,0 [24124BEC] [48F9BB5D]
15 100,0 [BFE71136] [1160B1BE]
16 100,0 [1C4BD3D1] [0C13CC0F]
17 100,0 [C3EF0031] [BD783BFB]
18 100,0 [E1689982] [8E6632A5]
19 99,9 [B9882126] [13A48262]
20 100,0 [CFAEFBA6] [C18796E4]
21 100,0 [AEA3C9A2] [1A1EF4BC]
22 100,0 [3892C332] [85E02968]
23 100,0 [E80A03FF] [DB504A23]
24 100,0 [E4215EF0] [31EC6A54]


Manfred Mann - 8 Albums Collection 1964-66 (2014) [Parlophone Records / Warner Music Japan] Re-up

Tracklist CD8 - 1967 - Soul Of Mann:
Parlophone Records / Warner Music Japan, WPCR-15570

01. The Abominable Snowmann 02:47
02. I Got You Babe 02:32
03. Bare Hugg 03;55
04. Spirit Feel 02:43
05. Why Should We Not 03:03
06. L.S.D. 03:53
07. (I Can't Get No) Satisfaction 02:51
08. God Rest Ye Merry Gentlemen 01:56
09. My Generation 02:30
10. Mr. Anello 02:16
11. Still I'm Sad 02:45
12. Tengo, Tango 03:37
13. Brother Jack 02:31
14. Sack O'Woe 02:07

Exact Audio Copy V1.0 beta 3 from 29. August 2011

EAC extraction logfile from 26. May 2014, 21:27

Manfred Mann / Soul Of Mann

Used drive : PLEXTOR BD-R PX-B950SA Adapter: 6 ID: 0

Read mode : Secure
Utilize accurate stream : Yes
Defeat audio cache : Yes
Make use of C2 pointers : No

Read offset correction : 6
Overread into Lead-In and Lead-Out : No
Fill up missing offset samples with silence : Yes
Delete leading and trailing silent blocks : No
Null samples used in CRC calculations : Yes
Used interface : Native Win32 interface for Win NT & 2000

Used output format : Internal WAV Routines
Sample format : 44.100 Hz; 16 Bit; Stereo


TOC of the extracted CD

Track | Start | Length | Start sector | End sector
––––––––––––––––––––––––––––-
1 | 0:00.00 | 2:47.38 | 0 | 12562
2 | 2:47.38 | 2:32.41 | 12563 | 24003
3 | 5:20.04 | 3:55.10 | 24004 | 41638
4 | 9:15.14 | 2:43.05 | 41639 | 53868
5 | 11:58.19 | 3:03.03 | 53869 | 67596
6 | 15:01.22 | 3:53.48 | 67597 | 85119
7 | 18:54.70 | 2:51.07 | 85120 | 97951
8 | 21:46.02 | 1:56.72 | 97952 | 106723
9 | 23:42.74 | 2:30.05 | 106724 | 117978
10 | 26:13.04 | 2:16.27 | 117979 | 128205
11 | 28:29.31 | 2:45.43 | 128206 | 140623
12 | 31:14.74 | 3:37.71 | 140624 | 156969
13 | 34:52.70 | 2:31.01 | 156970 | 168295
14 | 37:23.71 | 2:07.64 | 168296 | 177884


Range status and errors

Selected range

Filename C:\Users\Meijin\Desktop\ALLexxess\Manfred Mann\1967 Soul Of Mann (Mini LP CD Warner Music Japan 2014)\Manfred Mann - Soul Of Mann.wav

Peak level 100.0 %
Extraction speed 6.6 X
Range quality 99.9 %
Test CRC EE6D2B6C
Copy CRC EE6D2B6C
Copy OK

No errors occurred


AccurateRip summary

Track 1 not present in database
Track 2 not present in database
Track 3 not present in database
Track 4 not present in database
Track 5 not present in database
Track 6 not present in database
Track 7 not present in database
Track 8 not present in database
Track 9 not present in database
Track 10 not present in database
Track 11 not present in database
Track 12 not present in database
Track 13 not present in database
Track 14 not present in database

None of the tracks are present in the AccurateRip database

End of status report

==== Log checksum D55D1FF88E1C5B836F35B7406F810ED6B017EEEC1CE8E18CA7401E886E165173 ====


[CUETools log; Date: 06.09.2019 9:51:35; Version: 2.1.4]
[AccurateRip ID: 00150c64-00df19ef-af09430e] found.
Track [ CRC | V2 ] Status
01 [279baf64|3bc684bc] (0+3/3) Accurately ripped
02 [867dc8ca|6fa562aa] (0+3/3) Accurately ripped
03 [efcd9eef|665e0e3e] (0+3/3) Accurately ripped
04 [5e78d2b0|bcdb0761] (0+3/3) Accurately ripped
05 [2fb36561|b4bdaf26] (0+3/3) Accurately ripped
06 [a4209deb|c978301b] (0+3/3) Accurately ripped
07 [b9cce354|afd5dadf] (0+3/3) Accurately ripped
08 [f6cda1c0|34cf440f] (0+3/3) Accurately ripped
09 [e20bfd8a|62d41396] (0+3/3) Accurately ripped
10 [719fd555|991dfe55] (0+3/3) Accurately ripped
11 [56a207b9|11f216cf] (0+3/3) Accurately ripped
12 [a1126524|098a8318] (0+3/3) Accurately ripped
13 [71bc66ee|ede00c4f] (0+3/3) Accurately ripped
14 [4da125e6|ee615ed5] (0+3/3) Accurately ripped

Track Peak [ CRC32 ] [W/O NULL] [ LOG ]
– 100,0 [EE6D2B6C] [7B1E4D73] CRC32
01 99,9 [E0953EF7] [3D4291F6]
02 99,7 [D94440F5] [42F0C61E]
03 99,8 [5599B3A1] [9B115519]
04 99,7 [BE555080] [D0BC2DD8]
05 99,7 [0AAFBF6F] [5DD833C3]
06 100,0 [BF5877FD] [803B5B0E]
07 99,7 [FC08F674] [FD702A0E]
08 87,9 [22443C1F] [4F62034C]
09 94,8 [B72F93D0] [10850A38]
10 98,3 [1B7608B1] [1C1EE82F]
11 99,7 [BDEEF15C] [9FCEBC76]
12 99,6 [B3F42DF3] [AF3F39FE]
13 100,0 [999BD07B] [91B4E6AE]
14 94,0 [ED5D0320] [3DA36C84]


All thanks go to ALLexxess

Manfred Mann in my Blog

Download Manfred Mann - 8 Albums Collection 1964-66 (2014):