Tags
Language
Tags

Manu Katché - Third Round (2010)

Posted By: popsakov
Manu Katché - Third Round (2010)

Manu Katché - Third Round (2010)
EAC Rip | FLAC (Tracks) + Cue + Log + m3u ~ 271 Mb | MP3 CBR320 ~ 122 Mb
Full Scans | 00:44:36 | RAR 5% Recovery
Contemporary Jazz | ECM Records #ECM 2156 / 273 2131

Third ECM album by French-African drummer Manu Katché, following the best selling 'Neighbourhood' and 'Playground'. 'Third Round' features a completely revised ensemble line-up, but is faithful to a group concept that The Guardian described as "beautifully mutated grooves and jazzy themes", with all participants elevated by the physical presence of Katché's beats and drum patterns. Once again, all music is written by Manu, and his insinuating melodies testify to parallel lives in pop and jazz. The album was recorded in the South of France with producer Manfred Eicher.

A drummer renowned worldwide for his collaborations with pop singers from Sting and Peter Gabriel to Youssou N'Dour, Manu Katché is seen regularly throughout Europe with his Arte channel jam music TV show "One Shot Not". He's a star of the first magnitude in France, and has also - since his affiliation with ECM began - become a force to be reckoned with in jazz. His ECM debut 'Neighbourhood' won the Album of the Year prize of the German record critics amongst many other awards. Additionally, his participation in Jan Garbarek's projects, including the widely-praised live album 'Dresden' has underscored the singularity of his drum approach.

Welsh-born bass guitar legend Pino Palladino has played with Eric Clapton, the Who, Jeff Beck, Paul Simon, Chaka Khan and many other major figures in rock/pop/soul. Jazz and blues and associations range from BB King to Roy Hargrove. Pianist Jason Rebello, once described by UK critic Stuart Nicholson as "probably the finest young jazz musician this country has produced", has played with Gary Burton and Branford Marsalis, and his 1990 debut album was produced by Wayne Shorter. Norwegian saxophonist Tone Brunborg is well-known to followers of ECM from his work with the band Masqualero to the current Tord Gustavsen Ensemble. Guesting are Norwegian/American guitarist Jacob Young, and American singer/songwriter/trumpeter Kami Lyle who adds vocals to "Stay with You", for which she also wrote the lyrics.
Personnel: Manu Katché (drums), Pino Palladino (bass), Jason Rebello (piano), Tore Brunborg (saxohones), Jacob Young (guitars), Kami Lyle (voice, trumpet).
Manu Katché - Third Round (2010)


***************

Manu Katché - Third Round (2010)

Manu Katché - Third Round (2010)

Track List:

01. Swing Piece [4:55]
02. Keep On Trippin [5:34]
03. Senses [4:13]
04. Being Ben [4:23]
05. Une larme dans ton sourire [2:27]
06. Springtime Dancing [4:10]
07. Out Take Number 9 [2:08]
08. Shine And Blue [4:53]
09. Stay With You [4:31]
10. Flower Skin [4:23]
11. Urban Shadow [2:58]

Exact Audio Copy V0.99 prebeta 5 from 4. May 2009

EAC extraction logfile from 26. March 2010, 15:11

Manu Katche / Third Round

Used drive : HL-DT-STDVDRAM GSA-T40N Adapter: 0 ID: 0

Read mode : Secure
Utilize accurate stream : Yes
Defeat audio cache : Yes
Make use of C2 pointers : No

Read offset correction : 667
Overread into Lead-In and Lead-Out : No
Fill up missing offset samples with silence : Yes
Delete leading and trailing silent blocks : No
Null samples used in CRC calculations : Yes
Used interface : Installed external ASPI interface
Gap handling : Appended to previous track

Used output format : User Defined Encoder
Selected bitrate : 128 kBit/s
Quality : High
Add ID3 tag : No
Command line compressor : C:\Program Files\FLAC\flac.exe
Additional command line options : -8 -V -T "ARTIST=%a" -T "TITLE=%t" -T "ALBUM=%g" -T "DATE=%y" -T "TRACKNUMBER=%n" -T "GENRE=%m" -T "COMMENT=EAC FLAC -8" %s


TOC of the extracted CD

Track | Start | Length | Start sector | End sector
––––––––––––––––––––––––––––-
1 | 0:00.00 | 4:54.67 | 0 | 22116
2 | 4:54.67 | 5:34.08 | 22117 | 47174
3 | 10:29.00 | 4:13.28 | 47175 | 66177
4 | 14:42.28 | 4:22.63 | 66178 | 85890
5 | 19:05.16 | 2:26.48 | 85891 | 96888
6 | 21:31.64 | 4:10.26 | 96889 | 115664
7 | 25:42.15 | 2:08.37 | 115665 | 125301
8 | 27:50.52 | 4:53.30 | 125302 | 147306
9 | 32:44.07 | 4:30.68 | 147307 | 167624
10 | 37:15.00 | 4:23.14 | 167625 | 187363
11 | 41:38.14 | 2:58.16 | 187364 | 200729


Track 1

Filename D:\eac\01 - Swing Piece.wav

Pre-gap length 0:00:02.00

Peak level 97.7 %
Track quality 100.0 %
Test CRC AE0D9B95
Copy CRC AE0D9B95
Track not present in AccurateRip database
Copy OK

Track 2

Filename D:\eac\02 - Keep On Trippin.wav

Peak level 98.1 %
Track quality 100.0 %
Test CRC 59517D1A
Copy CRC 59517D1A
Track not present in AccurateRip database
Copy OK

Track 3

Filename D:\eac\03 - Senses.wav

Peak level 97.3 %
Track quality 99.9 %
Test CRC A50E289B
Copy CRC A50E289B
Track not present in AccurateRip database
Copy OK

Track 4

Filename D:\eac\04 - Being Ben.wav

Peak level 97.6 %
Track quality 100.0 %
Test CRC 124E062B
Copy CRC 124E062B
Track not present in AccurateRip database
Copy OK

Track 5

Filename D:\eac\05 - Une larme dans ton sourire.wav

Peak level 97.4 %
Track quality 100.0 %
Test CRC 468F06CC
Copy CRC 468F06CC
Track not present in AccurateRip database
Copy OK

Track 6

Filename D:\eac\06 - Springtime Dancing.wav

Peak level 97.7 %
Track quality 100.0 %
Test CRC 797310DB
Copy CRC 797310DB
Track not present in AccurateRip database
Copy OK

Track 7

Filename D:\eac\07 - Out Take Number 9.wav

Peak level 96.9 %
Track quality 99.9 %
Test CRC B7FCB509
Copy CRC B7FCB509
Track not present in AccurateRip database
Copy OK

Track 8

Filename D:\eac\08 - Shine And Blue.wav

Peak level 97.8 %
Track quality 100.0 %
Test CRC 7B106C32
Copy CRC 7B106C32
Track not present in AccurateRip database
Copy OK

Track 9

Filename D:\eac\09 - Stay With You.wav

Peak level 97.5 %
Track quality 100.0 %
Test CRC 95C17F35
Copy CRC 95C17F35
Track not present in AccurateRip database
Copy OK

Track 10

Filename D:\eac\10 - Flower Skin.wav

Peak level 97.7 %
Track quality 100.0 %
Test CRC 9D977666
Copy CRC 9D977666
Track not present in AccurateRip database
Copy OK

Track 11

Filename D:\eac\11 - Urban Shadow.wav

Peak level 97.1 %
Track quality 100.0 %
Test CRC DE03DDC1
Copy CRC DE03DDC1
Track not present in AccurateRip database
Copy OK


None of the tracks are present in the AccurateRip database

No errors occurred

End of status report

[CUETools log; Date: 06.07.2017 0:34:16; Version: 2.1.5]
[CTDB TOCID: xuMxmlHCjSjsyH6dpoJeu4A7Jkc-] found.
Track | CTDB Status
1 | (271/276) Accurately ripped
2 | (274/276) Accurately ripped
3 | (274/276) Accurately ripped
4 | (274/276) Accurately ripped
5 | (272/276) Accurately ripped
6 | (274/276) Accurately ripped
7 | (273/276) Accurately ripped
8 | (272/276) Accurately ripped
9 | (272/276) Accurately ripped
10 | (273/276) Accurately ripped
11 | (273/276) Accurately ripped
[AccurateRip ID: 001342a3-00a3f515-960a740b] found.
Track [ CRC | V2 ] Status
01 [f7094df9|6d1b45c3] (155+200/361) Accurately ripped
02 [6e1e74f2|c3627a1b] (155+200/361) Accurately ripped
03 [529654f4|bed1469c] (153+200/361) Accurately ripped
04 [1a9e152d|a92be929] (156+200/362) Accurately ripped
05 [95b1fce9|e6c77388] (156+200/362) Accurately ripped
06 [8bcb0070|c2531e74] (154+200/360) Accurately ripped
07 [cb42b99d|ad57db1e] (156+200/362) Accurately ripped
08 [323e8f2d|50e37880] (156+200/362) Accurately ripped
09 [5f35fa93|8dcec37d] (155+200/361) Accurately ripped
10 [2e31524c|ca17a08b] (156+200/362) Accurately ripped
11 [0f0bd2fd|d182962a] (156+200/362) Accurately ripped
Offsetted by -667:
01 [a2209242] (000/361) No match (V2 was not tested)
02 [d935aa06] (000/361) No match (V2 was not tested)
03 [dbfed4a2] (000/361) No match (V2 was not tested)
04 [82e6d08c] (000/362) No match (V2 was not tested)
05 [a35a96dd] (000/362) No match (V2 was not tested)
06 [0e029c80] (000/360) No match (V2 was not tested)
07 [0e5c0091] (000/362) No match (V2 was not tested)
08 [72675b38] (000/362) No match (V2 was not tested)
09 [8e04ef51] (000/361) No match (V2 was not tested)
10 [4adb91a7] (000/362) No match (V2 was not tested)
11 [08691c60] (000/362) No match (V2 was not tested)
Offsetted by -66:
01 [e482d46e] (000/361) No match (V2 was not tested)
02 [ae33c4f1] (000/361) No match (V2 was not tested)
03 [3e5ce4f7] (000/361) No match (V2 was not tested)
04 [0d718cf6] (000/362) No match (V2 was not tested)
05 [67354469] (000/362) No match (V2 was not tested)
06 [dd510a1d] (000/360) No match (V2 was not tested)
07 [403e1a7b] (000/362) No match (V2 was not tested)
08 [dd0dfa7c] (000/362) No match (V2 was not tested)
09 [480b2614] (000/361) No match (V2 was not tested)
10 [3d0504fa] (000/362) No match (V2 was not tested)
11 [5038d9ee] (000/362) No match (V2 was not tested)

Track Peak [ CRC32 ] [W/O NULL] [ LOG ]
– 98,1 [A2F35A22] [F8AA03F1]
01 97,7 [AE0D9B95] [1668B937] CRC32
02 98,1 [59517D1A] [356AFEBC] CRC32
03 97,3 [A50E289B] [96836E75] CRC32
04 97,6 [124E062B] [971AB71F] CRC32
05 97,4 [468F06CC] [26746F21] CRC32
06 97,7 [797310DB] [0BCF48C5] CRC32
07 96,9 [B7FCB509] [84EB1979] CRC32
08 97,8 [7B106C32] [FDB89701] CRC32
09 97,5 [95C17F35] [D01F53BA] CRC32
10 97,7 [9D977666] [E3339253] CRC32
11 97,1 [DE03DDC1] [456A54B3] CRC32

Manu Katché - Third Round (2010)


All thanks go to Youkali

>>> My Blog <<<

DOWNLOAD: